osu file format v14

[General]
AudioFilename: audio.mp3
AudioLeadIn: 0
PreviewTime: 33850
Countdown: 0
SampleSet: None
StackLeniency: 0.5
Mode: 0
LetterboxInBreaks: 0
WidescreenStoryboard: 1

[Editor]
DistanceSpacing: 1.5
BeatDivisor: 4
GridSize: 8
TimelineZoom: 2

[Metadata]
Title:Touhou Hisouten
TitleUnicode:Touhou Hisouten
Artist:Akiyama Uni
ArtistUnicode:Akiyama Uni
Creator:P4ndemonium
Version:Unplayable
Source:
Tags:
BeatmapID:1778329
BeatmapSetID:850397

[Difficulty]
HPDrainRate:3
CircleSize:3.5
OverallDifficulty:9
ApproachRate:9.5
SliderMultiplier:2
SliderTickRate:1

[Events]
//Background and Video events
0,0,"po.jpg",0,0
//Break Periods
//Storyboard Layer 0 (Background)
//Storyboard Layer 1 (Fail)
//Storyboard Layer 2 (Pass)
//Storyboard Layer 3 (Foreground)
//Storyboard Sound Samples

[TimingPoints]
352,348.837209302326,4,1,0,50,1,0
352,-133.333333333333,4,1,0,50,0,0
1050,348.837209302326,4,1,0,50,1,0
1050,-200,4,1,0,50,0,0
8026,-400,4,1,0,50,0,0
10100,250,4,1,0,50,1,0
10100,-133.333333333333,4,1,0,50,0,0
10475,-200,4,1,0,50,0,0
10850,-133.333333333333,4,1,0,50,0,0
11475,-200,4,1,0,50,0,0
11850,-133.333333333333,4,1,0,50,0,0
12475,-200,4,1,0,50,0,0
12850,-133.333333333333,4,1,0,50,0,0
13350,-200,4,1,0,50,0,0
13725,-133.333333333333,4,1,0,50,0,0
14475,-200,4,1,0,50,0,0
14850,-133.333333333333,4,1,0,50,0,0
15100,-100,4,1,0,50,0,0
18100,-133.333333333333,4,1,0,50,0,0
18475,-200,4,1,0,50,0,0
18850,-133.333333333333,4,1,0,50,0,0
20475,-200,4,1,0,50,0,0
20850,-133.333333333333,4,1,0,50,0,0
26475,-200,4,1,0,50,0,0
26850,-133.333333333333,4,1,0,50,0,0
28475,-200,4,1,0,50,0,0
28850,-133.333333333333,4,1,0,50,0,0
32975,-100,4,1,0,50,0,0
34100,-66.6666666666667,4,1,0,50,0,1
66100,-133.333333333333,4,1,0,50,0,0
66475,-200,4,1,0,50,0,0
66850,-133.333333333333,4,1,0,50,0,0
67475,-200,4,1,0,50,0,0
67850,-133.333333333333,4,1,0,50,0,0
68475,-200,4,1,0,50,0,0
68850,-133.333333333333,4,1,0,50,0,0
69475,-200,4,1,0,50,0,0
70100,-100,4,1,0,50,0,0
72100,-133.333333333333,4,1,0,50,0,0
72475,-200,4,1,0,50,0,0
72850,-133.333333333333,4,1,0,50,0,0

[Colours]
Combo1 : 253,255,255
Combo2 : 255,0,66
Combo3 : 141,123,196

[HitObjects]
18,222,700,6,0,P|68:199|123:210,1,112.500004291535
123,210,1050,6,0,P|169:225|219:220,1,100
296,276,1573,2,0,P|342:257|376:222,1,100
320,369,2096,2,0,P|342:379|367:384,1,50
443,291,2445,6,0,P|401:263|375:221,1,100
428,141,2968,2,0,P|413:93|421:44,1,100
299,34,3491,2,0,P|316:15|336:1,1,50
349,197,3840,6,0,P|302:212|252:207,1,100
116,74,4363,2,0,P|154:107|174:153,1,100
137,288,4887,2,0,P|150:267|167:248,1,50
355,149,5236,6,0,P|342:127|325:108,1,50
314,236,5584,2,0,P|290:227|265:224,1,50
338,329,5933,2,0,P|314:338|293:351,1,50
409,228,6282,2,0,P|432:237|453:250,1,50
426,106,6631,6,0,P|376:109|332:132,1,100
200,15,7154,2,0,P|249:18|293:41,1,100
133,83,7677,2,0,P|109:92|88:105,1,50
75,199,8026,6,0,P|117:208|155:230,1,87.5
256,192,8724,12,0,9770,0:0:0:0:
55,33,10100,6,0,P|127:23|190:61,1,150.000005722046
204,80,10475,6,0,P|252:90|300:77,1,100
318,70,10850,6,0,P|355:70|390:82,1,75.0000028610231
486,115,11100,6,0,P|444:176|430:249,1,150.000005722046
418,265,11475,6,0,P|404:217|376:176,1,100
355,182,11850,6,0,P|348:218|331:252,1,75.0000028610231
285,336,12100,6,0,P|222:297|149:307,1,150.000005722046
131,299,12475,6,0,P|83:312|34:302,1,100
24,284,12850,6,0,P|47:255|60:219,1,75.0000028610231
51,97,13100,5,0,0:0:0:0:
204,161,13225,1,0,0:0:0:0:
51,97,13350,2,0,P|99:105|146:88,1,100
293,165,13725,6,0,P|259:149|221:145,2,75.0000028610231
394,357,14100,6,0,P|405:283|448:222,1,150.000005722046
465,209,14475,6,0,P|454:160|427:119,1,100
412,102,14850,6,0,P|422:67|446:38,1,75.0000028610231
281,272,15100,6,0,B|373:219|355:119|307:83|235:102|219:153|243:196,2,300
103,217,15975,6,0,P|78:210|53:208,1,50
113,194,16100,6,0,B|21:141|39:41|87:5|159:24|175:75|151:118,2,300
261,92,17100,5,0,0:0:0:0:
412,49,17225,1,0,0:0:0:0:
261,92,17350,1,0,0:0:0:0:
428,101,17475,1,0,0:0:0:0:
319,235,17600,2,0,P|318:185|342:142,1,100
433,301,17850,2,0,P|434:252|410:209,1,100
160,272,18100,6,0,P|234:281|301:249,1,150.000005722046
319,235,18475,6,0,P|269:230|226:206,1,100
227,185,18850,6,0,P|262:172|290:148,1,75.0000028610231
273,57,19100,6,0,P|218:61|166:41,1,112.500004291535
146,28,19350,1,0,0:0:0:0:
13,129,19475,2,0,P|50:128|85:114,1,75.0000028610231
227,185,19725,2,0,P|189:184|155:169,1,75.0000028610231
267,267,19975,5,0,0:0:0:0:
112,328,20100,2,0,P|186:321|250:284,1,150.000005722046
266,267,20475,6,0,P|316:273|359:297,1,100
376,315,20850,6,0,P|406:293|442:283,1,75.0000028610231
512,100,21100,6,0,P|456:104|404:84,1,112.500004291535
384,70,21350,1,0,0:0:0:0:
236,38,21475,2,0,P|273:37|307:22,1,75.0000028610231
362,190,21725,2,0,P|324:189|290:174,1,75.0000028610231
117,197,21975,5,0,0:0:0:0:
272,161,22100,2,0,P|211:204|137:206,1,150.000005722046
71,121,22475,2,0,P|36:106|0:104,1,75.0000028610231
142,336,22725,5,0,0:0:0:0:
117,197,22850,1,0,0:0:0:0:
142,336,22975,1,0,0:0:0:0:
271,161,23100,2,0,P|235:155|201:137,2,75.0000028610231
298,159,23600,1,0,0:0:0:0:
412,16,23725,5,0,0:0:0:0:
386,185,23850,1,0,0:0:0:0:
412,16,23975,1,0,0:0:0:0:
443,267,24100,2,0,P|479:273|512:290,2,75.0000028610231
426,285,24475,6,0,P|392:302|356:308,1,75.0000028610231
231,376,24725,2,0,P|194:368|162:349,1,75.0000028610231
91,267,24975,5,0,0:0:0:0:
91,267,25100,2,0,P|127:260|160:243,2,75.0000028610231
39,116,25600,6,0,P|104:150|178:147,1,150.000005722046
178,147,26100,6,0,P|249:130|317:161,1,150.000005722046
331,177,26475,6,0,P|377:159|425:168,1,100
444,158,26850,6,0,P|476:177|512:183,1,75.0000028610231
512,345,27100,6,0,P|457:341|405:361,1,112.500004291535
385,374,27350,1,0,0:0:0:0:
279,270,27475,2,0,P|316:271|351:285,1,75.0000028610231
444,158,27725,2,0,P|406:159|372:174,1,75.0000028610231
210,16,27975,5,0,0:0:0:0:
364,77,28100,2,0,P|290:70|226:33,1,150.000005722046
210,16,28475,6,0,P|160:22|117:46,1,100
100,64,28850,6,0,P|70:42|34:32,1,75.0000028610231
173,163,29100,6,0,P|118:159|66:179,1,112.500004291535
46,192,29350,1,0,0:0:0:0:
129,324,29475,2,0,P|165:331|197:351,1,75.0000028610231
285,223,29725,2,0,P|248:230|216:250,1,75.0000028610231
458,217,29975,5,0,0:0:0:0:
328,114,30100,2,0,P|371:174|435:211,1,150.000005722046
338,330,30475,2,0,P|372:314|409:309,1,75.0000028610231
247,195,30725,5,0,0:0:0:0:
265,383,30850,1,0,0:0:0:0:
247,195,30975,1,0,0:0:0:0:
110,336,31100,2,0,P|147:334|184:344,2,75.0000028610231
97,320,31475,6,0,P|62:335|25:340,1,75.0000028610231
108,217,31725,2,0,P|72:206|40:186,1,75.0000028610231
0,93,31975,5,0,0:0:0:0:
0,93,32100,2,0,P|74:93|137:54,1,150.000005722046
179,150,32475,5,0,0:0:0:0:
179,150,32600,2,0,P|253:149|316:188,1,150.000005722046
468,109,32975,6,0,P|461:84|459:59,1,50
487,122,33100,1,0,0:0:0:0:
316,188,33225,1,0,0:0:0:0:
316,188,33475,5,0,0:0:0:0:
432,271,33600,1,0,0:0:0:0:
330,45,33725,1,0,0:0:0:0:
186,247,33850,2,0,P|156:249|135:255,3,50
164,133,34100,6,0,P|309:156|442:91,1,300.000011444092
100,289,34475,2,0,P|245:266|378:331,1,300.000011444092
73,33,34850,2,0,P|146:41|212:8,1,150.000005722046
36,282,35100,6,0,P|250:232|441:342,1,450.000017166138
290,57,35600,6,0,P|363:65|429:32,1,150.000005722046
209,335,35850,6,0,P|282:339|342:383,1,150.000005722046
121,117,36100,6,0,P|182:76|212:8,1,150.000005722046
52,246,36350,6,0,P|105:296|123:368,1,150.000005722046
108,101,36600,6,0,P|142:88|168:60,1,75.0000028610231
187,263,36725,2,0,P|202:298|209:335,1,75.0000028610231
287,123,36850,2,0,P|360:131|426:98,1,150.000005722046
43,279,37100,6,0,P|257:229|448:339,1,450.000017166138
13,73,37600,6,0,P|86:81|152:48,1,150.000005722046
52,298,37850,2,0,P|125:289|191:322,1,150.000005722046
234,86,38100,6,0,P|379:109|512:44,1,300.000011444092
209,312,38475,2,0,P|354:289|487:354,1,300.000011444092
152,24,38850,2,0,P|225:32|291:0,1,150.000005722046
82,294,39100,6,0,P|296:244|487:354,1,450.000017166138
372,68,39600,6,0,P|445:76|511:43,1,150.000005722046
353,306,39850,6,0,P|426:310|486:354,1,150.000005722046
200,108,40100,6,0,P|261:67|291:0,1,150.000005722046
190,236,40350,6,0,P|243:286|261:358,1,150.000005722046
372,68,40600,6,0,P|445:76|511:43,1,150.000005722046
353,306,40850,6,0,P|426:310|486:354,1,150.000005722046
200,108,41100,6,0,P|261:67|291:0,1,150.000005722046
190,236,41350,6,0,P|243:286|261:358,1,150.000005722046
40,70,41600,6,0,P|106:103|179:95,1,150.000005722046
25,245,41850,6,0,P|95:223|167:244,1,150.000005722046
200,108,42100,6,0,P|345:131|478:66,1,300.000011444092
116,316,42475,2,0,P|261:293|394:358,1,300.000011444092
57,24,42850,2,0,P|130:32|196:0,1,150.000005722046
52,310,43100,6,0,P|266:260|457:370,1,450.000017166138
290,57,43600,6,0,P|363:65|429:32,1,150.000005722046
341,282,43850,6,0,P|414:273|480:306,1,150.000005722046
121,117,44100,6,0,P|182:76|212:8,1,150.000005722046
172,222,44350,6,0,P|233:262|263:330,1,150.000005722046
102,104,44600,6,0,P|113:69|109:32,1,75.0000028610231
165,242,44725,2,0,P|199:258|224:286,1,75.0000028610231
296,78,44850,2,0,P|369:86|435:53,1,150.000005722046
72,286,45100,6,0,P|286:236|477:346,1,450.000017166138
290,57,45600,6,0,P|363:65|429:32,1,150.000005722046
122,360,45850,2,0,P|195:351|261:384,1,150.000005722046
24,93,46100,6,0,P|238:142|429:32,1,450.000017166138
337,321,46600,6,0,P|410:312|476:345,1,150.000005722046
146,24,46850,2,0,P|219:32|285:0,1,150.000005722046
72,286,47100,6,0,P|286:236|477:346,1,450.000017166138
290,57,47600,6,0,P|363:65|429:32,1,150.000005722046
96,296,47850,6,0,P|127:277|163:265,1,75.0000028610231
0,87,47975,2,0,P|31:106|67:118,1,75.0000028610231
17,359,48100,1,0,0:0:0:0:
211,134,48350,5,0,0:0:0:0:
185,284,48475,1,0,0:0:0:0:
348,76,48725,5,0,0:0:0:0:
401,320,48850,1,0,0:0:0:0:
348,76,48975,1,0,0:0:0:0:
93,214,49100,5,0,0:0:0:0:
471,238,49225,1,0,0:0:0:0:
93,214,49350,5,0,0:0:0:0:
471,238,49475,1,0,0:0:0:0:
93,214,49600,5,0,0:0:0:0:
471,238,49725,1,0,0:0:0:0:
262,44,49850,6,0,P|292:46|313:52,3,50
348,133,50100,6,0,P|203:156|70:91,1,300.000011444092
412,289,50475,2,0,P|267:266|134:331,1,300.000011444092
439,33,50850,2,0,P|365:41|299:8,1,150.000005722046
476,282,51100,6,0,P|261:232|70:342,1,450.000017166138
222,57,51600,6,0,P|148:65|82:32,1,150.000005722046
303,335,51850,6,0,P|229:339|169:383,1,150.000005722046
391,117,52100,6,0,P|329:76|299:8,1,150.000005722046
460,246,52350,6,0,P|406:296|388:368,1,150.000005722046
403,101,52600,6,0,P|369:88|343:60,1,75.0000028610231
324,263,52725,2,0,P|309:298|302:335,1,75.0000028610231
225,123,52850,2,0,P|151:131|85:98,1,150.000005722046
469,279,53100,6,0,P|254:229|63:339,1,450.000017166138
499,73,53600,6,0,P|425:81|359:48,1,150.000005722046
460,298,53850,2,0,P|386:289|320:322,1,150.000005722046
278,86,54100,6,0,P|133:109|0:44,1,300.000011444092
303,312,54475,2,0,P|158:289|25:354,1,300.000011444092
360,24,54850,2,0,P|286:32|220:0,1,150.000005722046
430,294,55100,6,0,P|215:244|24:354,1,450.000017166138
140,68,55600,6,0,P|66:76|0:43,1,150.000005722046
159,306,55850,6,0,P|85:310|25:354,1,150.000005722046
312,108,56100,6,0,P|250:67|220:0,1,150.000005722046
322,236,56350,6,0,P|268:286|250:358,1,150.000005722046
140,68,56600,6,0,P|66:76|0:43,1,150.000005722046
159,306,56850,6,0,P|85:310|25:354,1,150.000005722046
312,108,57100,6,0,P|250:67|220:0,1,150.000005722046
322,236,57350,6,0,P|268:286|250:358,1,150.000005722046
472,70,57600,5,0,0:0:0:0:
487,245,57725,1,0,0:0:0:0:
472,70,57850,5,0,0:0:0:0:
487,245,57975,1,0,0:0:0:0:
312,108,58100,6,0,P|167:131|34:66,1,300.000011444092
396,316,58475,2,0,P|251:293|118:358,1,300.000011444092
455,24,58850,2,0,P|381:32|315:0,1,150.000005722046
460,310,59100,6,0,P|245:260|54:370,1,450.000017166138
222,57,59600,6,0,P|148:65|82:32,1,150.000005722046
171,282,59850,6,0,P|97:273|31:306,1,150.000005722046
391,117,60100,6,0,P|329:76|299:8,1,150.000005722046
340,222,60350,6,0,P|278:262|248:330,1,150.000005722046
409,104,60600,6,0,P|398:69|402:32,1,75.0000028610231
346,242,60725,2,0,P|312:258|287:286,1,75.0000028610231
216,78,60850,2,0,P|142:86|76:53,1,150.000005722046
440,286,61100,6,0,P|225:236|34:346,1,450.000017166138
222,57,61600,6,0,P|148:65|82:32,1,150.000005722046
390,360,61850,2,0,P|316:351|250:384,1,150.000005722046
488,93,62100,6,0,P|273:142|82:32,1,450.000017166138
175,321,62600,6,0,P|101:312|35:345,1,150.000005722046
366,24,62850,2,0,P|292:32|226:0,1,150.000005722046
440,286,63100,6,0,P|225:236|34:346,1,450.000017166138
222,57,63600,6,0,P|148:65|82:32,1,150.000005722046
433,305,63850,2,0,P|359:296|293:329,1,150.000005722046
512,141,64100,1,0,0:0:0:0:
301,134,64350,5,0,0:0:0:0:
327,284,64475,1,0,0:0:0:0:
164,76,64725,5,0,0:0:0:0:
111,320,64850,1,0,0:0:0:0:
164,76,64975,1,0,0:0:0:0:
419,214,65100,5,0,0:0:0:0:
47,254,65225,1,0,0:0:0:0:
419,214,65350,5,0,0:0:0:0:
47,254,65475,1,0,0:0:0:0:
419,214,65600,5,0,0:0:0:0:
47,254,65725,1,0,0:0:0:0:
419,214,65850,5,0,0:0:0:0:
47,254,65975,1,0,0:0:0:0:
428,196,66100,6,0,P|356:186|293:224,1,150.000005722046
279,243,66475,6,0,P|231:253|183:240,1,100
165,233,66850,6,0,P|128:233|93:245,1,75.0000028610231
0,0,67100,6,0,P|42:61|56:134,1,150.000005722046
68,150,67475,6,0,P|82:102|110:61,1,100
131,67,67850,6,0,P|138:103|155:137,1,75.0000028610231
128,340,68100,6,0,P|191:301|264:311,1,150.000005722046
282,303,68475,6,0,P|330:316|379:306,1,100
389,288,68850,6,0,P|366:259|353:223,1,75.0000028610231
512,138,69100,6,0,P|449:99|376:109,1,150.000005722046
358,101,69475,6,0,P|310:114|261:104,1,100
120,50,69850,5,0,0:0:0:0:
182,147,69975,1,0,0:0:0:0:
120,50,70100,2,0,P|70:49|27:73,1,100
74,212,70350,2,0,P|117:235|166:234,1,100
304,48,70600,5,0,0:0:0:0:
277,199,70725,1,0,0:0:0:0:
250,350,70850,2,0,P|206:326|157:327,1,100
352,270,71100,6,0,P|376:270|400:262,7,50
459,203,71600,6,0,P|475:209|492:209,10,33.3333333333333
486,131,72100,6,0,P|414:121|351:159,1,150.000005722046
337,178,72475,6,0,P|289:188|241:175,1,100
164,130,72850,5,0,0:0:0:0:
90,185,72975,1,0,0:0:0:0:
80,267,73100,1,0,0:0:0:0:
112,336,73225,1,0,0:0:0:0:
168,351,73350,1,0,0:0:0:0:
213,337,73475,6,0,P|250:337|285:349,1,75.0000028610231
363,309,73725,5,0,0:0:0:0:
411,253,73850,1,0,0:0:0:0:
420,169,73975,1,0,0:0:0:0:
359,97,74100,5,0,0:0:0:0:
402,17,74225,1,0,0:0:0:0:
469,24,74350,1,0,0:0:0:0:
501,43,74475,6,0,P|501:80|489:115,1,75.0000028610231
420,169,74725,5,0,0:0:0:0:
350,130,74850,1,0,0:0:0:0:
261,142,74975,1,0,0:0:0:0:
197,212,75100,5,0,0:0:0:0:
105,255,75225,1,0,0:0:0:0:
12,198,75350,1,0,0:0:0:0:
33,82,75475,6,0,P|45:46|45:9,1,75.0000028610231
139,69,75725,5,0,0:0:0:0:
226,102,75850,1,0,0:0:0:0:
305,77,75975,1,0,0:0:0:0:
331,55,76100,6,0,P|331:92|343:127,6,75.0000028610231
417,15,76975,5,0,0:0:0:0:
357,143,77100,1,0,0:0:0:0:
178,161,77225,1,0,0:0:0:0:
178,161,77475,5,0,0:0:0:0:
425,209,77600,1,0,0:0:0:0:
425,209,77850,5,0,0:0:0:0:
126,249,77975,2,0,P|122:267|116:285,1,37.5000014305115
250,70,78100,1,0,0:0:0:0:
251,296,78225,5,0,0:0:0:0:
314,164,78350,1,0,0:0:0:0:
321,220,78475,1,0,0:0:0:0:
23,186,78600,5,0,0:0:0:0:
230,56,78725,1,0,0:0:0:0:
162,149,78850,1,0,0:0:0:0:
208,217,78975,1,0,0:0:0:0:
77,108,79100,5,0,0:0:0:0:
402,210,79225,1,0,0:0:0:0:
77,108,79350,1,0,0:0:0:0:
473,142,79475,5,0,0:0:0:0:
63,271,79600,1,0,0:0:0:0:
473,142,79725,1,0,0:0:0:0:
0,48,79850,5,0,0:0:0:0:
256,192,80600,5,0,0:0:0:0:
256,192,80662,12,0,83787,0:0:0:0:
