osu file format v14

[General]
AudioFilename: audio.mp3
AudioLeadIn: 0
PreviewTime: 34373
Countdown: 0
SampleSet: None
StackLeniency: 1
Mode: 2
LetterboxInBreaks: 0
WidescreenStoryboard: 1

[Editor]
DistanceSpacing: 1.3
BeatDivisor: 4
GridSize: 4
TimelineZoom: 1.4

[Metadata]
Title:Touhou Hisouten
TitleUnicode:東方緋想天
Artist:Akiyama Uni
ArtistUnicode:あきやまうに
Creator:JBHyperion
Version:chickenbible's Rain
Source:東方緋想天 ~ Scarlet Weather Rhapsody
Tags:東方Project Touhou Eastern Perception of Heaven U2 JUN oiko N-tone 荒井英理也 Arai Eriya Zenjinrui no Tengakuroku Celestial Music Record All Humankind ORIGINAL SOUND TRACK ARRANGE DISC Team Shanghai Alice Twilight Frontier Reitaisai 5 Absolute Zero AZ -Hex- Daletto chickenbible Magic Girl Sorcerer Sinnoh JBH
BeatmapID:2047521
BeatmapSetID:965677

[Difficulty]
HPDrainRate:6
CircleSize:3.6
OverallDifficulty:9
ApproachRate:9
SliderMultiplier:2
SliderTickRate:1

[Events]
//Background and Video events
0,0,"tenshiiiiii.jpg",0,0
//Break Periods
//Storyboard Layer 0 (Background)
//Storyboard Layer 1 (Fail)
//Storyboard Layer 2 (Pass)
//Storyboard Layer 3 (Foreground)
//Storyboard Sound Samples

[TimingPoints]
1418,697.674418604651,4,2,1,60,1,0
1592,-100,4,2,1,50,0,0
5604,-100,4,2,1,50,0,0
5952,-100,4,2,1,50,0,0
8394,789.473684210526,4,2,1,50,1,0
8788,-100,4,2,1,20,0,0
8986,934.579439252336,4,2,1,40,1,0
9453,-100,4,2,1,20,0,0
9686,1500,4,2,1,50,1,0
9686,-33.3333333333333,4,2,1,50,0,0
10061,-100,4,3,0,40,0,0
10436,500,4,3,99,80,1,0
10561,-100,4,3,1,50,0,0
13436,-100,4,3,1,50,0,0
14436,-100,4,3,1,50,0,0
16311,-100,4,3,1,70,0,0
17436,-100,4,3,1,60,0,0
18436,-100,4,3,1,50,0,0
18811,-100,4,3,1,50,0,0
19061,-100,4,3,1,50,0,0
21436,-100,4,3,1,50,0,0
21686,-100,4,3,1,50,0,0
25436,-100,4,3,1,60,0,0
26436,-100,4,3,1,50,0,0
29436,-100,4,3,1,50,0,0
29686,-100,4,3,1,50,0,0
32436,-100,4,3,1,60,0,0
33311,-100,4,3,2,70,0,0
34436,-100,4,3,99,100,0,1
34561,-100,4,3,2,70,0,1
40436,-100,4,3,2,80,0,1
41436,-100,4,3,2,75,0,1
42436,-100,4,3,2,70,0,1
48311,-100,4,3,2,80,0,1
48436,-100,4,3,2,70,0,1
49436,-100,4,3,2,50,0,1
49686,-100,4,3,2,60,0,1
49936,-100,4,3,2,70,0,1
50186,-100,4,3,2,80,0,0
50436,-100,4,3,99,100,0,1
50561,-100,4,3,2,80,0,1
56436,-80,4,3,2,80,0,1
56686,-100,4,3,2,80,0,1
65811,-100,4,3,2,60,0,1
66436,-100,4,3,99,80,0,0
66561,-100,4,3,1,60,0,0
66936,-100,4,3,1,60,0,0
67436,-100,4,3,1,60,0,0
69811,-100,4,3,1,60,0,0
70436,-100,4,3,99,80,0,0
70561,-100,4,3,1,60,0,0
70811,-100,4,3,1,60,0,0
71061,-100,4,3,1,60,0,0
71436,-100,4,3,99,100,0,0
71936,-100,4,3,99,100,0,0
72436,-100,4,3,2,70,0,1
72686,-100,4,3,2,70,0,0
75811,-100,4,3,2,70,0,0
76186,-100,4,3,2,70,0,0
76436,-100,4,3,2,70,0,0
78186,-100,4,3,2,70,0,0
78436,-100,4,3,2,70,0,0
79436,-100,4,3,2,70,0,0
79811,-100,4,2,1,60,0,0
79936,-100,4,3,1,90,0,0
80186,-100,4,3,1,100,0,0
80436,-100,4,3,1,40,0,0
80936,-100,4,3,99,100,0,1
81186,-100,4,2,1,60,0,0
81436,-100,4,2,1,52,0,0
81936,-100,4,2,1,44,0,0
82436,-100,4,2,1,36,0,0
82936,-100,4,2,1,28,0,0
83436,-100,4,2,1,20,0,0
83936,-100,4,2,1,17,0,0
84061,-100,4,2,1,14,0,0
84186,-100,4,2,1,11,0,0
84311,-100,4,2,1,8,0,0
84436,-100,4,2,1,5,0,0

[Colours]
Combo1 : 220,150,220
Combo2 : 120,120,200
Combo3 : 75,175,200
Combo4 : 35,190,90
Combo5 : 240,240,90
Combo6 : 255,125,70

[HitObjects]
464,207,1418,6,0,L|280:231,2,150,2|8|8,0:0|0:0|0:0,0:0:0:0:
158,291,2813,2,0,P|151:230|230:197,1,150,2|8,0:0|0:0,0:0:0:0:
448,167,3859,1,8,0:0:0:0:
238,258,4208,6,0,P|235:208|292:187,1,100,2|0,0:0|0:0,0:0:0:0:
374,153,4731,1,8,0:0:0:0:
125,216,5080,2,0,L|49:220,2,50,0|2|0,0:0|0:0|0:0,0:0:0:0:
329,266,5604,6,0,L|325:193,1,50,8|0,0:0|0:0,0:0:0:0:
231,166,5952,2,0,L|239:241,1,50,0|0,0:0|0:0,0:0:0:0:
387,166,6301,2,0,P|386:115|334:106,1,100,2|8,0:0|0:0,0:0:0:0:
256,100,6824,1,0,0:0:0:0:
56,263,6999,6,0,P|82:203|177:181,1,150,2|8,0:0|0:0,0:0:0:0:
375,230,8045,2,0,L|374:165,1,50,8|0,0:0|0:0,0:0:0:0:
208,175,8394,2,0,P|124:175|28:177,1,150,2|2,0:0|0:0,0:0:0:0:
303,231,9686,6,0,P|277:193|66:152,1,262.500010013581,10|0,0:0|0:0,0:0:0:0:
256,263,10436,6,0,P|305:246|331:189,1,100,4|0,0:0|0:0,0:0:0:0:
205,149,10811,2,0,L|84:150,1,100,8|0,0:0|0:0,0:0:0:0:
205,73,11186,1,8,0:0:0:0:
408,237,11436,6,0,L|285:237,1,100,8|0,0:0|0:0,0:0:0:0:
433,169,11811,2,0,P|431:119|370:112,1,100,8|0,0:0|0:0,0:0:0:0:
262,178,12186,1,8,0:0:0:0:
55,297,12436,6,0,L|49:180,1,100,4|0,0:0|0:0,0:0:0:0:
180,142,12811,2,0,L|191:274,1,100,8|2,0:0|0:0,0:0:0:0:
58,187,13186,1,8,0:0:0:0:
401,265,13436,6,0,L|479:258,1,50,8|0,0:0|0:0,0:0:0:0:
349,174,13686,2,0,L|278:175,1,50,2|8,0:0|0:0,0:0:0:0:
175,263,13936,2,0,L|171:193,1,50,2|2,0:0|0:0,0:0:0:0:
298,138,14186,2,0,L|358:135,1,50,8|2,0:0|0:0,0:0:0:0:
123,232,14436,6,0,P|124:170|178:157,1,100,4|2,0:0|0:0,0:0:0:0:
282,225,14811,2,0,L|405:225,1,100,8|0,0:0|0:0,0:0:0:0:
282,142,15186,1,8,0:0:0:0:
483,194,15436,6,0,L|351:195,1,100,8|2,0:0|0:0,0:0:0:0:
508,127,15811,2,0,P|505:72|462:70,1,100,8|0,0:0|0:0,0:0:0:0:
346,96,16186,2,0,L|281:97,1,50,10|2,0:0|0:0,0:0:0:0:
94,260,16436,6,0,L|222:260,1,100,8|2,0:0|0:0,0:0:0:0:
94,260,16811,2,0,L|222:259,1,100,8|2,0:0|0:0,0:0:0:0:
94,260,17186,2,0,L|162:260,1,50,0|2,0:0|0:0,0:0:0:0:
368,248,17436,6,0,L|372:178,1,50,4|0,0:0|0:0,0:0:0:0:
235,137,17686,2,0,L|237:213,1,50,2|2,0:0|0:0,0:0:0:0:
371,150,17936,2,0,L|430:149,1,50,8|2,0:0|0:0,0:0:0:0:
287,240,18186,2,0,L|231:241,1,50,2|2,0:0|0:0,0:0:0:0:
468,254,18436,6,0,P|477:202|424:178,1,100,6|2,0:0|0:0,0:0:0:0:
293,180,18811,2,0,L|186:184,1,100,8|2,0:0|0:0,0:0:0:0:
342,106,19186,1,10,0:0:0:0:
125,234,19436,6,0,P|128:184|196:171,1,100,8|2,0:0|0:0,0:0:0:0:
257,143,19811,1,8,0:0:0:0:
168,162,19936,1,2,0:0:0:0:
365,193,20061,1,0,0:0:0:0:
165,251,20311,1,2,0:0:0:0:
290,221,20436,6,0,L|213:221,1,50,4|0,0:0|0:0,0:0:0:0:
339,145,20686,1,2,0:0:0:0:
215,165,20811,2,0,L|210:253,1,50,8|2,0:0|0:0,0:0:0:0:
292,219,21061,1,0,0:0:0:0:
427,275,21186,2,0,L|345:276,1,50,8|2,0:0|0:0,0:0:0:0:
163,286,21436,6,0,P|167:221|223:214,1,100,8|2,0:0|0:0,0:0:0:0:
323,209,21811,2,0,L|385:210,1,50,2|8,0:0|0:0,0:0:0:0:
170,148,22061,1,2,0:0:0:0:
411,169,22311,1,2,0:0:0:0:
297,279,22436,6,0,L|376:274,1,50,4|0,0:0|0:0,0:0:0:0:
225,202,22686,1,2,0:0:0:0:
341,201,22811,2,0,L|262:202,1,50,8|0,0:0|0:0,0:0:0:0:
79,273,23061,2,0,L|160:270,2,50,2|8|2,0:0|0:0|0:0,0:0:0:0:
281,274,23436,6,0,P|367:261|392:218,1,100,8|2,0:0|0:0,0:0:0:0:
165,195,23811,2,0,P|114:179|86:134,1,100,2|0,0:0|0:0,0:0:0:0:
294,191,24186,2,0,L|364:192,1,50,2|2,0:0|0:0,0:0:0:0:
147,295,24436,6,0,P|150:241|228:229,1,100,4|2,0:0|0:0,0:0:0:0:
384,229,24811,1,8,0:0:0:0:
187,279,25061,2,0,L|176:209,1,50,2|0,0:0|0:0,0:0:0:0:
380,157,25311,1,2,0:0:0:0:
177,161,25436,6,0,L|85:166,2,50,8|2|2,0:0|0:0|0:0,0:0:0:0:
329,171,25811,2,0,L|421:176,2,50,2|8|8,0:0|0:0|0:0,0:0:0:0:
177,247,26186,2,0,L|153:160,1,50,2|2,0:0|0:0,0:0:0:0:
365,238,26436,6,0,P|359:189|281:174,1,100,6|2,0:0|0:0,0:0:0:0:
191,232,26811,2,0,L|134:229,2,50,8|0|2,0:0|0:0|0:0,0:0:0:0:
318,210,27186,2,0,L|321:152,1,50,2|0,0:0|0:0,0:0:0:0:
121,236,27436,6,0,P|123:180|168:171,1,100,8|2,0:0|0:0,0:0:0:0:
282,168,27811,2,0,L|288:104,1,50,2|8,0:0|0:0,0:0:0:0:
159,135,28061,2,0,L|101:136,1,50,0|2,0:0|0:0,0:0:0:0:
308,243,28311,1,2,0:0:0:0:
186,196,28436,6,0,L|270:192,1,50,4|0,0:0|0:0,0:0:0:0:
364,126,28686,1,2,0:0:0:0:
236,118,28811,2,0,L|167:119,2,50,8|0|2,0:0|0:0|0:0,0:0:0:0:
362,249,29186,2,0,L|369:189,1,50,2|2,0:0|0:0,0:0:0:0:
168,212,29436,6,0,L|301:214,1,100,8|2,0:0|0:0,0:0:0:0:
147,140,29811,2,0,L|79:141,1,50,2|2,0:0|0:0,0:0:0:0:
219,157,30061,2,0,L|228:102,1,50,8|0,0:0|0:0,0:0:0:0:
31,218,30311,1,2,0:0:0:0:
155,177,30436,6,0,L|235:173,1,50,4|0,0:0|0:0,0:0:0:0:
83,106,30686,1,2,0:0:0:0:
209,96,30811,2,0,L|146:98,1,50,8|0,0:0|0:0,0:0:0:0:
358,202,31061,2,0,L|434:201,2,50,2|8|2,0:0|0:0|0:0,0:0:0:0:
157,256,31436,6,0,L|296:256,1,100,8|2,0:0|0:0,0:0:0:0:
147,167,31811,1,2,0:0:0:0:
347,147,32061,1,8,0:0:0:0:
115,257,32311,1,2,0:0:0:0:
244,217,32436,6,0,L|385:213,1,100,6|2,0:0|0:0,0:0:0:0:
215,153,32811,2,0,P|215:104|290:94,1,100,8|2,0:0|0:0,0:0:0:0:
386,206,33186,2,0,L|449:206,1,50,8|2,0:0|0:0,0:0:0:0:
234,261,33436,5,8,0:0:0:0:
362,149,33561,2,0,L|454:148,2,50,2|0|2,0:0|0:0|0:0,0:0:0:0:
133,283,33936,2,0,L|122:204,1,50,8|2,0:0|0:0,0:0:0:0:
353,196,34186,2,0,L|413:193,1,50,6|0,0:0|0:0,0:0:0:0:
203,191,34436,6,0,L|334:191,1,100,4|2,2:3|0:0,0:0:0:0:
106,214,34811,2,0,L|99:132,1,50,8|2,0:0|0:0,0:0:0:0:
176,108,35061,1,2,0:0:0:0:
301,146,35186,2,0,L|397:147,1,50,8|0,0:0|0:0,0:0:0:0:
151,279,35436,6,0,L|20:278,1,100,8|2,0:0|0:0,0:0:0:0:
176,190,35811,1,8,0:0:0:0:
376,201,35936,2,0,L|444:202,1,50,2|0,0:0|0:0,0:0:0:0:
230,127,36186,2,0,L|173:127,1,50,10|0,0:0|0:0,0:0:0:0:
405,134,36436,5,4,0:0:0:0:
221,235,36686,2,0,L|291:236,1,50,2|8,0:0|0:0,0:0:0:0:
69,282,36936,2,0,L|61:221,1,50,10|2,0:0|0:2,0:0:0:0:
139,158,37186,1,2,0:0:0:0:
467,248,37436,6,0,P|468:185|378:162,1,150,8|8,0:0|0:0,0:0:0:0:
221,245,37936,2,0,L|96:245,1,100,2|8,0:0|0:0,0:0:0:0:
443,245,38436,6,0,P|438:190|400:183,1,100,4|2,0:0|0:0,0:0:0:0:
269,190,38811,1,8,0:0:0:0:
35,178,38936,2,0,L|149:172,2,100,0|8|8,0:0|0:0|0:0,0:0:0:0:
356,213,39686,6,0,L|435:215,1,50,2|8,0:0|0:0,0:0:0:0:
204,145,39936,2,0,L|125:148,1,50,4|0,0:0|0:0,0:0:0:0:
383,139,40186,2,0,L|447:134,1,50,8|0,0:0|0:0,0:0:0:0:
161,277,40436,6,0,P|129:221|107:155,1,100,4|2,0:0|0:0,0:0:0:0:
436,220,40936,2,0,L|202:236,1,200,2|8,0:0|0:0,0:0:0:0:
437,108,41686,5,2,0:0:0:0:
228,170,41936,1,8,0:0:0:0:
437,108,42186,1,2,0:0:0:0:
115,284,42436,6,0,P|114:229|171:208,1,100,4|2,0:0|0:0,0:0:0:0:
279,210,42811,1,8,0:0:0:0:
496,269,42936,2,0,L|348:281,2,100,2|8|8,0:0|0:0|0:0,0:0:0:0:
279,210,43686,5,2,0:0:0:0:
506,178,43936,2,0,L|392:188,1,100,2|8,0:0|0:0,0:0:0:0:
86,244,44436,5,4,0:0:0:0:
277,174,44686,2,0,L|203:175,1,50,2|8,0:0|0:0,0:0:0:0:
427,229,44936,2,0,L|482:229,2,50,8|2|8,0:0|0:2|0:0,0:0:0:0:
107,208,45436,6,0,L|286:200,1,150,8|8,0:0|0:0,0:0:0:0:
135,127,45936,2,0,L|121:67,1,50,2|0,0:0|0:0,0:0:0:0:
338,177,46186,2,0,L|407:177,1,50,8|0,0:0|0:0,0:0:0:0:
156,263,46436,6,0,P|111:229|175:175,1,150,4|8,0:0|0:0,0:0:0:0:
301,210,46936,2,0,L|365:207,1,50,2|0,0:0|0:0,0:0:0:0:
150,287,47186,2,0,L|140:228,1,50,8|2,0:0|0:0,0:0:0:0:
356,263,47436,6,0,P|401:229|337:175,1,150,4|8,0:0|0:0,0:0:0:0:
148,217,47936,2,0,L|15:220,1,100,2|8,0:0|0:0,0:0:0:0:
108,149,48311,1,2,0:0:0:0:
351,193,48436,5,6,0:0:0:0:
166,150,48686,2,0,L|225:142,1,50,8|4,0:0|0:0,0:0:0:0:
401,189,49061,1,8,0:0:0:0:
276,162,49186,1,0,0:0:0:0:
150,173,49311,1,2,0:0:0:0:
345,266,49436,6,0,L|276:266,1,50,4|2,0:0|0:0,0:0:0:0:
163,221,49686,2,0,L|148:167,1,50,8|2,0:0|0:0,0:0:0:0:
358,188,49936,2,0,L|292:191,1,50,8|2,0:0|0:0,0:0:0:0:
104,162,50186,2,0,L|92:97,1,50,8|8,0:0|0:0,0:0:0:0:
309,191,50436,6,0,L|178:191,1,100,4|2,0:0|0:0,0:0:0:0:
406,214,50811,2,0,L|413:132,1,50,8|0,0:0|0:0,0:0:0:0:
336,108,51061,1,2,0:0:0:0:
211,146,51186,2,0,L|115:147,1,50,8|0,0:0|0:0,0:0:0:0:
361,279,51436,6,0,L|492:278,1,100,8|2,0:0|0:0,0:0:0:0:
336,190,51811,1,8,0:0:0:0:
136,201,51936,2,0,L|68:202,1,50,4|0,0:0|0:0,0:0:0:0:
282,127,52186,2,0,L|339:127,1,50,10|0,0:0|0:0,0:0:0:0:
107,134,52436,5,4,0:0:0:0:
291,235,52686,2,0,L|221:236,1,50,2|8,0:0|0:0,0:0:0:0:
443,282,52936,2,0,L|451:221,1,50,8|0,0:0|0:0,0:0:0:0:
373,158,53186,1,8,0:0:0:0:
52,237,53436,6,0,P|51:174|141:151,1,150,8|8,0:0|0:0,0:0:0:0:
291,245,53936,2,0,L|416:245,1,100,4|2,0:0|0:0,0:0:0:0:
64,237,54436,6,0,P|69:182|107:175,1,100,4|2,0:0|0:0,0:0:0:0:
236,187,54811,1,8,0:0:0:0:
461,174,54936,2,0,L|347:168,2,100,2|8|8,0:0|0:0|0:0,0:0:0:0:
144,208,55686,6,0,L|92:204,1,50,2|8,0:0|0:0,0:0:0:0:
300,136,55936,2,0,L|379:139,1,50,2|0,0:0|0:0,0:0:0:0:
125,139,56186,2,0,L|104:78,1,50,8|0,0:0|0:0,0:0:0:0:
373,278,56436,6,0,P|424:227|428:172,1,125,4|2,0:0|0:0,0:0:0:0:
85,208,56936,2,0,L|319:224,1,200,2|8,0:0|0:0,0:0:0:0:
75,108,57686,2,0,L|129:109,1,50,2|8,0:0|0:0,0:0:0:0:
253,178,57936,2,0,L|178:172,1,50,2|8,0:0|0:0,0:0:0:0:
75,108,58186,2,0,L|151:107,1,50,8|2,0:0|0:0,0:0:0:0:
384,286,58436,6,0,P|385:231|328:210,1,100,4|2,0:0|0:0,0:0:0:0:
222,197,58811,1,8,0:0:0:0:
16,269,58936,2,0,L|164:281,2,100,0|8|8,0:0|0:0|0:0,0:0:0:0:
233,210,59686,5,2,0:0:0:0:
6,178,59936,2,0,L|120:188,1,100,4|8,0:0|0:0,0:0:0:0:
427,243,60436,5,4,0:0:0:0:
235,174,60686,2,0,L|309:175,1,50,2|8,0:0|0:0,0:0:0:0:
85,229,60936,2,0,L|30:229,2,50,8|2|8,0:0|0:2|0:0,0:0:0:0:
414,211,61436,6,0,L|235:203,1,150,8|8,0:0|0:0,0:0:0:0:
364,127,61936,2,0,L|378:67,1,50,4|0,0:0|0:0,0:0:0:0:
174,177,62186,2,0,L|105:177,1,50,8|0,0:0|0:0,0:0:0:0:
356,263,62436,6,0,P|401:229|337:175,1,150,6|8,0:0|0:0,0:0:0:0:
211,210,62936,2,0,L|147:207,1,50,0|0,0:0|0:0,0:0:0:0:
362,287,63186,2,0,L|372:228,1,50,2|0,0:0|0:0,0:0:0:0:
156,263,63436,6,0,P|111:229|175:175,1,150,4|8,0:0|0:0,0:0:0:0:
364,217,63936,2,0,L|497:220,1,100,2|2,0:0|0:0,0:0:0:0:
404,149,64311,1,0,0:0:0:0:
161,193,64436,5,4,0:0:0:0:
346,150,64686,2,0,L|287:142,1,50,8|0,0:0|0:0,0:0:0:0:
111,189,65061,1,0,0:0:0:0:
236,162,65186,1,2,0:0:0:0:
362,173,65311,1,2,0:0:0:0:
159,265,65436,6,0,L|250:264,1,50,4|8,0:0|0:0,0:0:0:0:
410,239,65686,2,0,L|414:176,1,50,0|2,0:0|0:0,0:0:0:0:
200,169,65936,2,0,L|113:167,1,50,8|2,0:0|0:0,0:0:0:0:
362,173,66186,2,0,L|428:178,1,50,8|0,0:0|0:0,0:0:0:0:
192,260,66436,6,0,L|51:258,1,100,4|2,0:0|0:0,0:0:0:0:
219,193,66811,2,0,L|325:190,1,100,8|0,0:0|0:0,0:0:0:0:
191,114,67186,1,8,0:0:0:0:
371,148,67436,6,0,L|512:150,1,100,8|2,0:0|0:0,0:0:0:0:
344,215,67811,2,0,L|238:218,1,100,8|0,0:0|0:0,0:0:0:0:
372,294,68186,1,8,0:0:0:0:
188,222,68436,6,0,L|305:218,1,100,4|0,0:0|0:0,0:0:0:0:
414,156,68811,2,0,L|309:156,1,100,8|0,0:0|0:0,0:0:0:0:
179,165,69186,1,2,0:0:0:0:
358,259,69436,6,0,L|238:265,1,100,8|2,0:0|0:0,0:0:0:0:
386,149,69811,2,0,P|390:96|337:64,1,100,4|2,0:0|0:0,0:0:0:0:
158,238,70186,2,0,L|80:232,1,50,8|0,0:0|0:0,0:0:0:0:
307,185,70436,6,0,L|366:184,1,50,4|2,0:0|0:0,0:0:0:0:
155,313,70686,2,0,P|159:253|302:226,1,200,8|4,0:0|0:2,0:0:0:0:
85,136,71436,1,4,0:0:0:0:
384,264,71936,5,4,0:0:0:0:
389,215,72061,1,0,0:0:0:0:
360,176,72186,1,0,0:0:0:0:
312,167,72311,1,0,0:0:0:0:
108,275,72436,6,0,L|98:162,1,100,4|2,0:0|0:0,0:0:0:0:
225,123,72811,2,0,L|241:259,1,100,8|2,0:0|0:0,0:0:0:0:
111,265,73186,2,0,L|47:263,1,50,8|0,0:0|0:0,0:0:0:0:
275,190,73436,6,0,L|369:191,2,50,8|2|2,0:0|0:0|0:0,0:0:0:0:
64,245,73811,2,0,P|65:186|137:167,1,100,8|2,0:0|0:0,0:0:0:0:
225,232,74186,2,0,L|294:231,1,50,8|0,0:0|0:0,0:0:0:0:
477,247,74436,6,0,L|483:181,1,50,8|2,0:0|0:0,0:0:0:0:
406,182,74686,2,0,L|479:184,1,50,2|8,0:0|0:0,0:0:0:0:
229,281,74936,2,0,L|223:215,1,50,0|2,0:0|0:0,0:0:0:0:
300,216,75186,6,0,L|227:218,1,50,8|0,0:0|0:0,0:0:0:0:
57,179,75436,1,4,0:0:0:0:
157,151,75561,1,2,0:0:0:0:
256,122,75686,1,2,0:0:0:0:
57,179,75811,6,0,P|64:126|138:114,1,100,4|2,0:0|0:0,0:0:0:0:
231,223,76186,2,0,L|322:216,1,50,8|8,0:0|0:0,0:0:0:0:
482,261,76436,6,0,P|485:210|427:195,1,100,4|0,0:0|0:0,0:0:0:0:
320,174,76811,2,0,L|206:178,1,100,8|0,0:0|0:0,0:0:0:0:
97,272,77186,2,0,L|88:202,1,50,8|0,0:0|0:0,0:0:0:0:
290,212,77436,6,0,L|355:212,1,50,8|0,0:0|0:0,0:0:0:0:
147,118,77811,2,0,L|86:122,1,50,8|2,0:0|0:0,0:0:0:0:
296,172,78186,2,0,L|351:173,1,50,8|2,0:0|0:0,0:0:0:0:
139,244,78436,6,0,L|69:245,3,50,4|2|2|8,0:0|0:0|0:0|0:0,0:0:0:0:
291,185,78936,2,0,L|361:186,3,50,0|2|0|2,0:0|0:0|0:0|0:0,0:0:0:0:
116,281,79436,6,0,P|106:230|170:191,1,100,4|2,0:0|0:0,0:0:0:0:
334,211,79811,2,0,L|218:212,1,100,4|2,0:0|0:0,0:0:0:0:
438,198,80186,2,0,P|437:140|391:135,1,100,4|0,0:0|0:0,0:0:0:0:
141,154,80936,5,4,0:0:0:0:
256,192,81186,12,0,84436,0:0:0:0:
