osu file format v14

[General]
AudioFilename: audio.mp3
AudioLeadIn: 0
PreviewTime: 34373
Countdown: 0
SampleSet: None
StackLeniency: 1
Mode: 2
LetterboxInBreaks: 0
WidescreenStoryboard: 1

[Editor]
DistanceSpacing: 1.2
BeatDivisor: 8
GridSize: 4
TimelineZoom: 1.4

[Metadata]
Title:Touhou Hisouten
TitleUnicode:東方緋想天
Artist:Akiyama Uni
ArtistUnicode:あきやまうに
Creator:JBHyperion
Version:Sinnoh's Overdose
Source:東方緋想天 ~ Scarlet Weather Rhapsody
Tags:東方Project Touhou Eastern Perception of Heaven U2 JUN oiko N-tone 荒井英理也 Arai Eriya Zenjinrui no Tengakuroku Celestial Music Record All Humankind ORIGINAL SOUND TRACK ARRANGE DISC Team Shanghai Alice Twilight Frontier Reitaisai 5 Absolute Zero AZ -Hex- Daletto chickenbible Magic Girl Sorcerer Sinnoh JBH
BeatmapID:2036470
BeatmapSetID:965677

[Difficulty]
HPDrainRate:6
CircleSize:4
OverallDifficulty:9.1
ApproachRate:9.1
SliderMultiplier:2.2
SliderTickRate:2

[Events]
//Background and Video events
0,0,"tenshiiiiii.jpg",0,0
//Break Periods
//Storyboard Layer 0 (Background)
//Storyboard Layer 1 (Fail)
//Storyboard Layer 2 (Pass)
//Storyboard Layer 3 (Foreground)
//Storyboard Sound Samples

[TimingPoints]
1418,697.674418604651,4,2,1,60,1,0
1418,-66.6666666666667,4,2,1,60,0,0
1592,-66.6666666666667,4,2,1,50,0,0
8394,789.473684210526,4,2,1,50,1,0
8788,-100,4,2,1,20,0,0
8986,934.579439252336,4,2,1,40,1,0
9453,-100,4,2,1,20,0,0
9686,1500,4,2,1,50,1,0
10061,-100,4,3,0,40,0,0
10436,500,4,3,99,80,1,0
10436,-66.6666666666667,4,3,99,80,0,0
10561,-66.6666666666667,4,3,1,50,0,0
16311,-66.6666666666667,4,3,1,70,0,0
17436,-66.6666666666667,4,3,1,60,0,0
18436,-66.6666666666667,4,3,1,50,0,0
25436,-66.6666666666667,4,3,1,60,0,0
26436,-66.6666666666667,4,3,1,50,0,0
32436,-66.6666666666667,4,3,1,60,0,0
33311,-66.6666666666667,4,3,2,70,0,0
34436,-58.8235294117647,4,3,99,100,0,1
34561,-58.8235294117647,4,3,2,70,0,1
40436,-58.8235294117647,4,3,2,80,0,1
41436,-58.8235294117647,4,3,2,75,0,1
42436,-58.8235294117647,4,3,2,70,0,1
48311,-58.8235294117647,4,3,2,80,0,1
48436,-58.8235294117647,4,3,2,70,0,1
49436,-58.8235294117647,4,3,2,50,0,1
49686,-58.8235294117647,4,3,2,60,0,1
49936,-58.8235294117647,4,3,2,70,0,1
50186,-58.8235294117647,4,3,2,80,0,0
50436,-58.8235294117647,4,3,99,100,0,1
50561,-58.8235294117647,4,3,2,80,0,1
65811,-58.8235294117647,4,3,2,60,0,1
66436,-58.8235294117647,4,3,99,80,0,0
66561,-58.8235294117647,4,3,1,60,0,0
70436,-58.8235294117647,4,3,99,80,0,0
70561,-58.8235294117647,4,3,1,60,0,0
71436,-58.8235294117647,4,3,99,100,0,0
72436,-58.8235294117647,4,3,2,70,0,1
72686,-58.8235294117647,4,3,2,70,0,0
79811,-58.8235294117647,4,2,1,60,0,0
79936,-58.8235294117647,4,3,1,90,0,0
80186,-58.8235294117647,4,3,1,100,0,0
80436,-100,4,3,1,40,0,0
80936,-58.8235294117647,4,3,99,100,0,1
81186,-58.8235294117647,4,2,1,60,0,0
81436,-66.6666666666667,4,2,1,52,0,0
81936,-66.6666666666667,4,2,1,44,0,0
82436,-66.6666666666667,4,2,1,36,0,0
82936,-66.6666666666667,4,2,1,28,0,0
83436,-66.6666666666667,4,2,1,20,0,0
83936,-100,4,2,1,17,0,0
84061,-100,4,2,1,14,0,0
84186,-100,4,2,1,11,0,0
84311,-100,4,2,1,8,0,0
84436,-100,4,2,1,5,0,0

[Colours]
Combo1 : 220,150,220
Combo2 : 120,120,200
Combo3 : 75,175,200
Combo4 : 35,190,90
Combo5 : 240,240,90
Combo6 : 255,125,70

[HitObjects]
400,192,1069,5,0,0:0:0:0:
156,283,1418,2,0,L|160:108,1,165.000006294251,2|0,0:0|0:0,0:0:0:0:
252,115,1941,2,0,L|512:76,1,247.500009441376,8|8,0:0|0:0,0:0:0:0:
256,216,2813,2,0,L|8:148,2,247.500009441376,2|8|8,0:0|0:0|0:0,0:0:0:0:
468,336,4208,6,0,L|464:72,1,247.500009441376,2|8,0:0|0:0,0:0:0:0:
208,244,5255,2,0,L|96:228,1,82.5000031471254,2|0,0:0|0:0,0:0:0:0:
236,56,5604,1,8,0:0:0:0:
316,69,5778,1,0,0:0:0:0:
378,122,5952,1,0,0:0:0:0:
403,199,6127,1,0,0:0:0:0:
385,279,6301,1,2,0:0:0:0:
328,337,6476,1,0,0:0:0:0:
249,357,6650,2,0,L|148:344,1,82.5000031471254,8|0,0:0|0:0,0:0:0:0:
296,256,6999,6,0,L|484:276,1,165.000006294251,2|0,0:0|0:0,0:0:0:0:
368,208,7522,2,0,L|123:142,1,247.500009441376,8|8,0:0|0:0,0:0:0:0:
193,100,8220,1,0,0:0:0:0:
344,252,8394,2,0,L|352:68,1,165,2|2,0:0|0:0,0:0:0:0:
101,218,9686,2,0,L|96:116,1,96.25,10|0,0:0|0:0,0:0:0:0:
280,180,10436,6,0,L|468:164,1,165.000006294251,4|0,0:0|0:0,0:0:0:0:
336,116,10811,2,0,L|144:124,1,165.000006294251,8|0,0:0|0:0,0:0:0:0:
280,180,11186,2,0,L|380:172,1,82.5000031471254,8|0,0:0|0:0,0:0:0:0:
248,324,11436,1,8,0:0:0:0:
182,279,11561,1,0,0:0:0:0:
182,200,11686,1,0,0:0:0:0:
248,160,11811,2,0,L|432:128,1,165.000006294251,8|0,0:0|0:0,0:0:0:0:
308,88,12186,2,0,L|196:68,1,82.5000031471254,8|0,0:0|0:0,0:0:0:0:
36,256,12436,6,0,P|60:160|168:140,1,165.000006294251,4|0,0:0|0:0,0:0:0:0:
228,124,12811,2,0,L|32:64,1,165.000006294251,8|2,0:0|0:0,0:0:0:0:
152,204,13186,2,0,L|264:184,1,82.5000031471254,8|2,0:0|0:0,0:0:0:0:
100,296,13436,6,0,L|88:208,1,82.5000031471254,8|0,0:0|0:0,0:0:0:0:
204,224,13686,2,0,L|208:124,1,82.5000031471254,2|8,0:0|0:0,0:0:0:0:
324,160,13936,2,0,L|352:44,1,82.5000031471254,2|2,0:0|0:0,0:0:0:0:
460,196,14186,2,0,L|512:100,1,82.5000031471254,8|2,0:0|0:0,0:0:0:0:
272,204,14436,6,0,L|100:180,1,165.000006294251,4|2,0:0|0:0,0:0:0:0:
212,136,14811,2,0,L|388:152,1,165.000006294251,8|0,0:0|0:0,0:0:0:0:
252,256,15186,2,0,L|132:240,1,82.5000031471254,8|0,0:0|0:0,0:0:0:0:
384,248,15436,6,0,P|400:192|296:128,1,165.000006294251,8|2,0:0|0:0,0:0:0:0:
128,212,15811,2,0,P|56:160|104:72,1,165.000006294251,8|0,0:0|0:0,0:0:0:0:
160,64,16186,1,10,0:0:0:0:
280,116,16311,2,0,L|284:48,1,41.2500015735627,2|2,0:0|0:0,0:0:0:0:
104,276,16436,6,0,L|100:84,1,165.000006294251,8|2,0:0|0:0,0:0:0:0:
336,248,16811,2,0,L|336:64,1,165.000006294251,8|2,0:0|0:0,0:0:0:0:
124,136,17311,1,2,0:0:0:0:
328,204,17436,2,0,L|452:180,1,82.5000031471254,4|0,0:0|0:0,0:0:0:0:
204,152,17686,2,0,L|48:120,1,82.5000031471254,2|2,0:0|0:0,0:0:0:0:
236,124,17936,2,0,L|348:96,1,82.5000031471254,8|2,0:0|0:0,0:0:0:0:
80,280,18186,1,2,0:0:0:0:
71,240,18248,1,0,0:0:0:0:
96,196,18311,1,0,0:0:0:0:
144,176,18373,1,0,0:0:0:0:
264,156,18436,6,0,L|440:136,1,165.000006294251,6|2,0:0|0:0,0:0:0:0:
328,224,18811,2,0,L|136:248,1,165.000006294251,8|2,0:0|0:0,0:0:0:0:
264,156,19186,2,0,L|360:144,1,82.5000031471254,10|2,0:0|0:0,0:0:0:0:
108,248,19436,2,0,P|104:164|204:124,1,165.000006294251,8|2,0:0|0:0,0:0:0:0:
268,120,19811,2,0,L|460:152,2,165.000006294251,8|0|2,0:0|0:0|0:0,0:0:0:0:
48,248,20436,6,0,L|240:220,1,165.000006294251,4|2,0:0|0:0,0:0:0:0:
320,204,20811,2,0,L|128:176,1,165.000006294251,8|0,0:0|0:0,0:0:0:0:
48,132,21186,2,0,L|160:108,1,82.5000031471254,8|2,0:0|0:0,0:0:0:0:
376,328,21436,1,8,0:0:0:0:
429,270,21561,1,0,0:0:0:0:
407,195,21686,1,2,0:0:0:0:
330,176,21811,2,0,L|160:152,1,165.000006294251,2|2,0:0|0:0,0:0:0:0:
72,128,22186,1,0,0:0:0:0:
402,248,22436,6,0,L|394:84,1,165.000006294251,4|2,0:0|0:0,0:0:0:0:
274,179,22811,2,0,L|162:155,1,82.5000031471254,8|0,0:0|0:0,0:0:0:0:
379,102,23061,2,0,L|469:123,2,82.5000031471254,2|8|2,0:0|0:0|0:0,0:0:0:0:
111,188,23436,2,0,L|325:165,1,165.000006294251,8|2,0:0|0:0,0:0:0:0:
388,155,23811,2,0,L|191:119,1,165.000006294251,2|0,0:0|0:0,0:0:0:0:
38,107,24186,2,0,L|161:80,1,82.5000031471254,2|2,0:0|0:0,0:0:0:0:
354,289,24436,6,0,L|348:108,1,165.000006294251,4|2,0:0|0:0,0:0:0:0:
225,187,24811,2,0,L|235:78,1,82.5000031471254,8|0,0:0|0:0,0:0:0:0:
351,91,25061,2,0,L|459:65,1,82.5000031471254,2|0,0:0|0:0,0:0:0:0:
275,335,25311,1,2,0:0:0:0:
211,266,25436,1,8,0:0:0:0:
197,186,25561,1,2,0:0:0:0:
240,117,25686,1,2,0:0:0:0:
317,94,25811,1,2,0:0:0:0:
215,262,25936,1,8,0:0:0:0:
137,237,26061,1,8,0:0:0:0:
87,173,26186,1,2,0:0:0:0:
405,305,26436,6,0,P|407:204|325:171,1,165.000006294251,6|2,0:0|0:0,0:0:0:0:
253,157,26811,2,0,L|80:119,1,165.000006294251,8|2,0:0|0:0,0:0:0:0:
190,209,27186,2,0,L|286:229,1,82.5000031471254,2|0,0:0|0:0,0:0:0:0:
455,255,27436,2,0,P|458:167|359:93,1,165.000006294251,8|2,0:0|0:0,0:0:0:0:
320,95,27811,2,0,L|133:100,1,165.000006294251,2|0,0:0|0:0,0:0:0:0:
69,108,28186,1,2,0:0:0:0:
320,249,28436,6,0,L|149:218,1,165.000006294251,4|2,0:0|0:0,0:0:0:0:
244,184,28811,2,0,L|421:157,1,165.000006294251,8|2,0:0|0:0,0:0:0:0:
494,116,29186,2,0,L|381:95,1,82.5000031471254,2|2,0:0|0:0,0:0:0:0:
199,216,29436,6,0,L|96:179,2,82.5000031471254,8|0|2,0:0|0:0|0:0,0:0:0:0:
279,193,29811,2,0,L|275:86,1,82.5000031471254,2|2,0:0|0:0,0:0:0:0:
166,90,30061,2,0,L|69:60,1,82.5000031471254,8|0,0:0|0:0,0:0:0:0:
321,283,30436,6,0,P|396:239|401:141,1,165.000006294251,4|2,0:0|0:0,0:0:0:0:
324,171,30811,2,0,P|249:127|244:29,1,165.000006294251,8|2,0:0|0:0,0:0:0:0:
449,211,31186,2,0,L|332:175,1,82.5000031471254,8|2,0:0|0:0,0:0:0:0:
236,113,31436,2,0,L|319:97,2,82.5000031471254,8|0|2,0:0|0:0|0:0,0:0:0:0:
127,252,31811,2,0,L|123:153,1,82.5000031471254,2|0,0:0|0:0,0:0:0:0:
347,272,32061,2,0,L|358:169,1,82.5000031471254,8|0,0:0|0:0,0:0:0:0:
166,208,32311,5,2,0:0:0:0:
112,185,32436,2,0,P|103:96|193:49,1,165.000006294251,6|2,0:0|0:0,0:0:0:0:
253,318,32811,1,8,0:0:0:0:
327,239,32936,1,0,0:0:0:0:
245,177,33061,1,2,0:0:0:0:
166,172,33186,1,8,0:0:0:0:
357,88,33311,2,0,L|405:77,1,41.2500015735627,2|2,0:0|0:0,0:0:0:0:
182,279,33436,5,8,0:0:0:0:
89,263,33561,2,0,L|84:140,1,82.5000031471254,2|0,0:0|0:0,0:0:0:0:
283,158,33811,2,0,L|379:140,1,82.5000031471254,2|8,0:0|0:0,0:0:0:0:
143,83,34061,1,2,0:0:0:0:
345,283,34186,1,6,0:0:0:0:
394,266,34248,1,0,0:0:0:0:
436,235,34311,1,0,0:0:0:0:
446,193,34373,1,0,0:0:0:0:
260,119,34436,6,0,L|37:158,1,187.000003566742,4|2,2:3|0:0,0:0:0:0:
296,247,34811,2,0,L|519:208,1,187.000003566742,8|2,0:0|0:0,0:0:0:0:
237,200,35186,2,0,L|245:323,1,93.500001783371,8|0,0:0|0:0,0:0:0:0:
459,123,35436,2,0,L|245:86,1,187.000003566742,8|2,0:0|0:0,0:0:0:0:
156,81,35811,1,8,0:0:0:0:
359,173,35936,2,0,L|365:268,1,93.500001783371,2|0,0:0|0:0,0:0:0:0:
146,274,36186,2,0,L|142:180,1,93.500001783371,10|0,0:0|0:0,0:0:0:0:
414,96,36436,6,0,L|259:69,1,93.500001783371,4|0,0:0|0:0,0:0:0:0:
113,79,36686,2,0,L|-20:56,1,93.500001783371,2|8,0:0|0:0,0:0:0:0:
264,271,36936,2,0,L|349:257,1,62.3333345222473,10|2,0:0|0:2,0:0:0:0:
140,181,37102,2,0,L|69:174,1,62.3333345222473,2|2,0:2|0:0,0:0:0:0:
403,323,37436,1,8,0:0:0:0:
469,260,37561,1,2,0:0:0:0:
470,169,37686,1,2,0:0:0:0:
405,106,37811,1,8,0:0:0:0:
206,106,37936,2,0,L|60:133,1,93.500001783371,2|0,0:0|0:0,0:0:0:0:
360,209,38186,2,0,L|506:182,1,93.500001783371,8|0,0:0|0:0,0:0:0:0:
194,353,38436,6,0,P|172:263|270:199,1,187.000003566742,4|2,0:0|0:0,0:0:0:0:
439,87,38811,2,0,P|461:173|399:237,1,187.000003566742,8|2,0:0|0:0,0:0:0:0:
279,58,39186,2,0,L|382:33,1,93.500001783371,8|2,0:0|0:0,0:0:0:0:
169,257,39436,2,0,P|58:198|42:111,1,187.000003566742,8|2,0:0|0:0,0:0:0:0:
115,60,39811,1,8,0:0:0:0:
355,162,39936,6,0,L|372:277,1,93.500001783371,4|0,0:0|0:0,0:0:0:0:
169,257,40186,2,0,L|151:358,1,93.500001783371,8|0,0:0|0:0,0:0:0:0:
355,162,40436,2,0,P|401:155|480:155,1,93.500001783371,4|0,0:0|0:0,0:0:0:0:
169,257,40686,2,0,P|122:255|76:248,1,93.500001783371,2|8,0:0|0:0,0:0:0:0:
468,59,40936,6,0,P|473:102|476:152,1,93.500001783371,2|2,0:0|0:0,0:0:0:0:
265,177,41186,2,0,P|267:220|265:270,1,93.500001783371,8|0,0:0|0:0,0:0:0:0:
40,268,41436,2,0,P|38:311|32:361,1,93.500001783371,8|0,0:0|0:0,0:0:0:0:
265,177,41686,2,0,P|267:133|265:83,1,93.500001783371,2|0,0:0|0:0,0:0:0:0:
466,277,41936,2,0,P|472:323|475:369,1,93.500001783371,8|0,0:0|0:0,0:0:0:0:
345,348,42186,2,0,L|227:338,1,93.500001783371,2|0,0:0|0:0,0:0:0:0:
32,252,42436,6,0,P|40:158|154:126,1,187.000003566742,4|2,0:0|0:0,0:0:0:0:
324,251,42811,2,0,P|316:157|202:125,1,187.000003566742,8|2,0:0|0:0,0:0:0:0:
117,193,43186,2,0,L|114:76,1,93.500001783371,8|2,0:0|0:0,0:0:0:0:
326,211,43436,2,0,L|519:174,1,187.000003566742,8|2,0:0|0:0,0:0:0:0:
409,124,43811,1,8,0:0:0:0:
208,235,43936,2,0,L|197:108,1,93.500001783371,2|0,0:0|0:0,0:0:0:0:
399,186,44186,2,0,L|407:74,1,93.500001783371,8|0,0:0|0:0,0:0:0:0:
199,117,44436,6,0,L|106:93,1,93.500001783371,4|0,0:0|0:0,0:0:0:0:
337,131,44686,2,0,L|461:93,1,93.500001783371,2|8,0:0|0:0,0:0:0:0:
173,208,44936,2,0,L|180:137,1,62.3333345222473,8|0,0:0|0:0,0:0:0:0:
348,150,45102,2,0,L|427:138,1,62.3333345222473,0|8,0:0|0:0,0:0:0:0:
77,279,45436,1,8,0:0:0:0:
74,186,45561,1,2,0:0:0:0:
117,105,45686,1,2,0:0:0:0:
196,56,45811,1,8,0:0:0:0:
418,125,45936,2,0,L|291:101,1,93.500001783371,2|0,0:0|0:0,0:0:0:0:
123,265,46186,2,0,L|250:289,1,93.500001783371,8|0,0:0|0:0,0:0:0:0:
437,290,46436,6,0,P|434:191|308:139,1,187.000003566742,4|2,0:0|0:0,0:0:0:0:
241,167,46811,1,8,0:0:0:0:
430,272,46936,2,0,L|429:108,1,93.500001783371,2|0,0:0|0:0,0:0:0:0:
228,203,47186,2,0,L|117:176,1,93.500001783371,8|2,0:0|0:0,0:0:0:0:
352,327,47436,2,0,P|449:247|432:162,1,187.000003566742,4|2,0:0|0:0,0:0:0:0:
362,169,47811,1,8,0:0:0:0:
157,254,47936,2,0,L|168:144,1,93.500001783371,2|0,0:0|0:0,0:0:0:0:
357,99,48186,1,8,0:0:0:0:
169,87,48311,2,0,L|116:74,1,46.7500008916855,2|2,0:0|0:0,0:0:0:0:
300,178,48436,6,0,L|488:210,1,187.000003566742,6|8,0:0|0:0,0:0:0:0:
207,186,48811,2,0,L|65:219,1,93.500001783371,4|0,0:0|0:0,0:0:0:0:
354,255,49061,2,0,L|348:160,1,93.500001783371,8|0,0:0|0:0,0:0:0:0:
229,152,49311,1,2,0:0:0:0:
466,162,49436,2,0,L|460:62,1,93.500001783371,4|2,0:0|0:0,0:0:0:0:
249,88,49686,2,0,L|366:64,1,93.500001783371,8|2,0:0|0:0,0:0:0:0:
121,279,49936,2,0,L|111:129,1,93.500001783371,8|2,0:0|0:0,0:0:0:0:
313,166,50186,1,8,0:0:0:0:
358,157,50248,1,0,0:0:0:0:
404,148,50311,1,8,0:0:0:0:
450,139,50373,1,0,0:0:0:0:
245,95,50436,6,0,L|16:82,1,187.000003566742,4|2,0:0|0:0,0:0:0:0:
267,289,50811,2,0,L|496:302,1,187.000003566742,8|2,0:0|0:0,0:0:0:0:
192,232,51186,2,0,L|200:113,1,93.500001783371,8|0,0:0|0:0,0:0:0:0:
427,178,51436,2,0,P|426:79|298:55,1,187.000003566742,8|2,0:0|0:0,0:0:0:0:
219,90,51811,1,8,0:0:0:0:
411,226,51936,2,0,L|403:345,1,93.500001783371,4|0,0:0|0:0,0:0:0:0:
136,284,52186,2,0,L|144:165,1,93.500001783371,10|0,0:0|0:0,0:0:0:0:
372,150,52436,6,0,L|523:105,1,93.500001783371,4|0,0:0|0:0,0:0:0:0:
227,103,52686,2,0,L|76:58,1,93.500001783371,2|8,0:0|0:0,0:0:0:0:
388,257,52936,2,0,L|393:178,1,62.3333345222473,8|0,0:0|0:0,0:0:0:0:
192,173,53102,2,0,L|90:153,1,62.3333345222473,0|8,0:0|0:0,0:0:0:0:
446,277,53436,1,8,0:0:0:0:
477,192,53561,1,2,0:0:0:0:
432,114,53686,1,2,0:0:0:0:
342,100,53811,1,8,0:0:0:0:
137,110,53936,2,0,L|258:69,1,93.500001783371,4|0,0:0|0:0,0:0:0:0:
434,209,54186,2,0,L|313:250,1,93.500001783371,2|0,0:0|0:0,0:0:0:0:
88,176,54436,6,0,L|300:99,1,187.000003566742,4|2,0:0|0:0,0:0:0:0:
59,286,54811,2,0,L|72:68,1,187.000003566742,8|0,0:0|0:0,0:0:0:0:
188,65,55186,2,0,L|75:33,1,93.500001783371,8|0,0:0|0:0,0:0:0:0:
303,209,55436,2,0,L|514:140,1,187.000003566742,8|2,0:0|0:0,0:0:0:0:
379,92,55811,1,8,0:0:0:0:
160,285,55936,2,0,L|152:143,1,93.500001783371,2|0,0:0|0:0,0:0:0:0:
379,257,56186,2,0,L|388:108,1,93.500001783371,8|0,0:0|0:0,0:0:0:0:
149,96,56436,2,0,L|252:67,1,93.500001783371,4|0,0:0|0:0,0:0:0:0:
481,99,56686,2,0,L|378:70,1,93.500001783371,2|8,0:0|0:0,0:0:0:0:
93,276,56936,6,0,L|71:156,1,93.500001783371,2|2,0:0|0:0,0:0:0:0:
281,253,57186,2,0,L|288:121,1,93.500001783371,8|0,0:0|0:0,0:0:0:0:
495,202,57436,2,0,L|515:90,1,93.500001783371,8|0,0:0|0:0,0:0:0:0:
302,82,57686,2,0,L|412:65,1,93.500001783371,2|8,0:0|0:0,0:0:0:0:
169,233,57936,2,0,L|328:258,1,93.500001783371,2|8,0:0|0:0,0:0:0:0:
34,140,58186,2,0,L|145:115,1,93.500001783371,8|2,0:0|0:0,0:0:0:0:
382,224,58436,6,0,P|365:122|244:111,1,187.000003566742,4|2,0:0|0:0,0:0:0:0:
84,225,58811,2,0,P|101:123|222:112,1,187.000003566742,8|2,0:0|0:0,0:0:0:0:
299,184,59186,2,0,L|442:146,1,93.500001783371,8|0,0:0|0:0,0:0:0:0:
159,194,59436,2,0,L|393:125,1,187.000003566742,8|2,0:0|0:0,0:0:0:0:
448,98,59811,1,8,0:0:0:0:
221,247,59936,2,0,L|105:208,1,93.500001783371,4|0,0:0|0:0,0:0:0:0:
337,190,60186,2,0,L|453:151,1,93.500001783371,8|0,0:0|0:0,0:0:0:0:
168,324,60436,6,0,L|184:200,1,93.500001783371,4|0,0:0|0:0,0:0:0:0:
416,224,60686,2,0,L|404:88,1,93.500001783371,2|8,0:0|0:0,0:0:0:0:
172,80,60936,2,0,L|244:60,1,62.3333345222473,8|0,0:0|0:0,0:0:0:0:
396,80,61102,2,0,L|324:60,1,62.3333345222473,0|8,0:0|0:0,0:0:0:0:
11,211,61436,2,0,L|211:179,1,187.000003566742,8|2,0:0|0:0,0:0:0:0:
287,163,61811,1,8,0:0:0:0:
69,273,61936,2,0,L|49:163,1,93.500001783371,4|0,0:0|0:0,0:0:0:0:
247,192,62186,2,0,L|258:77,1,93.500001783371,8|0,0:0|0:0,0:0:0:0:
463,176,62436,6,0,P|449:101|299:84,1,187.000003566742,6|0,0:0|0:0,0:0:0:0:
241,98,62811,1,8,0:0:0:0:
448,275,62936,2,0,L|323:234,1,93.500001783371,0|0,0:0|0:0,0:0:0:0:
158,250,63186,2,0,L|157:128,1,93.500001783371,2|0,0:0|0:0,0:0:0:0:
377,209,63436,2,0,P|425:146|321:107,1,187.000003566742,4|0,0:0|0:0,0:0:0:0:
255,148,63811,1,8,0:0:0:0:
147,193,63936,2,0,L|131:301,1,93.500001783371,2|0,0:0|0:0,0:0:0:0:
255,294,64186,2,0,L|389:326,1,93.500001783371,2|0,0:0|0:0,0:0:0:0:
80,296,64436,6,0,L|76:140,1,93.500001783371,4|2,0:0|0:0,0:0:0:0:
296,136,64686,2,0,L|400:108,2,93.500001783371,8|0|0,0:0|0:0|0:0,0:0:0:0:
164,136,65061,2,0,L|152:16,1,93.500001783371,0|2,0:0|0:0,0:0:0:0:
340,172,65311,2,0,L|400:160,1,46.7500008916855,2|0,0:0|0:0,0:0:0:0:
188,192,65436,2,0,L|104:124,1,93.500001783371,4|8,0:0|0:0,0:0:0:0:
333,106,65686,2,0,L|225:90,1,93.500001783371,0|2,0:0|0:0,0:0:0:0:
424,248,65936,1,8,0:0:0:0:
236,272,66061,1,2,0:0:0:0:
140,212,66186,2,0,L|176:76,1,93.500001783371,8|0,0:0|0:0,0:0:0:0:
443,192,66436,6,0,P|441:90|324:67,1,187.000003566742,4|2,0:0|0:0,0:0:0:0:
281,169,66811,2,0,L|97:113,1,187.000003566742,8|0,0:0|0:0,0:0:0:0:
216,79,67186,2,0,L|310:71,1,93.500001783371,8|0,0:0|0:0,0:0:0:0:
75,295,67436,1,8,0:0:0:0:
36,213,67561,1,2,0:0:0:0:
76,132,67686,1,2,0:0:0:0:
164,113,67811,2,0,L|368:155,1,187.000003566742,8|0,0:0|0:0,0:0:0:0:
245,214,68186,2,0,L|144:226,1,93.500001783371,8|0,0:0|0:0,0:0:0:0:
401,222,68436,6,0,P|412:123|310:90,1,187.000003566742,4|0,0:0|0:0,0:0:0:0:
153,225,68811,2,0,P|136:311|208:363,1,187.000003566742,8|0,0:0|0:0,0:0:0:0:
344,292,69186,2,0,L|217:258,1,93.500001783371,2|2,0:0|0:0,0:0:0:0:
45,224,69436,6,0,P|47:132|182:86,1,187.000003566742,8|2,0:0|0:0,0:0:0:0:
329,289,69811,2,0,P|401:233|402:143,1,187.000003566742,4|2,0:0|0:0,0:0:0:0:
197,102,70186,2,0,L|325:79,1,93.500001783371,8|0,0:0|0:0,0:0:0:0:
77,230,70436,6,0,L|55:97,1,93.500001783371,4|2,0:0|0:0,0:0:0:0:
286,264,70686,1,8,0:0:0:0:
377,231,70811,2,0,P|403:144|327:70,1,187.000003566742,2|2,0:0|0:0,0:0:0:0:
132,100,71186,2,0,L|288:88,1,93.500001783371,4|0,0:2|0:0,0:0:0:0:
40,296,71436,2,0,P|8:184|140:72,1,280.500005350113,4|0,0:0|2:0,0:0:0:0:
152,72,71852,1,0,0:0:0:0:
208,72,71894,1,0,0:0:0:0:
276,272,71936,2,0,P|372:220|388:32,1,280.500005350113,4|0,0:0|0:0,0:0:0:0:
364,52,72352,1,0,0:0:0:0:
324,44,72394,1,0,0:0:0:0:
284,40,72436,6,0,L|80:64,1,187.000003566742,4|2,0:0|0:0,0:0:0:0:
192,144,72811,2,0,L|404:164,1,187.000003566742,8|2,0:0|0:0,0:0:0:0:
176,260,73186,2,0,L|64:220,1,93.500001783371,8|0,0:0|0:0,0:0:0:0:
324,148,73436,2,0,L|440:120,2,93.500001783371,8|2|2,0:0|0:0|0:0,0:0:0:0:
92,168,73811,2,0,L|104:32,1,93.500001783371,8|0,0:0|0:0,0:0:0:0:
228,48,74061,2,0,L|128:28,2,93.500001783371,2|8|0,0:0|0:0|0:0,0:0:0:0:
468,268,74436,6,0,L|460:156,1,93.500001783371,8|2,0:0|0:0,0:0:0:0:
360,168,74686,1,2,0:0:0:0:
152,208,74811,2,0,P|104:128|208:84,1,187.000003566742,8|2,0:0|0:0,0:0:0:0:
288,56,75186,2,0,L|424:40,1,93.500001783371,8|0,0:0|0:0,0:0:0:0:
116,168,75436,2,0,L|248:136,2,93.500001783371,4|2|2,0:0|0:0|0:0,0:0:0:0:
360,228,75811,2,0,P|408:152|300:116,1,187.000003566742,4|2,0:0|0:0,0:0:0:0:
132,212,76186,2,0,L|128:92,1,93.500001783371,8|8,0:0|0:0,0:0:0:0:
404,180,76436,6,0,L|216:160,1,187.000003566742,4|0,0:0|0:0,0:0:0:0:
344,276,76811,2,0,P|392:200|304:140,1,187.000003566742,8|0,0:0|0:0,0:0:0:0:
224,76,77186,2,0,L|368:56,1,93.500001783371,8|0,0:0|0:0,0:0:0:0:
104,252,77436,1,8,0:0:0:0:
36,172,77561,2,0,L|168:148,1,93.500001783371,0|0,0:0|0:0,0:0:0:0:
340,224,77811,1,8,0:0:0:0:
436,160,77936,2,0,L|424:40,1,93.500001783371,2|0,0:0|0:0,0:0:0:0:
296,56,78186,1,8,0:0:0:0:
72,176,78311,2,0,L|136:160,1,46.7500008916855,2|2,0:0|0:0,0:0:0:0:
296,144,78436,6,0,L|420:124,1,93.500001783371,4|2,0:0|0:0,0:0:0:0:
180,112,78686,1,2,0:0:0:0:
396,268,78811,2,0,L|388:112,1,93.500001783371,8|0,0:0|0:0,0:0:0:0:
168,148,79061,2,0,L|64:108,1,93.500001783371,2|0,0:0|0:0,0:0:0:0:
372,96,79311,1,2,0:0:0:0:
96,240,79436,6,0,L|80:188,2,46.7500008916855,4|0|8,0:0|0:0|0:0,0:0:0:0:
208,272,79686,1,2,0:0:0:0:
444,244,79811,2,0,L|460:192,2,46.7500008916855,4|0|8,0:0|0:0|0:0,0:0:0:0:
352,244,80061,1,2,0:0:0:0:
40,232,80186,2,0,L|24:180,4,46.7500008916855,4|0|0|0|0,0:0|0:0|0:0|0:0|0:0,0:0:0:0:
352,244,80936,5,4,0:0:0:0:
256,192,81186,12,0,84436,0:0:0:0:
