osu file format v14

[General]
AudioFilename: audio.mp3
AudioLeadIn: 0
PreviewTime: 34373
Countdown: 0
SampleSet: None
StackLeniency: 1
Mode: 2
LetterboxInBreaks: 0
WidescreenStoryboard: 1

[Editor]
DistanceSpacing: 1.3
BeatDivisor: 4
GridSize: 4
TimelineZoom: 1.4

[Metadata]
Title:Touhou Hisouten
TitleUnicode:東方緋想天
Artist:Akiyama Uni
ArtistUnicode:あきやまうに
Creator:JBHyperion
Version:Rain
Source:東方緋想天 ~ Scarlet Weather Rhapsody
Tags:東方Project Touhou Eastern Perception of Heaven U2 JUN oiko N-tone 荒井英理也 Arai Eriya Zenjinrui no Tengakuroku Celestial Music Record All Humankind ORIGINAL SOUND TRACK ARRANGE DISC Team Shanghai Alice Twilight Frontier Reitaisai 5 Absolute Zero AZ -Hex- Daletto chickenbible Magic Girl Sorcerer Sinnoh JBH
BeatmapID:2021395
BeatmapSetID:965677

[Difficulty]
HPDrainRate:6
CircleSize:3
OverallDifficulty:8.8
ApproachRate:8.8
SliderMultiplier:1.9
SliderTickRate:2

[Events]
//Background and Video events
0,0,"tenshiiiiii.jpg",0,0
//Break Periods
//Storyboard Layer 0 (Background)
//Storyboard Layer 1 (Fail)
//Storyboard Layer 2 (Pass)
//Storyboard Layer 3 (Foreground)
//Storyboard Sound Samples

[TimingPoints]
1418,697.674418604651,4,2,1,60,1,0
1592,-100,4,2,1,50,0,0
5604,-66.6666666666667,4,2,1,50,0,0
5952,-100,4,2,1,50,0,0
8394,789.473684210526,4,2,1,50,1,0
8788,-100,4,2,1,20,0,0
8986,934.579439252336,4,2,1,40,1,0
9453,-100,4,2,1,20,0,0
9686,1500,4,2,1,50,1,0
10061,-100,4,3,0,40,0,0
10436,500,4,3,99,80,1,0
10561,-100,4,3,1,50,0,0
13436,-80,4,3,1,50,0,0
14436,-100,4,3,1,50,0,0
16311,-100,4,3,1,70,0,0
17436,-100,4,3,1,60,0,0
18436,-100,4,3,1,50,0,0
18811,-50,4,3,1,50,0,0
19061,-100,4,3,1,50,0,0
21436,-66.6666666666667,4,3,1,50,0,0
21686,-100,4,3,1,50,0,0
25436,-100,4,3,1,60,0,0
26436,-100,4,3,1,50,0,0
29436,-66.6666666666667,4,3,1,50,0,0
29686,-100,4,3,1,50,0,0
32436,-100,4,3,1,60,0,0
33311,-100,4,3,2,70,0,0
34436,-66.6666666666667,4,3,99,100,0,1
34561,-66.6666666666667,4,3,2,70,0,1
40436,-66.6666666666667,4,3,2,80,0,1
41436,-66.6666666666667,4,3,2,75,0,1
42436,-66.6666666666667,4,3,2,70,0,1
48311,-66.6666666666667,4,3,2,80,0,1
48436,-50,4,3,2,70,0,1
49436,-50,4,3,2,50,0,1
49686,-50,4,3,2,60,0,1
49936,-50,4,3,2,70,0,1
50186,-50,4,3,2,80,0,0
50436,-66.6666666666667,4,3,99,100,0,1
50561,-66.6666666666667,4,3,2,80,0,1
62436,-50,4,3,2,80,0,1
63186,-66.6666666666667,4,3,2,80,0,1
65811,-66.6666666666667,4,3,2,60,0,1
66436,-100,4,3,99,80,0,0
66561,-100,4,3,1,60,0,0
66936,-66.6666666666667,4,3,1,60,0,0
67436,-100,4,3,1,60,0,0
68436,-66.6666666666667,4,3,1,60,0,0
69186,-100,4,3,1,60,0,0
69811,-66.6666666666667,4,3,1,60,0,0
70436,-80,4,3,99,80,0,0
70561,-80,4,3,1,60,0,0
70811,-57.1428571428571,4,3,1,60,0,0
71061,-80,4,3,1,60,0,0
71436,-80,4,3,99,100,0,0
71936,-57.1428571428571,4,3,99,100,0,0
72436,-100,4,3,2,70,0,1
72686,-100,4,3,2,70,0,0
75811,-50,4,3,2,70,0,0
76186,-100,4,3,2,70,0,0
76436,-66.6666666666667,4,3,2,70,0,0
77186,-100,4,3,2,70,0,0
78186,-66.6666666666667,4,3,2,70,0,0
78436,-80,4,3,2,70,0,0
79436,-66.6666666666667,4,3,2,70,0,0
79811,-66.6666666666667,4,2,1,60,0,0
79936,-66.6666666666667,4,3,1,90,0,0
80186,-66.6666666666667,4,3,1,100,0,0
80936,-66.6666666666667,4,3,99,100,0,1
81186,-66.6666666666667,4,2,1,60,0,0
81436,-66.6666666666667,4,2,1,52,0,0
81936,-66.6666666666667,4,2,1,44,0,0
82436,-66.6666666666667,4,2,1,36,0,0
82936,-66.6666666666667,4,2,1,28,0,0
83436,-66.6666666666667,4,2,1,20,0,0
83936,-100,4,2,1,17,0,0
84061,-100,4,2,1,14,0,0
84186,-100,4,2,1,11,0,0
84311,-100,4,2,1,8,0,0
84436,-100,4,2,1,5,0,0

[Colours]
Combo1 : 220,150,220
Combo2 : 120,120,200
Combo3 : 75,175,200
Combo4 : 35,190,90
Combo5 : 240,240,90
Combo6 : 255,125,70

[HitObjects]
416,192,1069,5,0,0:0:0:0:
152,192,1418,2,0,L|12:148,1,142.5,2|8,0:0|0:0,0:0:0:0:
152,192,2290,2,0,L|204:192,1,47.5,0|8,0:0|0:0,0:0:0:0:
468,192,2813,6,0,L|324:136,2,142.5,2|8|8,0:0|0:0|0:0,0:0:0:0:
200,192,4208,2,0,P|132:168|104:100,1,142.5,2|8,0:0|0:0,0:0:0:0:
304,108,5255,1,2,0:0:0:0:
208,108,5429,1,0,0:0:0:0:
112,108,5604,6,0,L|40:108,2,71.2500027179719,8|0|0,0:0|0:0|0:0,0:0:0:0:
208,108,6127,1,0,0:0:0:0:
380,108,6301,1,2,0:0:0:0:
208,192,6650,1,8,0:0:0:0:
304,192,6824,1,0,0:0:0:0:
400,192,6999,6,0,P|468:216|500:288,1,142.5,2|8,0:0|0:0,0:0:0:0:
284,276,8045,1,8,0:0:0:0:
188,276,8220,1,0,0:0:0:0:
96,276,8394,6,0,P|68:232|64:188,1,95,2|0,0:0|0:0,0:0:0:0:
164,192,8986,2,0,P|208:172|224:120,1,95,2|0,0:0|0:0,0:0:0:0:
20,104,9686,2,0,L|16:48,1,47.5,10|4,0:0|0:3,0:0:0:0:
332,60,10436,6,0,L|436:60,1,95,4|0,0:0|0:0,0:0:0:0:
368,144,10811,1,8,0:0:0:0:
272,144,10936,2,0,L|220:144,1,47.5,2|0,0:0|0:0,0:0:0:0:
308,220,11186,2,0,L|334:265,1,47.5,8|0,0:0|0:0,0:0:0:0:
176,260,11436,5,8,0:0:0:0:
103,240,11561,1,0,0:0:0:0:
83,167,11686,1,0,0:0:0:0:
136,113,11811,1,8,0:0:0:0:
280,112,11936,1,2,0:0:0:0:
148,112,12186,1,8,0:0:0:0:
384,112,12436,6,0,L|488:112,1,95,4|0,0:0|0:0,0:0:0:0:
404,112,12811,1,8,0:0:0:0:
328,112,12936,1,2,0:0:0:0:
258,141,13061,1,2,0:0:0:0:
244,216,13186,1,8,0:0:0:0:
299,268,13311,1,2,0:0:0:0:
438,268,13436,6,0,L|424:328,1,59.375,8|0,0:0|0:0,0:0:0:0:
299,268,13686,2,0,L|312:328,1,59.375,2|8,0:0|0:0,0:0:0:0:
446,340,13936,1,2,0:0:0:0:
502,304,14061,1,2,0:0:0:0:
506,237,14186,1,8,0:0:0:0:
453,196,14311,1,2,0:0:0:0:
280,196,14436,6,0,L|164:196,1,95,4|2,0:0|0:0,0:0:0:0:
128,196,14811,1,8,0:0:0:0:
272,104,14936,1,2,0:0:0:0:
140,104,15186,2,0,L|124:40,1,47.5,8|0,0:0|0:0,0:0:0:0:
284,24,15436,5,8,0:0:0:0:
340,60,15561,1,2,0:0:0:0:
348,128,15686,1,2,0:0:0:0:
184,128,15811,2,0,L|56:192,1,142.5,8|10,0:0|0:0,0:0:0:0:
232,192,16311,1,2,0:0:0:0:
276,192,16373,1,2,0:0:0:0:
320,192,16436,6,0,L|416:192,1,95,8|2,0:0|0:0,0:0:0:0:
248,284,16811,2,0,L|128:284,1,95,8|2,0:0|0:0,0:0:0:0:
212,368,17186,1,2,0:0:0:0:
272,368,17311,1,2,0:0:0:0:
424,368,17436,6,0,L|469:322,1,47.5,4|0,0:0|0:0,0:0:0:0:
316,368,17686,1,2,0:0:0:0:
265,332,17811,1,2,0:0:0:0:
256,271,17936,1,8,0:0:0:0:
293,221,18061,1,2,0:0:0:0:
436,224,18186,2,0,L|390:178,1,47.5,2|2,0:0|0:0,0:0:0:0:
248,140,18436,6,0,L|144:140,1,95,6|2,0:0|0:0,0:0:0:0:
288,56,18811,2,0,P|336:108|304:216,1,190,8|2,0:0|0:0,0:0:0:0:
240,216,19186,1,10,0:0:0:0:
156,216,19311,1,2,0:0:0:0:
308,308,19436,6,0,L|412:308,1,95,8|2,0:0|0:0,0:0:0:0:
328,308,19811,1,8,0:0:0:0:
252,308,19936,2,0,L|224:259,1,47.5,2|0,0:0|0:0,0:0:0:0:
316,228,20186,2,0,L|344:179,1,47.5,2|2,0:0|0:0,0:0:0:0:
184,188,20436,6,0,L|84:188,1,95,4|2,0:0|0:0,0:0:0:0:
156,104,20811,1,8,0:0:0:0:
300,104,20936,2,0,L|312:160,1,47.5,2|0,0:0|0:0,0:0:0:0:
231,188,21186,2,0,L|151:188,1,47.5,8|2,0:0|0:0,0:0:0:0:
344,188,21436,6,0,P|409:214|428:296,1,142.500005435944,8|2,0:0|0:0,0:0:0:0:
348,272,21811,1,2,0:0:0:0:
204,272,21936,2,0,L|144:272,1,47.5,8|2,0:0|0:0,0:0:0:0:
272,272,22311,1,2,0:0:0:0:
424,272,22436,6,0,L|408:172,1,95,4|2,0:0|0:0,0:0:0:0:
264,192,22811,2,0,L|214:103,1,95,8|2,0:0|0:0,0:0:0:0:
296,108,23186,1,8,0:0:0:0:
336,40,23311,1,2,0:0:0:0:
184,40,23436,6,0,L|88:40,1,95,8|2,0:0|0:0,0:0:0:0:
44,76,23811,1,2,0:0:0:0:
196,144,23936,2,0,L|140:144,1,47.5,8|0,0:0|0:0,0:0:0:0:
16,224,24186,2,0,L|76:224,1,47.5,2|2,0:0|0:0,0:0:0:0:
224,228,24436,6,0,L|324:228,1,95,4|2,0:0|0:0,0:0:0:0:
184,312,24811,1,8,0:0:0:0:
432,312,25061,1,2,0:0:0:0:
308,312,25311,1,2,0:0:0:0:
140,312,25436,5,8,0:0:0:0:
78,303,25561,1,2,0:0:0:0:
30,262,25686,1,2,0:0:0:0:
11,202,25811,1,2,0:0:0:0:
160,204,25936,2,0,L|173:153,1,47.5,8|8,0:0|0:0,0:0:0:0:
28,204,26186,2,0,L|41:153,1,47.5,2|2,0:0|0:0,0:0:0:0:
216,160,26436,6,0,L|320:160,1,95,6|2,0:0|0:0,0:0:0:0:
156,68,26811,2,0,L|61:68,1,95,8|2,0:0|0:0,0:0:0:0:
128,160,27186,2,0,L|64:160,1,47.5,2|0,0:0|0:0,0:0:0:0:
236,160,27436,6,0,L|336:160,1,95,8|2,0:0|0:0,0:0:0:0:
276,160,27811,1,2,0:0:0:0:
132,160,27936,2,0,L|120:224,1,47.5,8|0,0:0|0:0,0:0:0:0:
200,248,28186,2,0,L|212:312,1,47.5,2|2,0:0|0:0,0:0:0:0:
352,296,28436,6,0,L|456:296,1,95,4|2,0:0|0:0,0:0:0:0:
300,192,28811,2,0,L|180:192,1,95,8|2,0:0|0:0,0:0:0:0:
340,92,29186,2,0,L|288:92,1,47.5,2|2,0:0|0:0,0:0:0:0:
132,88,29436,6,0,P|67:114|48:196,1,142.500005435944,8|2,0:0|0:0,0:0:0:0:
128,172,29811,1,2,0:0:0:0:
272,172,29936,2,0,L|332:172,1,47.5,2|8,0:0|0:0,0:0:0:0:
204,172,30311,1,2,0:0:0:0:
360,252,30436,6,0,L|464:252,1,95,4|2,0:0|0:0,0:0:0:0:
312,328,30811,2,0,L|212:328,1,95,8|2,0:0|0:0,0:0:0:0:
296,252,31186,1,8,0:0:0:0:
216,252,31311,1,2,0:0:0:0:
372,252,31436,6,0,L|476:252,1,95,8|2,0:0|0:0,0:0:0:0:
324,156,31811,1,2,0:0:0:0:
456,156,32061,1,8,0:0:0:0:
304,156,32311,1,2,0:0:0:0:
148,156,32436,6,0,L|44:156,1,95,6|2,0:0|0:0,0:0:0:0:
148,240,32811,2,0,L|252:240,1,95,8|2,0:0|0:0,0:0:0:0:
308,240,33186,1,8,0:0:0:0:
136,324,33311,1,2,0:0:0:0:
112,324,33373,1,2,0:0:0:0:
88,324,33436,6,0,L|40:324,1,47.5,8|2,0:0|0:0,0:0:0:0:
192,192,33811,1,2,0:0:0:0:
364,192,33936,2,0,L|372:136,1,47.5,8|2,0:0|0:0,0:0:0:0:
204,104,34186,1,6,0:0:0:0:
452,104,34436,6,0,P|440:52|360:12,1,142.500005435944,4|2,2:3|0:0,0:0:0:0:
268,12,34811,1,8,0:0:0:0:
120,104,34936,2,0,L|44:104,1,71.2500027179719,2|2,0:0|0:0,0:0:0:0:
196,192,35186,2,0,L|244:136,1,71.2500027179719,8|0,0:0|0:0,0:0:0:0:
88,192,35436,6,0,L|16:192,2,71.2500027179719,8|0|2,0:0|0:0|0:0,0:0:0:0:
188,192,35811,1,8,0:0:0:0:
332,192,35936,2,0,P|380:248|384:320,1,142.500005435944,2|10,0:0|0:0,0:0:0:0:
116,312,36436,6,0,P|122:242|169:189,1,142.500005435944,4|2,0:0|0:0,0:0:0:0:
256,192,36811,1,8,0:0:0:0:
408,192,36936,2,0,L|448:192,2,35.625001358986,10|2|2,0:0|0:2|0:2,0:0:0:0:
308,192,37186,2,0,L|251:135,1,71.2500027179719,2|2,0:0|0:0,0:0:0:0:
416,88,37436,6,0,L|488:88,2,71.2500027179719,8|2|2,0:0|0:0|0:0,0:0:0:0:
316,88,37811,1,8,0:0:0:0:
164,88,37936,2,0,P|170:158|217:211,1,142.500005435944,2|8,0:0|0:0,0:0:0:0:
472,212,38436,6,0,L|328:192,1,142.500005435944,4|2,0:0|0:0,0:0:0:0:
182,88,38811,2,0,L|323:107,1,142.500005435944,8|2,0:0|0:0,0:0:0:0:
226,180,39186,2,0,L|314:192,1,71.2500027179719,8|2,0:0|0:0,0:0:0:0:
454,192,39436,6,0,P|486:260|450:320,1,142.500005435944,8|2,0:0|0:0,0:0:0:0:
358,316,39811,1,8,0:0:0:0:
194,316,39936,2,0,L|342:316,1,142.500005435944,4|8,0:0|0:0,0:0:0:0:
86,192,40436,5,4,0:0:0:0:
270,192,40686,2,0,L|212:144,1,71.2500027179719,2|8,0:0|0:0,0:0:0:0:
58,144,40936,2,0,L|78:72,1,71.2500027179719,2|2,0:0|0:0,0:0:0:0:
222,76,41186,2,0,L|202:7,1,71.2500027179719,8|0,0:0|0:0,0:0:0:0:
38,144,41436,5,8,0:0:0:0:
280,148,41686,2,0,L|284:220,1,71.2500027179719,2|0,0:0|0:0,0:0:0:0:
130,245,41936,2,0,L|19:334,1,142.500005435944,8|2,0:0|0:0,0:0:0:0:
304,336,42436,6,0,L|448:336,1,142.500005435944,4|2,0:0|0:0,0:0:0:0:
360,252,42811,1,8,0:0:0:0:
200,192,42936,2,0,L|130:152,1,71.2500027179719,2|2,0:0|0:0,0:0:0:0:
240,124,43186,2,0,L|170:84,1,71.2500027179719,8|2,0:0|0:0,0:0:0:0:
28,88,43436,5,8,0:0:0:0:
3,153,43561,1,2,0:0:0:0:
29,217,43686,1,2,0:0:0:0:
92,247,43811,1,8,0:0:0:0:
252,248,43936,2,0,L|404:248,1,142.500005435944,2|8,0:0|0:0,0:0:0:0:
136,248,44436,6,0,P|88:208|137:169,1,142.500005435944,4|2,0:0|0:0,0:0:0:0:
236,168,44811,1,8,0:0:0:0:
84,168,44936,2,0,L|44:168,2,35.625001358986,8|2|2,0:0|0:2|0:2,0:0:0:0:
184,168,45186,2,0,L|121:132,1,71.2500027179719,8|2,0:0|0:0,0:0:0:0:
292,44,45436,6,0,L|364:44,2,71.2500027179719,8|2|2,0:0|0:0|0:0,0:0:0:0:
204,44,45811,1,8,0:0:0:0:
364,44,45936,1,2,0:0:0:0:
120,44,46186,1,8,0:0:0:0:
392,44,46436,5,4,0:0:0:0:
452,80,46561,1,2,0:0:0:0:
456,148,46686,1,2,0:0:0:0:
408,200,46811,1,8,0:0:0:0:
248,200,46936,1,2,0:0:0:0:
492,200,47186,2,0,L|416:200,1,71.2500027179719,8|2,0:0|0:0,0:0:0:0:
276,328,47436,6,0,L|204:328,2,71.2500027179719,4|2|2,0:0|0:0|0:0,0:0:0:0:
364,328,47811,1,8,0:0:0:0:
204,328,47936,2,0,L|246:255,1,71.2500027179719,2|2,0:0|0:0,0:0:0:0:
348,228,48186,2,0,L|275:186,1,71.2500027179719,8|2,0:0|0:0,0:0:0:0:
200,192,48373,1,2,0:0:0:0:
112,192,48436,6,0,P|44:144|112:88,1,190,6|8,0:0|0:0,0:0:0:0:
280,76,48811,2,0,L|288:276,1,190,4|8,0:0|0:0,0:0:0:0:
100,264,49311,1,2,0:0:0:0:
240,348,49436,6,0,L|296:251,1,95,4|2,0:0|0:0,0:0:0:0:
136,268,49686,2,0,L|50:196,1,95,8|2,0:0|0:0,0:0:0:0:
224,212,49936,2,0,L|329:173,1,95,8|2,0:0|0:0,0:0:0:0:
144,124,50186,2,0,L|48:124,1,95,8|8,0:0|0:0,0:0:0:0:
220,44,50436,6,0,L|364:44,1,142.500005435944,4|2,0:0|0:0,0:0:0:0:
216,128,50811,2,0,P|172:176|216:228,1,142.500005435944,8|2,0:0|0:0,0:0:0:0:
336,228,51186,2,0,L|264:228,1,71.2500027179719,8|0,0:0|0:0,0:0:0:0:
120,224,51436,5,8,0:0:0:0:
53,246,51561,1,2,0:0:0:0:
16,305,51686,1,2,0:0:0:0:
23,374,51811,1,8,0:0:0:0:
180,372,51936,2,0,L|316:328,1,142.500005435944,4|10,0:0|0:0,0:0:0:0:
53,246,52436,6,0,P|68:176|136:156,1,142.500005435944,4|2,0:0|0:0,0:0:0:0:
228,156,52811,1,8,0:0:0:0:
392,160,52936,1,8,0:0:0:0:
356,160,52998,1,0,0:0:0:0:
320,160,53061,1,0,0:0:0:0:
160,64,53186,2,0,L|80:64,1,71.2500027179719,8|0,0:0|0:0,0:0:0:0:
248,64,53436,6,0,L|320:64,2,71.2500027179719,8|2|2,0:0|0:0|0:0,0:0:0:0:
160,64,53811,1,8,0:0:0:0:
332,64,53936,2,0,B|403:64|403:64|448:124,1,142.500005435944,4|2,0:0|0:0,0:0:0:0:
196,148,54436,6,0,L|48:148,1,142.500005435944,4|2,0:0|0:0,0:0:0:0:
140,232,54811,1,8,0:0:0:0:
224,232,54936,1,2,0:0:0:0:
52,232,55186,1,8,0:0:0:0:
336,148,55436,6,0,L|486:148,1,142.500005435944,8|2,0:0|0:0,0:0:0:0:
390,64,55811,1,8,0:0:0:0:
232,64,55936,1,2,0:0:0:0:
452,64,56186,1,8,0:0:0:0:
188,64,56436,5,4,0:0:0:0:
356,64,56686,2,0,L|406:114,1,71.2500027179719,2|8,0:0|0:0,0:0:0:0:
244,192,56936,2,0,L|316:192,1,71.2500027179719,2|2,0:0|0:0,0:0:0:0:
408,276,57186,2,0,L|336:276,1,71.2500027179719,8|0,0:0|0:0,0:0:0:0:
180,276,57436,5,8,0:0:0:0:
324,276,57686,2,0,L|236:276,1,71.2500027179719,2|8,0:0|0:0,0:0:0:0:
88,276,57936,1,2,0:0:0:0:
180,276,58061,1,8,0:0:0:0:
92,192,58186,1,8,0:0:0:0:
184,192,58311,1,2,0:0:0:0:
344,192,58436,6,0,L|483:154,1,142.500005435944,4|2,0:0|0:0,0:0:0:0:
320,72,58811,2,0,L|180:109,1,142.500005435944,8|2,0:0|0:0,0:0:0:0:
275,210,59186,2,0,L|351:190,1,71.2500027179719,8|0,0:0|0:0,0:0:0:0:
180,208,59436,6,0,L|108:192,2,71.2500027179719,8|2|2,0:0|0:0|0:0,0:0:0:0:
268,212,59811,1,8,0:0:0:0:
424,212,59936,1,4,0:0:0:0:
196,212,60186,1,8,0:0:0:0:
468,212,60436,6,0,L|320:132,1,142.500005435944,4|2,0:0|0:0,0:0:0:0:
256,144,60811,1,8,0:0:0:0:
96,144,60936,1,8,0:0:0:0:
65,187,60998,1,2,0:2:0:0:
58,239,61061,1,2,0:2:0:0:
76,289,61123,1,2,0:0:0:0:
115,325,61186,2,0,L|187:326,1,71.2500027179719,8|2,0:0|0:0,0:0:0:0:
358,325,61436,6,0,L|430:325,2,71.2500027179719,8|2|2,0:0|0:0|0:0,0:0:0:0:
270,325,61811,1,8,0:0:0:0:
430,325,61936,1,4,0:0:0:0:
188,324,62186,1,8,0:0:0:0:
444,192,62436,6,0,L|168:112,2,285,6|8|2,0:0|0:0|0:0,0:0:0:0:
160,304,63436,2,0,L|88:280,2,71.2500027179719,4|0|0,0:0|0:0|0:0,0:0:0:0:
240,304,63811,1,8,0:0:0:0:
396,192,63936,1,2,0:0:0:0:
168,192,64186,1,2,0:0:0:0:
440,128,64436,6,0,L|504:96,1,71.2500027179719,4|2,0:0|0:0,0:0:0:0:
396,192,64686,2,0,P|264:136|228:8,1,285.000010871888,8|2,0:0|0:0,0:0:0:0:
388,8,65311,1,2,0:0:0:0:
432,8,65373,1,2,0:0:0:0:
476,8,65436,5,4,0:0:0:0:
316,8,65561,1,8,0:0:0:0:
172,128,65811,1,2,0:0:0:0:
316,128,65936,2,0,L|392:128,1,71.2500027179719,8|2,0:0|0:0,0:0:0:0:
224,128,66186,1,8,0:0:0:0:
488,128,66436,6,0,L|484:232,1,95,4|2,0:0|0:0,0:0:0:0:
428,224,66811,1,8,0:0:0:0:
284,224,66936,2,0,L|208:224,1,71.2500027179719,2|0,0:0|0:0,0:0:0:0:
140,224,67186,2,0,L|64:224,1,71.2500027179719,8|0,0:0|0:0,0:0:0:0:
224,136,67436,6,0,L|292:136,2,47.5,8|2|2,0:0|0:0|0:0,0:0:0:0:
168,136,67811,1,8,0:0:0:0:
16,136,67936,2,0,L|100:84,1,95,2|8,0:0|0:0,0:0:0:0:
340,56,68436,6,0,L|124:56,2,213.750008153916,4|8|2,0:0|0:0|0:0,0:0:0:0:
270,56,69311,1,2,0:0:0:0:
120,56,69436,6,0,L|68:56,2,47.5,8|2|2,0:0|0:0|0:0,0:0:0:0:
284,56,69811,2,0,P|348:72|376:144,1,142.500005435944,4|2,0:0|0:0,0:0:0:0:
216,140,70186,2,0,L|144:140,1,71.2500027179719,8|0,0:0|0:0,0:0:0:0:
312,224,70436,6,0,L|372:224,2,59.375,4|2|8,0:0|0:0|0:0,0:0:0:0:
228,224,70811,2,0,P|176:172|232:120,1,166.250001585484,2|2,0:0|0:0,0:0:0:0:
388,120,71186,1,4,0:2:0:0:
116,116,71436,5,4,0:0:0:0:
244,192,71811,1,0,2:0:0:0:
396,192,71936,2,0,P|472:244|388:344,1,249.375002378225,4|0,0:0|0:0,0:0:0:0:
240,344,72436,6,0,L|144:344,1,95,4|2,0:0|0:0,0:0:0:0:
232,256,72811,2,0,L|328:256,1,95,8|2,0:0|0:0,0:0:0:0:
164,192,73186,2,0,L|144:136,1,47.5,8|0,0:0|0:0,0:0:0:0:
300,148,73436,5,8,0:0:0:0:
355,97,73561,1,2,0:0:0:0:
331,27,73686,1,2,0:0:0:0:
268,24,73811,2,0,L|156:24,1,95,8|2,0:0|0:0,0:0:0:0:
92,104,74186,2,0,L|156:104,1,47.5,8|0,0:0|0:0,0:0:0:0:
292,104,74436,5,8,0:0:0:0:
273,193,74561,1,2,0:0:0:0:
189,232,74686,1,2,0:0:0:0:
268,232,74811,2,0,L|376:232,1,95,8|2,0:0|0:0,0:0:0:0:
260,320,75186,2,0,L|320:320,1,47.5,8|0,0:0|0:0,0:0:0:0:
460,320,75436,6,0,L|508:320,2,47.5,4|2|2,0:0|0:0|0:0,0:0:0:0:
307,320,75811,2,0,P|259:264|295:152,1,190,4|2,0:0|0:0,0:0:0:0:
440,160,76186,2,0,L|496:160,1,47.5,8|8,0:0|0:0,0:0:0:0:
320,68,76436,6,0,L|104:68,2,213.750008153916,4|8|8,0:0|0:0|0:0,0:0:0:0:
132,156,77436,6,0,L|72:156,2,47.5,8|0|0,0:0|0:0|0:0,0:0:0:0:
192,156,77811,1,8,0:0:0:0:
36,240,77936,2,0,L|24:296,1,47.5,2|0,0:0|0:0,0:0:0:0:
192,296,78186,2,0,L|268:296,1,71.2500027179719,8|2,0:0|0:0,0:0:0:0:
348,296,78373,1,2,0:0:0:0:
432,296,78436,6,0,L|504:296,2,59.375,4|2|2,0:0|0:0|0:0,0:0:0:0:
272,224,78811,2,0,L|156:188,2,118.75,8|2|2,0:0|0:0|0:0,0:0:0:0:
456,40,79436,5,4,0:0:0:0:
376,40,79561,1,8,0:0:0:0:
296,40,79686,1,2,0:0:0:0:
118,136,79811,1,4,0:0:0:0:
198,136,79936,1,8,0:0:0:0:
278,136,80061,1,2,0:0:0:0:
464,136,80186,1,4,0:0:0:0:
252,192,80936,5,4,0:0:0:0:
256,192,81186,12,0,84436,0:0:0:0:
