osu file format v14

[General]
AudioFilename: audio.mp3
AudioLeadIn: 0
PreviewTime: 34373
Countdown: 0
SampleSet: None
StackLeniency: 1
Mode: 2
LetterboxInBreaks: 0
WidescreenStoryboard: 1

[Editor]
DistanceSpacing: 1.3
BeatDivisor: 4
GridSize: 4
TimelineZoom: 1.4

[Metadata]
Title:Touhou Hisouten
TitleUnicode:東方緋想天
Artist:Akiyama Uni
ArtistUnicode:あきやまうに
Creator:JBHyperion
Version:Platter
Source:東方緋想天 ~ Scarlet Weather Rhapsody
Tags:東方Project Touhou Eastern Perception of Heaven U2 JUN oiko N-tone 荒井英理也 Arai Eriya Zenjinrui no Tengakuroku Celestial Music Record All Humankind ORIGINAL SOUND TRACK ARRANGE DISC Team Shanghai Alice Twilight Frontier Reitaisai 5 Absolute Zero AZ -Hex- Daletto chickenbible Magic Girl Sorcerer Sinnoh JBH
BeatmapID:2021394
BeatmapSetID:965677

[Difficulty]
HPDrainRate:5
CircleSize:3
OverallDifficulty:7.7
ApproachRate:7.7
SliderMultiplier:1.9
SliderTickRate:2

[Events]
//Background and Video events
0,0,"tenshiiiiii.jpg",0,0
//Break Periods
//Storyboard Layer 0 (Background)
//Storyboard Layer 1 (Fail)
//Storyboard Layer 2 (Pass)
//Storyboard Layer 3 (Foreground)
//Storyboard Sound Samples

[TimingPoints]
1418,697.674418604651,4,2,1,60,1,0
1592,-100,4,2,1,50,0,0
5604,-66.6666666666667,4,2,1,50,0,0
5952,-100,4,2,1,50,0,0
6301,-100,4,2,1,50,0,0
8045,-100,4,2,1,50,0,0
8394,789.473684210526,4,2,1,50,1,0
8394,-66.6666666666667,4,2,1,50,0,0
8788,-100,4,2,1,20,0,0
8986,934.579439252336,4,2,1,40,1,0
9453,-100,4,2,1,20,0,0
9686,1500,4,2,1,50,1,0
10061,-100,4,3,0,40,0,0
10436,500,4,3,99,80,1,0
10561,-100,4,3,1,50,0,0
13436,-80,4,3,1,50,0,0
14811,-100,4,3,1,50,0,0
16311,-100,4,3,1,70,0,0
17436,-100,4,3,1,60,0,0
18436,-100,4,3,1,50,0,0
25436,-100,4,3,1,60,0,0
26436,-100,4,3,1,50,0,0
32436,-100,4,3,1,60,0,0
33311,-100,4,3,2,70,0,0
34436,-66.6666666666667,4,3,99,100,0,1
34561,-66.6666666666667,4,3,2,70,0,1
34811,-100,4,3,2,70,0,1
36936,-66.6666666666667,4,3,2,70,0,1
37186,-100,4,3,2,70,0,1
40436,-100,4,3,2,80,0,1
41436,-100,4,3,2,75,0,1
42436,-100,4,3,2,70,0,1
44936,-66.6666666666667,4,3,2,70,0,1
45186,-100,4,3,2,70,0,1
48311,-100,4,3,2,80,0,1
48436,-80,4,3,2,70,0,1
49061,-100,4,3,2,70,0,1
49436,-100,4,3,2,50,0,1
49686,-100,4,3,2,60,0,1
49936,-100,4,3,2,70,0,1
50186,-100,4,3,2,80,0,0
50436,-90.9090909090909,4,3,99,100,0,1
50561,-90.9090909090909,4,3,2,80,0,1
65811,-90.9090909090909,4,3,2,60,0,1
66436,-100,4,3,99,80,0,0
66561,-100,4,3,1,60,0,0
70436,-100,4,3,99,80,0,0
70561,-100,4,3,1,60,0,0
71436,-100,4,3,99,100,0,0
72436,-100,4,3,2,70,0,1
72686,-100,4,3,2,70,0,0
74811,-80,4,3,2,70,0,0
75186,-100,4,3,2,70,0,0
79436,-100,4,3,2,70,0,0
79811,-100,4,2,1,60,0,0
79936,-100,4,3,1,90,0,0
80186,-100,4,3,1,100,0,0
80936,-100,4,3,99,100,0,1
81186,-100,4,2,1,60,0,0
81436,-100,4,2,1,52,0,0
81936,-100,4,2,1,44,0,0
82436,-100,4,2,1,36,0,0
82936,-100,4,2,1,28,0,0
83436,-100,4,2,1,20,0,0
83936,-100,4,2,1,17,0,0
84061,-100,4,2,1,14,0,0
84186,-100,4,2,1,11,0,0
84311,-100,4,2,1,8,0,0
84436,-100,4,2,1,5,0,0

[Colours]
Combo1 : 220,150,220
Combo2 : 120,120,200
Combo3 : 75,175,200
Combo4 : 35,190,90
Combo5 : 240,240,90
Combo6 : 255,125,70

[HitObjects]
396,192,1069,5,0,0:0:0:0:
128,192,1418,2,0,P|84:144|128:88,1,142.5,2|8,0:0|0:0,0:0:0:0:
276,88,2464,1,8,0:0:0:0:
140,88,2813,2,0,L|276:44,2,142.5,2|0|8,0:0|0:0|0:0,0:0:0:0:
356,84,4208,6,0,P|420:116|448:184,1,142.5,2|8,0:0|0:0,0:0:0:0:
296,164,5255,2,0,L|292:220,1,47.5,2|0,0:0|0:0,0:0:0:0:
380,216,5604,1,8,0:0:0:0:
448,260,5778,1,0,0:0:0:0:
452,340,5952,1,0,0:0:0:0:
380,376,6127,1,0,0:0:0:0:
296,376,6301,1,2,0:0:0:0:
172,272,6650,2,0,L|232:272,1,47.5,8|0,0:0|0:0,0:0:0:0:
300,272,6999,6,0,L|444:240,1,142.5,2|8,0:0|0:0,0:0:0:0:
280,192,8045,2,0,L|216:192,1,47.5,8|0,0:0|0:0,0:0:0:0:
156,192,8394,6,0,P|84:136|156:72,1,213.750008153916,2|2,0:0|0:0,0:0:0:0:
432,72,9686,2,0,L|436:16,1,47.5,10|4,0:0|0:3,0:0:0:0:
164,28,10436,6,0,P|124:72|164:136,1,142.5,4|8,0:0|0:0,0:0:0:0:
224,136,10936,2,0,L|328:136,1,95,2|8,0:0|0:0,0:0:0:0:
188,136,11436,2,0,L|184:252,1,95,8|0,0:0|0:0,0:0:0:0:
248,232,11811,1,8,0:0:0:0:
316,232,11936,2,0,L|208:232,1,95,2|8,0:0|0:0,0:0:0:0:
24,224,12436,6,0,P|52:304|104:316,1,142.5,4|8,0:0|0:0,0:0:0:0:
156,316,12936,2,0,L|252:316,1,95,2|8,0:0|0:0,0:0:0:0:
488,316,13436,1,8,0:0:0:0:
480,260,13561,1,0,0:0:0:0:
446,217,13686,1,2,0:0:0:0:
394,196,13811,1,8,0:0:0:0:
304,196,13936,1,2,0:0:0:0:
372,196,14061,1,2,0:0:0:0:
440,196,14186,1,8,0:0:0:0:
224,196,14436,6,0,L|44:196,1,178.125,4|8,0:0|0:0,0:0:0:0:
128,196,14936,2,0,L|16:196,1,95,2|8,0:0|0:0,0:0:0:0:
244,100,15436,2,0,L|340:100,1,95,8|2,0:0|0:0,0:0:0:0:
280,100,15811,1,8,0:0:0:0:
220,100,15936,2,0,L|216:4,1,95,0|10,0:0|0:0,0:0:0:0:
328,8,16311,1,2,0:0:0:0:
440,8,16436,6,0,L|444:120,1,95,8|2,0:0|0:0,0:0:0:0:
348,92,16811,2,0,L|344:204,1,95,8|2,0:0|0:0,0:0:0:0:
282,188,17186,1,2,0:0:0:0:
220,188,17311,1,2,0:0:0:0:
320,188,17436,1,4,0:0:0:0:
384,219,17561,1,0,0:0:0:0:
387,290,17686,1,2,0:0:0:0:
327,328,17811,1,2,0:0:0:0:
260,328,17936,1,8,0:0:0:0:
335,328,18061,1,2,0:0:0:0:
252,328,18186,1,2,0:0:0:0:
484,324,18436,6,0,P|500:276|484:232,1,95,6|2,0:0|0:0,0:0:0:0:
428,212,18811,1,8,0:0:0:0:
368,192,18936,2,0,L|360:92,1,95,0|10,0:0|0:0,0:0:0:0:
161,104,19436,2,0,L|53:104,1,95,8|2,0:0|0:0,0:0:0:0:
12,104,19811,1,8,0:0:0:0:
66,104,19936,2,0,L|160:104,1,95,2|2,0:0|0:0,0:0:0:0:
368,104,20436,6,0,L|268:104,1,95,4|2,0:0|0:0,0:0:0:0:
220,104,20811,1,8,0:0:0:0:
274,104,20936,1,2,0:0:0:0:
164,24,21186,2,0,L|220:24,1,47.5,8|2,0:0|0:0,0:0:0:0:
284,24,21436,2,0,L|380:24,1,95,8|2,0:0|0:0,0:0:0:0:
436,24,21811,1,2,0:0:0:0:
364,24,21936,2,0,L|304:24,2,47.5,8|2|0,0:0|0:0|0:0,0:0:0:0:
156,24,22436,6,0,L|56:24,1,95,4|2,0:0|0:0,0:0:0:0:
128,24,22811,2,0,L|224:24,1,95,8|2,0:0|0:0,0:0:0:0:
292,64,23186,1,8,0:0:0:0:
284,144,23311,1,2,0:0:0:0:
148,144,23436,2,0,L|44:144,1,95,8|2,0:0|0:0,0:0:0:0:
120,144,23811,1,2,0:0:0:0:
48,144,23936,2,0,L|40:216,1,47.5,8|0,0:0|0:0,0:0:0:0:
120,144,24186,1,2,0:0:0:0:
336,192,24436,6,0,L|432:192,1,95,4|2,0:0|0:0,0:0:0:0:
356,192,24811,2,0,L|356:292,1,95,8|2,0:0|0:0,0:0:0:0:
236,280,25311,1,2,0:0:0:0:
156,280,25436,1,8,0:0:0:0:
156,216,25561,1,2,0:0:0:0:
200,168,25686,1,2,0:0:0:0:
264,152,25811,1,2,0:0:0:0:
336,152,25936,2,0,L|384:152,2,47.5,8|8|2,0:0|0:0|0:0,0:0:0:0:
120,152,26436,6,0,L|16:152,1,95,6|2,0:0|0:0,0:0:0:0:
120,152,26811,2,0,L|216:152,1,95,8|2,0:0|0:0,0:0:0:0:
280,152,27186,1,2,0:0:0:0:
68,152,27436,2,0,L|64:36,1,95,8|2,0:0|0:0,0:0:0:0:
140,64,27811,1,2,0:0:0:0:
64,57,27936,2,0,L|0:56,2,47.5,8|0|2,0:0|0:0|0:0,0:0:0:0:
280,64,28436,6,0,L|388:64,1,95,4|2,0:0|0:0,0:0:0:0:
307,84,28811,1,8,0:0:0:0:
279,143,28936,1,0,0:0:0:0:
303,204,29061,1,2,0:0:0:0:
364,228,29186,1,2,0:0:0:0:
160,228,29436,2,0,L|92:228,2,47.5,8|0|2,0:0|0:0|0:0,0:0:0:0:
232,228,29811,1,2,0:0:0:0:
296,260,29936,1,2,0:0:0:0:
300,332,30061,1,8,0:0:0:0:
236,368,30186,1,0,0:0:0:0:
20,368,30436,6,0,L|16:248,1,95,4|2,0:0|0:0,0:0:0:0:
88,276,30811,2,0,L|188:276,1,95,8|2,0:0|0:0,0:0:0:0:
248,276,31186,2,0,L|188:276,1,47.5,8|2,0:0|0:0,0:0:0:0:
64,192,31436,2,0,L|8:192,2,47.5,8|0|2,0:0|0:0|0:0,0:0:0:0:
136,192,31811,2,0,L|140:92,1,95,2|8,0:0|0:0,0:0:0:0:
268,100,32311,1,2,0:0:0:0:
128,96,32436,6,0,L|121:-6,1,95,6|2,0:0|0:0,0:0:0:0:
217,99,32811,2,0,L|221:-1,1,95,8|2,0:0|0:0,0:0:0:0:
121,1,33186,1,8,0:0:0:0:
367,10,33436,2,0,L|440:12,2,47.5,8|2|0,0:0|0:0|0:0,0:0:0:0:
307,10,33811,1,2,0:0:0:0:
172,12,33936,1,8,0:0:0:0:
92,12,34061,1,2,0:0:0:0:
12,12,34186,1,6,0:0:0:0:
256,12,34436,6,0,P|328:64|256:140,1,213.750008153916,4|8,2:3|0:0,0:0:0:0:
172,140,34936,2,0,L|168:244,1,95,2|8,0:0|0:0,0:0:0:0:
404,232,35436,2,0,L|316:192,1,95,8|2,0:0|0:0,0:0:0:0:
256,192,35811,1,8,0:0:0:0:
328,192,35936,2,0,L|392:192,2,47.5,2|0|10,0:0|0:0|0:0,0:0:0:0:
96,192,36436,6,0,L|92:304,1,95,4|2,0:0|0:0,0:0:0:0:
164,280,36811,1,8,0:0:0:0:
300,280,36936,2,0,P|348:240|300:192,1,142.500005435944,10|2,0:0|0:0,0:0:0:0:
224,192,37311,1,2,0:0:0:0:
144,192,37436,2,0,L|136:120,1,47.5,8|2,0:0|0:0,0:0:0:0:
220,112,37686,2,0,L|228:40,1,47.5,2|8,0:0|0:0,0:0:0:0:
144,64,37936,2,0,L|48:64,1,95,2|8,0:0|0:0,0:0:0:0:
272,64,38436,6,0,L|372:64,1,95,4|2,0:0|0:0,0:0:0:0:
288,64,38811,1,8,0:0:0:0:
367,64,38936,2,0,L|464:64,1,95,0|8,0:0|0:0,0:0:0:0:
272,64,39436,2,0,L|264:164,1,95,8|2,0:0|0:0,0:0:0:0:
480,156,39936,2,0,L|380:156,1,95,4|8,0:0|0:0,0:0:0:0:
148,156,40436,6,0,L|36:156,1,95,4|2,0:0|0:0,0:0:0:0:
165,156,40811,1,8,0:0:0:0:
276,156,40936,2,0,L|279:256,1,95,2|8,0:0|0:0,0:0:0:0:
144,248,41436,1,8,0:0:0:0:
372,248,41686,1,2,0:0:0:0:
144,248,41936,1,8,0:0:0:0:
200,248,42061,1,0,0:0:0:0:
248,248,42186,1,2,0:0:0:0:
476,252,42436,6,0,L|484:372,1,95,4|2,0:0|0:0,0:0:0:0:
416,348,42811,1,8,0:0:0:0:
352,348,42936,2,0,L|464:348,1,95,2|8,0:0|0:0,0:0:0:0:
220,344,43436,2,0,L|120:344,1,95,8|2,0:0|0:0,0:0:0:0:
67,344,43811,1,8,0:0:0:0:
125,344,43936,2,0,L|227:344,1,95,2|8,0:0|0:0,0:0:0:0:
452,192,44436,6,0,L|344:192,1,95,4|2,0:0|0:0,0:0:0:0:
296,192,44811,1,8,0:0:0:0:
160,192,44936,2,0,P|112:152|160:104,1,142.500005435944,8|8,0:0|0:0,0:0:0:0:
220,104,45311,1,2,0:0:0:0:
156,104,45436,2,0,L|100:104,1,47.5,8|2,0:0|0:0,0:0:0:0:
60,24,45686,2,0,L|116:24,1,47.5,2|8,0:0|0:0,0:0:0:0:
244,24,45936,2,0,L|248:124,1,95,2|8,0:0|0:0,0:0:0:0:
20,112,46436,6,0,L|120:112,1,95,4|2,0:0|0:0,0:0:0:0:
176,112,46811,1,8,0:0:0:0:
115,112,46936,1,2,0:0:0:0:
328,112,47186,1,8,0:0:0:0:
100,112,47436,1,4,0:0:0:0:
44,158,47561,1,2,0:0:0:0:
41,231,47686,1,2,0:0:0:0:
92,282,47811,1,8,0:0:0:0:
164,284,47936,2,0,L|48:284,1,95,2|8,0:0|0:0,0:0:0:0:
164,284,48311,1,2,0:0:0:0:
276,284,48436,6,0,L|400:284,1,118.75,6|8,0:0|0:0,0:0:0:0:
248,192,48811,2,0,L|124:192,1,118.75,4|8,0:0|0:0,0:0:0:0:
228,108,49311,1,2,0:0:0:0:
140,108,49436,2,0,L|128:36,2,47.5,4|2|8,0:0|0:0|0:0,0:0:0:0:
376,108,49936,2,0,L|380:12,1,95,8|8,0:0|0:0,0:0:0:0:
132,16,50436,6,0,L|20:16,1,104.500003189087,4|2,0:0|0:0,0:0:0:0:
100,16,50811,1,8,0:0:0:0:
172,16,50936,1,0,0:0:0:0:
24,16,51186,1,8,0:0:0:0:
252,16,51436,2,0,L|260:124,1,104.500003189087,8|2,0:0|0:0,0:0:0:0:
184,120,51811,1,8,0:0:0:0:
108,120,51936,1,4,0:0:0:0:
328,120,52186,1,10,0:0:0:0:
80,116,52436,6,0,L|72:224,1,104.500003189087,4|2,0:0|0:0,0:0:0:0:
140,220,52811,1,8,0:0:0:0:
272,220,52936,2,0,L|280:284,2,52.2500015945435,8|2|8,0:0|0:2|0:0,0:0:0:0:
40,296,53436,2,0,L|148:296,1,104.500003189087,8|2,0:0|0:0,0:0:0:0:
206,296,53811,1,8,0:0:0:0:
268,296,53936,2,0,L|156:296,1,104.500003189087,4|2,0:0|0:0,0:0:0:0:
412,296,54436,6,0,L|416:192,1,104.500003189087,4|2,0:0|0:0,0:0:0:0:
340,192,54811,1,8,0:0:0:0:
264,192,54936,2,0,L|256:80,1,104.500003189087,2|8,0:0|0:0,0:0:0:0:
480,96,55436,2,0,L|372:96,1,104.500003189087,8|2,0:0|0:0,0:0:0:0:
140,96,55936,1,2,0:0:0:0:
189,96,56061,1,0,0:0:0:0:
239,96,56186,1,8,0:0:0:0:
492,16,56436,6,0,L|388:16,1,104.500003189087,4|2,0:0|0:0,0:0:0:0:
281,16,56811,1,8,0:0:0:0:
176,16,56936,2,0,L|172:128,1,104.500003189087,2|8,0:0|0:0,0:0:0:0:
312,116,57436,1,8,0:0:0:0:
76,116,57686,2,0,L|72:172,1,52.2500015945435,2|8,0:0|0:0,0:0:0:0:
156,164,57936,2,0,L|160:220,1,52.2500015945435,2|8,0:0|0:0,0:0:0:0:
72,248,58186,2,0,L|68:308,1,52.2500015945435,8|2,0:0|0:0,0:0:0:0:
212,296,58436,6,0,L|332:296,1,104.500003189087,4|2,0:0|0:0,0:0:0:0:
368,296,58811,1,8,0:0:0:0:
420,296,58936,1,0,0:0:0:0:
268,296,59186,1,8,0:0:0:0:
496,296,59436,2,0,L|504:192,1,104.500003189087,8|2,0:0|0:0,0:0:0:0:
276,192,59936,1,4,0:0:0:0:
226,192,60061,1,0,0:0:0:0:
177,192,60186,1,8,0:0:0:0:
416,192,60436,6,0,L|408:84,1,104.500003189087,4|2,0:0|0:0,0:0:0:0:
160,92,60936,2,0,L|152:32,2,52.2500015945435,8|2|8,0:0|0:2|0:0,0:0:0:0:
428,88,61436,1,8,0:0:0:0:
476,130,61561,1,2,0:0:0:0:
477,194,61686,1,2,0:0:0:0:
431,238,61811,1,8,0:0:0:0:
288,240,61936,2,0,L|180:240,1,104.500003189087,4|8,0:0|0:0,0:0:0:0:
432,300,62436,6,0,L|288:240,2,156.750004783631,6|8|2,0:0|0:0|0:0,0:0:0:0:
164,248,63436,1,4,0:0:0:0:
123,272,63561,1,0,0:0:0:0:
121,319,63686,1,0,0:0:0:0:
159,347,63811,1,8,0:0:0:0:
224,348,63936,2,0,L|112:348,1,104.500003189087,2|2,0:0|0:0,0:0:0:0:
364,348,64436,6,0,L|368:280,1,52.2500015945435,4|2,0:0|0:0,0:0:0:0:
284,296,64686,2,0,P|216:232|284:168,1,209.000006378174,8|2,0:0|0:0,0:0:0:0:
356,168,65311,1,2,0:0:0:0:
220,168,65436,2,0,L|216:112,1,52.2500015945435,4|8,0:0|0:0,0:0:0:0:
352,64,65811,1,2,0:0:0:0:
420,64,65936,1,8,0:0:0:0:
420,64,66061,1,2,0:0:0:0:
352,64,66186,1,8,0:0:0:0:
128,64,66436,6,0,L|136:168,1,95,4|2,0:0|0:0,0:0:0:0:
216,160,66811,1,8,0:0:0:0:
300,160,66936,2,0,L|396:160,1,95,2|8,0:0|0:0,0:0:0:0:
168,152,67436,2,0,L|72:152,1,95,8|2,0:0|0:0,0:0:0:0:
136,152,67811,1,8,0:0:0:0:
200,152,67936,2,0,L|100:152,1,95,2|8,0:0|0:0,0:0:0:0:
324,232,68436,6,0,L|468:232,2,142.5,4|8|2,0:0|0:0|0:0,0:0:0:0:
260,232,69311,1,2,0:0:0:0:
120,232,69436,2,0,P|76:280|120:332,1,142.5,8|4,0:0|0:0,0:0:0:0:
304,332,70186,2,0,L|308:264,1,47.5,8|0,0:0|0:0,0:0:0:0:
172,192,70436,6,0,L|60:192,1,95,4|8,0:0|0:0,0:0:0:0:
156,112,70811,2,0,L|252:112,1,95,2|2,0:0|0:0,0:0:0:0:
184,112,71186,1,4,0:2:0:0:
416,112,71436,1,4,0:0:0:0:
236,112,71936,2,0,L|380:112,1,142.5,4|0,0:0|0:0,0:0:0:0:
236,32,72436,6,0,L|88:32,1,142.5,4|8,0:0|0:0,0:0:0:0:
264,32,73186,2,0,L|268:88,1,47.5,8|0,0:0|0:0,0:0:0:0:
184,76,73436,1,8,0:0:0:0:
136,102,73561,1,2,0:0:0:0:
122,155,73686,1,2,0:0:0:0:
152,201,73811,1,8,0:0:0:0:
284,212,74061,1,0,0:0:0:0:
332,212,74186,1,8,0:0:0:0:
116,288,74436,6,0,L|52:288,2,47.5,8|2|2,0:0|0:0|0:0,0:0:0:0:
196,288,74811,2,0,P|252:224|196:172,1,178.125,8|8,0:0|0:0,0:0:0:0:
124,172,75311,1,0,0:0:0:0:
264,172,75436,1,4,0:0:0:0:
328,172,75561,1,2,0:0:0:0:
328,108,75686,1,2,0:0:0:0:
264,108,75811,1,4,0:0:0:0:
32,108,76061,2,0,L|24:164,1,47.5,2|8,0:0|0:0,0:0:0:0:
92,192,76311,1,8,0:0:0:0:
228,192,76436,6,0,L|332:192,1,95,4|0,0:0|0:0,0:0:0:0:
376,192,76811,1,8,0:0:0:0:
323,192,76936,2,0,L|212:192,1,95,0|8,0:0|0:0,0:0:0:0:
444,192,77436,2,0,L|452:288,1,95,8|0,0:0|0:0,0:0:0:0:
376,288,77811,1,8,0:0:0:0:
451,286,77936,1,2,0:0:0:0:
320,288,78186,1,8,0:0:0:0:
212,288,78311,1,2,0:0:0:0:
104,288,78436,6,0,L|100:180,1,95,4|2,0:0|0:0,0:0:0:0:
180,200,78811,1,8,0:0:0:0:
88,200,78936,1,0,0:0:0:0:
25,164,79061,1,2,0:0:0:0:
25,92,79186,1,0,0:0:0:0:
86,56,79311,1,2,0:0:0:0:
232,56,79436,5,4,0:0:0:0:
112,56,79811,1,4,0:0:0:0:
424,56,80186,1,4,0:0:0:0:
256,56,80936,5,4,0:0:0:0:
256,192,81186,12,0,84436,0:0:0:0:
