osu file format v14

[General]
AudioFilename: audio.mp3
AudioLeadIn: 0
PreviewTime: 34373
Countdown: 0
SampleSet: None
StackLeniency: 1
Mode: 2
LetterboxInBreaks: 0
WidescreenStoryboard: 1

[Editor]
DistanceSpacing: 1.2
BeatDivisor: 8
GridSize: 4
TimelineZoom: 1.4

[Metadata]
Title:Touhou Hisouten
TitleUnicode:東方緋想天
Artist:Akiyama Uni
ArtistUnicode:あきやまうに
Creator:JBHyperion
Version:Overdose
Source:東方緋想天 ~ Scarlet Weather Rhapsody
Tags:東方Project Touhou Eastern Perception of Heaven U2 JUN oiko N-tone 荒井英理也 Arai Eriya Zenjinrui no Tengakuroku Celestial Music Record All Humankind ORIGINAL SOUND TRACK ARRANGE DISC Team Shanghai Alice Twilight Frontier Reitaisai 5 Absolute Zero AZ -Hex- Daletto chickenbible Magic Girl Sorcerer Sinnoh JBH
BeatmapID:2021393
BeatmapSetID:965677

[Difficulty]
HPDrainRate:7
CircleSize:3
OverallDifficulty:9
ApproachRate:9
SliderMultiplier:2.2
SliderTickRate:2

[Events]
//Background and Video events
0,0,"tenshiiiiii.jpg",0,0
//Break Periods
//Storyboard Layer 0 (Background)
//Storyboard Layer 1 (Fail)
//Storyboard Layer 2 (Pass)
//Storyboard Layer 3 (Foreground)
//Storyboard Sound Samples

[TimingPoints]
1418,697.674418604651,4,2,1,60,1,0
1592,-100,4,2,1,50,0,0
6301,-100,4,2,1,50,0,0
6999,-66.6666666666667,4,2,1,50,0,0
7348,-100,4,2,1,50,0,0
8045,-100,4,2,1,50,0,0
8394,789.473684210526,4,2,1,50,1,0
8394,-57.1428571428571,4,2,1,50,0,0
8788,-100,4,2,1,20,0,0
8986,934.579439252336,4,2,1,40,1,0
8986,-80,4,2,1,40,0,0
9453,-100,4,2,1,20,0,0
9686,1500,4,2,1,50,1,0
10061,-100,4,3,0,40,0,0
10436,500,4,3,99,80,1,0
10561,-100,4,3,1,50,0,0
14436,-100,4,3,1,50,0,0
16311,-100,4,3,1,70,0,0
17436,-100,4,3,1,60,0,0
18436,-66.6666666666667,4,3,1,50,0,0
18686,-100,4,3,1,50,0,0
25061,-66.6666666666667,4,3,1,50,0,0
25311,-100,4,3,1,50,0,0
25436,-100,4,3,1,60,0,0
26186,-80,4,3,1,60,0,0
26436,-57.1428571428571,4,3,1,50,0,0
26686,-100,4,3,1,50,0,0
32436,-100,4,3,1,60,0,0
33311,-100,4,3,2,70,0,0
33936,-80,4,3,2,70,0,0
34436,-50,4,3,99,100,0,1
34561,-50,4,3,2,70,0,1
34686,-66.6666666666667,4,3,2,70,0,1
40436,-66.6666666666667,4,3,2,80,0,1
41436,-66.6666666666667,4,3,2,75,0,1
42436,-66.6666666666667,4,3,2,70,0,1
48311,-66.6666666666667,4,3,2,80,0,1
48436,-66.6666666666667,4,3,2,70,0,1
49436,-50,4,3,2,50,0,1
49686,-50,4,3,2,60,0,1
49936,-50,4,3,2,70,0,1
50186,-50,4,3,2,80,0,0
50436,-66.6666666666667,4,3,99,100,0,1
50561,-66.6666666666667,4,3,2,80,0,1
62186,-57.1428571428571,4,3,2,80,0,1
62686,-66.6666666666667,4,3,2,80,0,1
64686,-57.1428571428571,4,3,2,80,0,1
65061,-66.6666666666667,4,3,2,80,0,1
65811,-66.6666666666667,4,3,2,60,0,1
66436,-100,4,3,99,80,0,0
66561,-100,4,3,1,60,0,0
69936,-80,4,3,1,60,0,0
70061,-100,4,3,1,60,0,0
70436,-66.6666666666667,4,3,99,80,0,0
70561,-66.6666666666667,4,3,1,60,0,0
71436,-80,4,3,99,100,0,0
71936,-57.1428571428571,4,3,99,100,0,0
72436,-100,4,3,2,70,0,1
72686,-100,4,3,2,70,0,0
73436,-66.6666666666667,4,3,2,70,0,0
73686,-100,4,3,2,70,0,0
75436,-66.6666666666667,4,3,2,70,0,0
76436,-100,4,3,2,70,0,0
78186,-66.6666666666667,4,3,2,70,0,0
78436,-80,4,3,2,70,0,0
79436,-66.6666666666667,4,3,2,70,0,0
79811,-66.6666666666667,4,2,1,60,0,0
79936,-66.6666666666667,4,3,1,90,0,0
80186,-66.6666666666667,4,3,1,100,0,0
80436,-100,4,3,1,40,0,0
80936,-66.6666666666667,4,3,99,100,0,1
81186,-66.6666666666667,4,2,1,60,0,0
81436,-66.6666666666667,4,2,1,52,0,0
81936,-66.6666666666667,4,2,1,44,0,0
82436,-66.6666666666667,4,2,1,36,0,0
82936,-66.6666666666667,4,2,1,28,0,0
83436,-66.6666666666667,4,2,1,20,0,0
83936,-100,4,2,1,17,0,0
84061,-100,4,2,1,14,0,0
84186,-100,4,2,1,11,0,0
84311,-100,4,2,1,8,0,0
84436,-100,4,2,1,5,0,0

[Colours]
Combo1 : 220,150,220
Combo2 : 120,120,200
Combo3 : 75,175,200
Combo4 : 35,190,90
Combo5 : 240,240,90
Combo6 : 255,125,70

[HitObjects]
392,196,1069,6,0,L|396:132,1,55,0|0,0:0|0:0,0:0:0:0:
228,140,1418,2,0,L|112:140,1,110,2|0,0:0|0:0,0:0:0:0:
240,44,1941,2,0,L|352:44,1,110,8|0,0:0|0:0,0:0:0:0:
240,44,2464,2,0,L|300:44,1,55,8|0,0:0|0:0,0:0:0:0:
128,44,2813,6,0,P|104:92|128:140,1,110,2|0,0:0|0:0,0:0:0:0:
236,140,3336,2,0,L|348:140,1,110,8|0,0:0|0:0,0:0:0:0:
180,224,3859,2,0,L|124:224,1,55,8|0,0:0|0:0,0:0:0:0:
292,224,4208,6,0,B|348:224|348:224|288:224,1,110,2|0,0:0|0:0,0:0:0:0:
180,224,4731,2,0,L|116:224,2,55,8|0|0,0:0|0:0|0:0,0:0:0:0:
348,300,5255,2,0,L|292:300,1,55,2|0,0:0|0:0,0:0:0:0:
128,300,5604,5,8,0:0:0:0:
49,262,5778,1,0,0:0:0:0:
45,175,5952,1,0,0:0:0:0:
120,131,6127,1,0,0:0:0:0:
284,132,6301,1,2,0:0:0:0:
136,132,6650,2,0,L|132:72,1,55,8|0,0:0|0:0,0:0:0:0:
300,76,6999,6,0,P|372:104|404:180,1,165.000006294251,2|0,0:0|0:0,0:0:0:0:
336,180,7522,1,8,0:0:0:0:
140,180,8045,2,0,L|212:180,1,55,8|0,0:0|0:0,0:0:0:0:
368,180,8394,6,0,P|436:232|368:280,1,192.500001835823,2|0,0:0|0:0,0:0:0:0:
244,280,8986,2,0,L|100:280,1,137.5,2|0,0:0|0:0,0:0:0:0:
264,280,9686,6,0,L|264:228,1,41.25,10|0,0:0|0:0,0:0:0:0:
196,216,10061,1,4,0:3:0:0:
264,216,10154,1,0,0:0:0:0:
332,216,10248,1,0,0:0:0:0:
400,216,10342,1,0,0:0:0:0:
468,216,10436,6,0,L|476:104,1,110,4|0,0:0|0:0,0:0:0:0:
392,104,10811,1,8,0:0:0:0:
260,104,10936,2,0,L|256:40,1,55,2|0,0:0|0:0,0:0:0:0:
352,24,11186,2,0,L|408:24,1,55,8|0,0:0|0:0,0:0:0:0:
260,104,11436,5,8,0:0:0:0:
276,196,11561,1,0,0:0:0:0:
344,252,11686,1,0,0:0:0:0:
432,256,11811,1,8,0:0:0:0:
308,252,11936,2,0,L|300:316,1,55,2|0,0:0|0:0,0:0:0:0:
400,308,12186,2,0,L|392:372,1,55,8|0,0:0|0:0,0:0:0:0:
260,360,12436,6,0,L|148:360,1,110,4|0,0:0|0:0,0:0:0:0:
228,360,12811,1,8,0:0:0:0:
360,308,12936,2,0,L|304:308,1,55,2|2,0:0|0:0,0:0:0:0:
172,248,13186,2,0,L|232:248,1,55,8|2,0:0|0:0,0:0:0:0:
76,248,13436,5,8,0:0:0:0:
20,211,13561,1,0,0:0:0:0:
18,145,13686,1,2,0:0:0:0:
70,104,13811,1,8,0:0:0:0:
236,104,13936,1,2,0:0:0:0:
165,133,14061,1,2,0:0:0:0:
160,209,14186,1,8,0:0:0:0:
227,248,14311,1,2,0:0:0:0:
364,248,14436,6,0,L|484:248,1,110,4|2,0:0|0:0,0:0:0:0:
404,248,14811,1,8,0:0:0:0:
280,248,14936,2,0,L|284:192,1,55,2|0,0:0|0:0,0:0:0:0:
396,168,15186,2,0,L|388:108,1,55,8|0,0:0|0:0,0:0:0:0:
252,112,15436,6,0,L|196:112,2,55,8|2|2,0:0|0:0|0:0,0:0:0:0:
388,113,15811,1,8,0:0:0:0:
456,112,15936,2,0,L|452:56,1,55
317,56,16186,1,10,0:0:0:0:
180,56,16311,1,2,0:0:0:0:
120,56,16373,1,2,0:0:0:0:
60,56,16436,6,0,B|0:56|0:56|68:56,1,110,8|2,0:0|0:0,0:0:0:0:
208,144,16811,2,0,B|256:144|256:144|192:144,1,110,8|2,0:0|0:0,0:0:0:0:
280,228,17186,2,0,L|220:228,1,55,0|2,0:0|0:0,0:0:0:0:
84,228,17436,6,0,L|24:228,1,55,4|0,0:0|0:0,0:0:0:0:
164,308,17686,2,0,L|219:308,1,55,2|2,0:0|0:0,0:0:0:0:
88,308,17936,2,0,L|152:308,1,55,8|2,0:0|0:0,0:0:0:0:
292,308,18186,2,0,L|232:308,1,55,2|0,0:0|0:0,0:0:0:0:
56,308,18436,6,0,P|8:256|56:188,1,165.000006294251,6|2,0:0|0:0,0:0:0:0:
156,188,18811,1,8,0:0:0:0:
300,188,18936,2,0,L|296:124,1,55,0|2,0:0|0:0,0:0:0:0:
184,100,19186,2,0,L|128:100,1,55,10|2,0:0|0:0,0:0:0:0:
272,40,19436,6,0,L|328:40,1,55,8|0,0:0|0:0,0:0:0:0:
204,40,19686,2,0,L|260:40,1,55,2|8,0:0|0:0,0:0:0:0:
392,40,19936,1,2,0:0:0:0:
248,100,20061,2,0,L|192:100,2,55,0|2|2,0:0|0:0|0:0,0:0:0:0:
396,100,20436,6,0,L|284:100,1,110,4|2,0:0|0:0,0:0:0:0:
208,100,20811,1,8,0:0:0:0:
348,192,20936,2,0,L|288:192,1,55,2|0,0:0|0:0,0:0:0:0:
172,192,21186,2,0,L|232:192,1,55,8|2,0:0|0:0,0:0:0:0:
372,280,21436,5,8,0:0:0:0:
276,280,21561,1,0,0:0:0:0:
372,280,21686,1,2,0:0:0:0:
232,280,21811,1,2,0:0:0:0:
136,280,21936,1,8,0:0:0:0:
276,280,22061,1,2,0:0:0:0:
400,280,22186,2,0,L|404:208,1,55,0|2,0:0|0:0,0:0:0:0:
256,192,22436,6,0,L|136:192,1,110,4|2,0:0|0:0,0:0:0:0:
232,192,22811,1,8,0:0:0:0:
320,192,22936,1,0,0:0:0:0:
220,192,23061,1,2,0:0:0:0:
360,192,23186,2,0,L|364:128,1,55,8|2,0:0|0:0,0:0:0:0:
216,136,23436,5,8,0:0:0:0:
140,78,23561,1,0,0:0:0:0:
215,19,23686,1,2,0:0:0:0:
360,20,23811,1,2,0:0:0:0:
228,20,23936,2,0,L|284:20,1,55,8|0,0:0|0:0,0:0:0:0:
140,78,24186,2,0,L|81:79,1,55,2|2,0:0|0:0,0:0:0:0:
228,104,24436,6,0,L|340:104,1,110,4|2,0:0|0:0,0:0:0:0:
192,192,24811,2,0,L|256:192,1,55,8|0,0:0|0:0,0:0:0:0:
400,192,25061,2,0,L|316:192,2,82.5000031471254,2|0|2,0:0|0:0|0:0,0:0:0:0:
260,276,25436,6,0,L|196:276,1,55,8|2,0:0|0:0,0:0:0:0:
344,276,25686,2,0,L|288:276,1,55,2|2,0:0|0:0,0:0:0:0:
156,276,25936,2,0,L|152:356,1,55,8|8,0:0|0:0,0:0:0:0:
252,352,26186,2,0,L|356:352,1,103.125,2|0,0:0|0:0,0:0:0:0:
252,352,26436,6,0,L|60:352,1,192.500001835823,6|2,0:0|0:0,0:0:0:0:
148,352,26811,1,8,0:0:0:0:
296,252,26936,2,0,L|240:252,1,55,0|2,0:0|0:0,0:0:0:0:
376,252,27186,2,0,L|320:252,1,55,2|0,0:0|0:0,0:0:0:0:
176,252,27436,6,0,L|116:252,1,55,8|0,0:0|0:0,0:0:0:0:
264,168,27686,2,0,L|320:168,1,55,2|2,0:0|0:0,0:0:0:0:
176,168,27936,1,8,0:0:0:0:
324,84,28061,1,0,0:0:0:0:
412,84,28186,2,0,L|404:20,1,55,2|2,0:0|0:0,0:0:0:0:
252,28,28436,6,0,L|364:28,1,110,4|2,0:0|0:0,0:0:0:0:
440,28,28811,1,8,0:0:0:0:
300,128,28936,1,0,0:0:0:0:
448,128,29061,1,2,0:0:0:0:
336,128,29186,2,0,L|276:128,1,55,2|2,0:0|0:0,0:0:0:0:
132,128,29436,6,0,L|188:128,1,55,8|0,0:0|0:0,0:0:0:0:
328,28,29686,2,0,L|272:28,1,55,2|2,0:0|0:0,0:0:0:0:
140,28,29936,1,2,0:0:0:0:
288,28,30061,1,8,0:0:0:0:
376,28,30186,2,0,L|380:88,1,55,0|2,0:0|0:0,0:0:0:0:
236,84,30436,6,0,L|232:216,1,110,4|2,0:0|0:0,0:0:0:0:
320,192,30811,1,8,0:0:0:0:
220,192,30936,1,0,0:0:0:0:
352,192,31061,1,2,0:0:0:0:
200,192,31186,2,0,L|136:192,1,55,8|2,0:0|0:0,0:0:0:0:
292,288,31436,5,8,0:0:0:0:
216,288,31561,1,0,0:0:0:0:
140,288,31686,1,2,0:0:0:0:
280,288,31811,2,0,L|284:360,1,55,2|0,0:0|0:0,0:0:0:0:
132,344,32061,2,0,L|188:344,1,55,8|0,0:0|0:0,0:0:0:0:
264,344,32311,1,2,0:0:0:0:
112,344,32436,6,0,L|108:232,1,110,6|2,0:0|0:0,0:0:0:0:
188,192,32811,1,8,0:0:0:0:
324,192,32936,2,0,L|328:136,1,55,0|2,0:0|0:0,0:0:0:0:
188,192,33186,1,8,0:0:0:0:
328,137,33311,1,2,0:0:0:0:
403,136,33373,1,2,0:0:0:0:
480,136,33436,6,0,L|484:72,1,55,8|2,0:0|0:0,0:0:0:0:
352,52,33686,1,0,0:0:0:0:
220,52,33811,1,2,0:0:0:0:
372,52,33936,2,0,L|376:120,1,68.75,8|2,0:0|0:0,0:0:0:0:
220,52,34186,2,0,L|152:52,1,68.75,6|0,0:0|0:0,0:0:0:0:
332,52,34436,6,0,P|408:104|332:168,1,220,4|2,2:3|0:0,0:0:0:0:
200,168,34811,1,8,0:0:0:0:
64,168,34936,2,0,L|60:264,1,82.5000031471254,2|2,0:0|0:0,0:0:0:0:
192,252,35186,2,0,L|108:252,1,82.5000031471254,8|0,0:0|0:0,0:0:0:0:
260,252,35436,5,8,0:0:0:0:
332,208,35561,1,0,0:0:0:0:
328,128,35686,1,2,0:0:0:0:
256,92,35811,1,8,0:0:0:0:
112,92,35936,2,0,L|116:8,1,82.5000031471254,2|0,0:0|0:0,0:0:0:0:
264,8,36186,2,0,L|348:8,1,82.5000031471254,10|0,0:0|0:0,0:0:0:0:
192,92,36436,6,0,B|104:92|104:92|196:92,1,165.000006294251,4|2,0:0|0:0,0:0:0:0:
288,92,36811,1,8,0:0:0:0:
140,192,36936,1,10,0:0:0:0:
88,192,37019,1,2,0:2:0:0:
36,192,37102,1,2,0:2:0:0:
113,288,37186,2,0,L|197:288,1,82.5000031471254,2|2,0:0|0:0,0:0:0:0:
352,276,37436,6,0,L|440:276,1,82.5000031471254,8|2,0:0|0:0,0:0:0:0:
324,192,37686,2,0,L|408:192,1,82.5000031471254,2|8,0:0|0:0,0:0:0:0:
248,192,37936,2,0,L|244:276,1,82.5000031471254,2|0,0:0|0:0,0:0:0:0:
390,192,38186,2,0,L|478:192,1,82.5000031471254,8|0,0:0|0:0,0:0:0:0:
308,192,38436,6,0,B|224:192|224:192|224:108,1,165.000006294251,4|2,0:0|0:0,0:0:0:0:
332,112,38811,1,8,0:0:0:0:
184,112,38936,2,0,L|180:28,1,82.5000031471254,0|2,0:0|0:0,0:0:0:0:
328,28,39186,2,0,L|240:28,1,82.5000031471254,8|2,0:0|0:0,0:0:0:0:
396,28,39436,5,8,0:0:0:0:
388,112,39561,1,0,0:0:0:0:
332,176,39686,1,2,0:0:0:0:
245,191,39811,1,8,0:0:0:0:
88,192,39936,2,0,L|176:192,1,82.5000031471254,4|0,0:0|0:0,0:0:0:0:
332,176,40186,2,0,L|244:176,1,82.5000031471254,8|0,0:0|0:0,0:0:0:0:
76,192,40436,6,0,P|20:240|76:288,1,165.000006294251,4|2,0:0|0:0,0:0:0:0:
180,288,40811,1,8,0:0:0:0:
336,288,40936,2,0,L|259:332,1,82.5000031471254,2|2,0:0|0:0,0:0:0:0:
153,246,41186,2,0,L|76:290,1,82.5000031471254,8|0,0:0|0:0,0:0:0:0:
240,244,41436,6,0,L|232:144,1,82.5000031471254,8|0,0:0|0:0,0:0:0:0:
388,164,41686,2,0,L|380:60,1,82.5000031471254,2|0,0:0|0:0,0:0:0:0:
224,80,41936,1,8,0:0:0:0:
356,80,42061,1,0,0:0:0:0:
488,80,42186,1,2,0:0:0:0:
200,80,42436,6,0,L|192:248,1,165.000006294251,4|2,0:0|0:0,0:0:0:0:
300,244,42811,1,8,0:0:0:0:
152,244,42936,2,0,L|64:244,1,82.5000031471254,2|2,0:0|0:0,0:0:0:0:
220,244,43186,2,0,L|224:344,1,82.5000031471254,8|2,0:0|0:0,0:0:0:0:
372,324,43436,6,0,L|288:324,1,82.5000031471254,8|2,0:0|0:0,0:0:0:0:
400,244,43686,2,0,L|316:244,1,82.5000031471254,2|8,0:0|0:0,0:0:0:0:
168,244,43936,2,0,L|160:160,1,82.5000031471254,2|0,0:0|0:0,0:0:0:0:
308,160,44186,2,0,L|316:76,1,82.5000031471254,8|0,0:0|0:0,0:0:0:0:
152,76,44436,6,0,B|68:76|68:76|68:160,1,165.000006294251,4|2,0:0|0:0,0:0:0:0:
176,156,44811,1,8,0:0:0:0:
340,156,44936,2,0,L|396:156,2,55.0000020980836,8|0|0,0:0|0:0|0:0,0:0:0:0:
228,156,45186,2,0,L|224:256,1,82.5000031471254,8|2,0:0|0:0,0:0:0:0:
384,236,45436,6,0,L|296:236,1,82.5000031471254,8|2,0:0|0:0,0:0:0:0:
456,320,45686,2,0,L|372:320,1,82.5000031471254,2|8,0:0|0:0,0:0:0:0:
220,320,45936,2,0,L|224:236,1,82.5000031471254,2|0,0:0|0:0,0:0:0:0:
392,148,46186,2,0,L|480:148,1,82.5000031471254,8|0,0:0|0:0,0:0:0:0:
308,148,46436,6,0,L|140:148,1,165.000006294251,4|2,0:0|0:0,0:0:0:0:
252,148,46811,1,8,0:0:0:0:
104,148,46936,2,0,L|100:64,1,82.5000031471254,2|0,0:0|0:0,0:0:0:0:
252,52,47186,2,0,L|340:52,1,82.5000031471254,8|2,0:0|0:0,0:0:0:0:
164,52,47436,5,4,0:0:0:0:
63,69,47561,1,2,0:0:0:0:
60,170,47686,1,2,0:0:0:0:
159,194,47811,1,8,0:0:0:0:
316,192,47936,2,0,B|316:276|316:276|232:276,1,165.000006294251,2|8,0:0|0:0,0:0:0:0:
120,276,48311,1,2,0:0:0:0:
208,276,48373,1,2,0:0:0:0:
296,276,48436,6,0,L|463:276,1,165.000006294251,6|8,0:0|0:0,0:0:0:0:
295,192,48811,2,0,L|128:192,1,165.000006294251,4|8,0:0|0:0,0:0:0:0:
239,192,49186,2,0,L|243:108,1,82.5000031471254,0|2,0:0|0:0,0:0:0:0:
75,112,49436,5,4,0:0:0:0:
183,112,49561,1,2,0:0:0:0:
19,112,49686,1,8,0:0:0:0:
127,112,49811,1,2,0:0:0:0:
291,28,49936,2,0,L|403:28,1,110,8|2,0:0|0:0,0:0:0:0:
219,28,50186,2,0,L|107:28,1,110,8|8,0:0|0:0,0:0:0:0:
292,28,50436,5,4,0:0:0:0:
284,124,50561,1,0,0:0:0:0:
216,200,50686,1,2,0:0:0:0:
117,215,50811,1,8,0:0:0:0:
272,200,50936,2,0,L|372:200,1,82.5000031471254,0|2,0:0|0:0,0:0:0:0:
200,200,51186,2,0,L|196:300,1,82.5000031471254,8|0,0:0|0:0,0:0:0:0:
44,284,51436,6,0,L|136:284,1,82.5000031471254,8|2,0:0|0:0,0:0:0:0:
16,192,51686,2,0,L|104:192,1,82.5000031471254,2|8,0:0|0:0,0:0:0:0:
252,192,51936,2,0,L|256:280,1,82.5000031471254,4|0,0:0|0:0,0:0:0:0:
100,284,52186,2,0,L|188:284,1,82.5000031471254,10|0,0:0|0:0,0:0:0:0:
352,284,52436,6,0,B|424:248|424:248|352:204,1,165.000006294251,4|2,0:0|0:0,0:0:0:0:
244,204,52811,1,8,0:0:0:0:
412,204,52936,1,8,0:0:0:0:
408,124,53019,1,0,0:0:0:0:
342,80,53102,1,0,0:0:0:0:
260,80,53186,2,0,L|356:80,1,82.5000031471254,8|0,0:0|0:0,0:0:0:0:
184,80,53436,6,0,L|96:80,1,82.5000031471254,8|2,0:0|0:0,0:0:0:0:
252,192,53686,2,0,L|336:192,1,82.5000031471254,2|8,0:0|0:0,0:0:0:0:
176,192,53936,2,0,L|184:100,1,82.5000031471254,4|0,0:0|0:0,0:0:0:0:
334,192,54186,2,0,L|342:276,1,82.5000031471254,2|0,0:0|0:0,0:0:0:0:
500,192,54436,6,0,L|416:192,1,82.5000031471254,4|0,0:0|0:0,0:0:0:0:
316,192,54686,1,2,0:0:0:0:
416,192,54811,1,8,0:0:0:0:
264,192,54936,2,0,L|256:284,1,82.5000031471254,2|0,0:0|0:0,0:0:0:0:
408,276,55186,2,0,L|316:276,1,82.5000031471254,8|0,0:0|0:0,0:0:0:0:
160,276,55436,5,8,0:0:0:0:
260,276,55561,1,0,0:0:0:0:
144,276,55686,1,2,0:0:0:0:
244,276,55811,1,8,0:0:0:0:
400,276,55936,2,0,L|404:184,1,82.5000031471254,2|0,0:0|0:0,0:0:0:0:
248,188,56186,2,0,L|148:188,1,82.5000031471254,8|0,0:0|0:0,0:0:0:0:
336,104,56436,6,0,L|168:104,1,165.000006294251,4|2,0:0|0:0,0:0:0:0:
72,104,56811,1,8,0:0:0:0:
220,24,56936,2,0,L|120:24,1,82.5000031471254,2|2,0:0|0:0,0:0:0:0:
296,24,57186,2,0,L|380:24,1,82.5000031471254,8|0,0:0|0:0,0:0:0:0:
220,24,57436,6,0,L|216:120,1,82.5000031471254,8|0,0:0|0:0,0:0:0:0:
384,108,57686,1,2,0:0:0:0:
252,108,57811,1,8,0:0:0:0:
120,108,57936,1,2,0:0:0:0:
276,108,58061,1,8,0:0:0:0:
112,108,58186,2,0,L|28:108,1,82.5000031471254,8|2,0:0|0:0,0:0:0:0:
196,192,58436,6,0,L|364:192,1,165.000006294251,4|2,0:0|0:0,0:0:0:0:
260,192,58811,1,8,0:0:0:0:
108,192,58936,2,0,L|100:284,1,82.5000031471254,0|2,0:0|0:0,0:0:0:0:
256,276,59186,2,0,L|348:276,1,82.5000031471254,8|0,0:0|0:0,0:0:0:0:
184,352,59436,6,0,L|268:352,1,82.5000031471254,8|2,0:0|0:0,0:0:0:0:
376,352,59686,2,0,L|280:352,1,82.5000031471254,2|8,0:0|0:0,0:0:0:0:
136,352,59936,2,0,B|52:352|52:352|52:268,1,165.000006294251,4|8,0:0|0:0,0:0:0:0:
160,272,60311,1,0,0:0:0:0:
328,272,60436,6,0,P|384:232|328:184,1,165.000006294251,4|2,0:0|0:0,0:0:0:0:
220,184,60811,1,8,0:0:0:0:
388,184,60936,1,8,0:0:0:0:
444,184,61019,1,0,0:0:0:0:
496,184,61102,1,0,0:0:0:0:
376,104,61186,2,0,L|288:104,1,82.5000031471254,8|2,0:0|0:0,0:0:0:0:
460,104,61436,6,0,L|468:20,1,82.5000031471254,8|2,0:0|0:0,0:0:0:0:
308,104,61686,2,0,L|300:186,1,82.5000031471254,2|8,0:0|0:0,0:0:0:0:
132,184,61936,2,0,L|44:184,1,82.5000031471254,4|0,0:0|0:0,0:0:0:0:
216,184,62186,2,0,L|360:184,1,144.375001376867,8|0,0:0|0:0,0:0:0:0:
256,184,62436,6,0,P|192:236|256:296,1,192.500001835823,6|0,0:0|0:0,0:0:0:0:
348,296,62811,1,8,0:0:0:0:
192,296,62936,2,0,L|104:296,1,82.5000031471254,0|0,0:0|0:0,0:0:0:0:
264,192,63186,2,0,L|348:192,1,82.5000031471254,2|0,0:0|0:0,0:0:0:0:
176,192,63436,5,4,0:0:0:0:
188,108,63561,1,0,0:0:0:0:
252,52,63686,1,0,0:0:0:0:
336,40,63811,1,8,0:0:0:0:
188,108,63936,2,0,L|184:20,1,82.5000031471254,2|0,0:0|0:0,0:0:0:0:
336,40,64186,2,0,L|420:40,1,82.5000031471254,2|0,0:0|0:0,0:0:0:0:
244,108,64436,6,0,L|152:108,1,82.5000031471254,4|2,0:0|0:0,0:0:0:0:
320,108,64686,2,0,P|420:180|324:272,1,288.750002753735,8|0,0:0|0:0,0:0:0:0:
168,272,65186,2,0,L|256:272,1,82.5000031471254,2|2,0:0|0:0,0:0:0:0:
424,272,65436,6,0,L|428:372,1,82.5000031471254,4|8,0:0|0:0,0:0:0:0:
336,356,65686,1,0,0:0:0:0:
484,356,65811,1,2,0:0:0:0:
320,272,65936,2,0,L|412:272,1,82.5000031471254,8|2,0:0|0:0,0:0:0:0:
236,272,66186,1,8,0:0:0:0:
484,272,66436,6,0,L|488:160,1,110,4|2,0:0|0:0,0:0:0:0:
404,160,66811,1,8,0:0:0:0:
270,158,66936,2,0,L|262:86,1,55,2|0,0:0|0:0,0:0:0:0:
388,216,67186,2,0,L|396:144,1,55,8|0,0:0|0:0,0:0:0:0:
255,106,67436,6,0,L|199:106,1,55,8|2,0:0|0:0,0:0:0:0:
283,26,67686,2,0,L|339:26,1,55,2|8,0:0|0:0,0:0:0:0:
203,26,67936,2,0,L|199:94,1,55,2|0,0:0|0:0,0:0:0:0:
338,26,68186,2,0,L|282:26,1,55,8|0,0:0|0:0,0:0:0:0:
143,26,68436,6,0,B|83:26|83:26|147:26,1,110,4|0,0:0|0:0,0:0:0:0:
215,26,68811,1,8,0:0:0:0:
72,24,68936,2,0,L|68:136,1,110,0|2,0:0|0:0,0:0:0:0:
148,136,69311,1,2,0:0:0:0:
280,136,69436,6,0,L|284:200,1,55,8|2,0:0|0:0,0:0:0:0:
204,192,69686,1,2,0:0:0:0:
60,192,69811,1,4,0:0:0:0:
135,192,69936,2,0,L|215:192,1,68.75,0|2,0:0|0:0,0:0:0:0:
338,190,70186,2,0,L|283:190,1,55,8|0,0:0|0:0,0:0:0:0:
432,284,70436,6,0,L|348:284,2,82.5000031471254,4|2|8,0:0|0:0|0:0,0:0:0:0:
280,284,70811,2,0,L|195:284,1,82.5000031471254,2|0,0:0|0:0,0:0:0:0:
304,284,71061,1,2,0:0:0:0:
140,284,71186,1,4,0:2:0:0:
416,284,71436,5,4,0:0:0:0:
232,284,71811,1,0,2:0:0:0:
304,284,71873,1,0,0:0:0:0:
372,284,71936,2,0,P|464:224|368:116,1,288.750002753735,4|0,0:0|0:0,0:0:0:0:
304,116,72373,1,0,0:0:0:0:
371,115,72436,6,0,L|496:116,1,110,4|2,0:0|0:0,0:0:0:0:
408,116,72811,1,8,0:0:0:0:
336,116,72936,2,0,L|328:40,1,55,0|2,0:0|0:0,0:0:0:0:
192,60,73186,2,0,L|128:60,1,55,8|0,0:0|0:0,0:0:0:0:
274,60,73436,6,0,L|190:60,2,82.5000031471254,8|2|2,0:0|0:0|0:0,0:0:0:0:
136,60,73811,1,8,0:0:0:0:
136,132,73936,1,0,0:0:0:0:
208,132,74061,1,2,0:0:0:0:
76,132,74186,2,0,L|20:132,1,55,8|0,0:0|0:0,0:0:0:0:
164,208,74436,6,0,L|224:208,2,55,8|2|2,0:0|0:0|0:0,0:0:0:0:
32,208,74811,2,0,L|152:208,1,110,8|2,0:0|0:0,0:0:0:0:
288,208,75186,2,0,L|224:208,1,55,8|0,0:0|0:0,0:0:0:0:
380,208,75436,6,0,L|292:208,1,82.5000031471254,4|2,0:0|0:0,0:0:0:0:
436,208,75686,1,2,0:0:0:0:
284,208,75811,1,4,0:0:0:0:
184,208,75936,1,0,0:0:0:0:
84,208,76061,1,2,0:0:0:0:
232,208,76186,2,0,L|236:124,1,82.5000031471254,8|8,0:0|0:0,0:0:0:0:
92,128,76436,6,0,P|64:84|92:40,1,110,4|0,0:0|0:0,0:0:0:0:
176,40,76811,1,8,0:0:0:0:
312,40,76936,2,0,L|320:112,1,55,0|0,0:0|0:0,0:0:0:0:
188,128,77186,2,0,L|196:200,1,55,8|0,0:0|0:0,0:0:0:0:
348,184,77436,5,8,0:0:0:0:
279,222,77561,1,0,0:0:0:0:
278,300,77686,1,0,0:0:0:0:
346,339,77811,1,8,0:0:0:0:
204,340,77936,2,0,L|161:297,1,55,2|0,0:0|0:0,0:0:0:0:
332,224,78186,2,0,L|416:224,1,82.5000031471254,8|2,0:0|0:0,0:0:0:0:
324,224,78373,1,2,0:0:0:0:
232,224,78436,6,0,L|228:148,1,68.75,4|2,0:0|0:0,0:0:0:0:
380,100,78686,2,0,L|452:100,1,68.75,2|8,0:0|0:0,0:0:0:0:
284,44,78936,2,0,L|364:44,1,68.75,0|2,0:0|0:0,0:0:0:0:
200,44,79186,2,0,L|196:116,1,68.75,0|2,0:0|0:0,0:0:0:0:
336,112,79436,5,4,0:0:0:0:
236,112,79561,1,8,0:0:0:0:
136,112,79686,1,2,0:0:0:0:
300,196,79811,1,4,0:0:0:0:
168,196,79936,1,8,0:0:0:0:
36,196,80061,1,2,0:0:0:0:
216,196,80186,2,0,L|220:364,1,165.000006294251,4|0,0:0|0:0,0:0:0:0:
256,192,80936,5,4,0:0:0:0:
256,192,81061,12,0,84436,0:0:0:0:
