osu file format v14

[General]
AudioFilename: audio.mp3
AudioLeadIn: 0
PreviewTime: 34373
Countdown: 0
SampleSet: None
StackLeniency: 1
Mode: 2
LetterboxInBreaks: 0
WidescreenStoryboard: 1

[Editor]
DistanceSpacing: 1.3
BeatDivisor: 4
GridSize: 4
TimelineZoom: 2.899999

[Metadata]
Title:Touhou Hisouten
TitleUnicode:東方緋想天
Artist:Akiyama Uni
ArtistUnicode:あきやまうに
Creator:JBHyperion
Version:Magic Girl's Rain
Source:東方緋想天 ~ Scarlet Weather Rhapsody
Tags:東方Project Touhou Eastern Perception of Heaven U2 JUN oiko N-tone 荒井英理也 Arai Eriya Zenjinrui no Tengakuroku Celestial Music Record All Humankind ORIGINAL SOUND TRACK ARRANGE DISC Team Shanghai Alice Twilight Frontier Reitaisai 5 Absolute Zero AZ -Hex- Daletto chickenbible Magic Girl Sorcerer Sinnoh JBH
BeatmapID:2054317
BeatmapSetID:965677

[Difficulty]
HPDrainRate:6
CircleSize:4
OverallDifficulty:9
ApproachRate:9
SliderMultiplier:2.1
SliderTickRate:2

[Events]
//Background and Video events
0,0,"tenshiiiiii.jpg",0,0
//Break Periods
//Storyboard Layer 0 (Background)
//Storyboard Layer 1 (Fail)
//Storyboard Layer 2 (Pass)
//Storyboard Layer 3 (Foreground)
//Storyboard Sound Samples

[TimingPoints]
1418,697.674418604651,4,2,1,60,1,0
1592,-100,4,2,1,50,0,0
5604,-66.6666666666667,4,2,1,50,0,0
5952,-100,4,2,1,50,0,0
6999,-133.333333333333,4,2,1,50,0,0
8394,789.473684210526,4,2,1,50,1,0
8394,-100,4,2,1,50,0,0
8788,-100,4,2,1,20,0,0
8986,934.579439252336,4,2,1,40,1,0
9453,-100,4,2,1,20,0,0
9686,1500,4,2,1,50,1,0
10061,-100,4,3,0,40,0,0
10436,500,4,3,99,80,1,0
10561,-100,4,3,1,50,0,0
13436,-80,4,3,1,50,0,0
14436,-100,4,3,1,50,0,0
16311,-100,4,3,1,70,0,0
17436,-100,4,3,1,60,0,0
18436,-100,4,3,1,50,0,0
18811,-50,4,3,1,50,0,0
19061,-100,4,3,1,50,0,0
21436,-66.6666666666667,4,3,1,50,0,0
21686,-100,4,3,1,50,0,0
25436,-100,4,3,1,60,0,0
26436,-100,4,3,1,50,0,0
29436,-66.6666666666667,4,3,1,50,0,0
29686,-100,4,3,1,50,0,0
32436,-100,4,3,1,60,0,0
33311,-100,4,3,2,70,0,0
34436,-66.6666666666667,4,3,99,100,0,1
34561,-66.6666666666667,4,3,2,70,0,1
40436,-66.6666666666667,4,3,2,80,0,1
41436,-66.6666666666667,4,3,2,75,0,1
42436,-66.6666666666667,4,3,2,70,0,1
48311,-66.6666666666667,4,3,2,80,0,1
48436,-50,4,3,2,70,0,1
49436,-50,4,3,2,50,0,1
49686,-50,4,3,2,60,0,1
49936,-50,4,3,2,70,0,1
50186,-50,4,3,2,80,0,0
50436,-66.6666666666667,4,3,99,100,0,1
50561,-66.6666666666667,4,3,2,80,0,1
65811,-66.6666666666667,4,3,2,60,0,1
66436,-100,4,3,99,80,0,0
66561,-100,4,3,1,60,0,0
66936,-66.6666666666667,4,3,1,60,0,0
67436,-100,4,3,1,60,0,0
69811,-66.6666666666667,4,3,1,60,0,0
70436,-80,4,3,99,80,0,0
70561,-80,4,3,1,60,0,0
70811,-57.1428571428571,4,3,1,60,0,0
71061,-80,4,3,1,60,0,0
71436,-80,4,3,99,100,0,0
71936,-57.1428571428571,4,3,99,100,0,0
72436,-100,4,3,2,70,0,1
72686,-100,4,3,2,70,0,0
75811,-50,4,3,2,70,0,0
76186,-100,4,3,2,70,0,0
76436,-100,4,3,2,70,0,0
78186,-66.6666666666667,4,3,2,70,0,0
78436,-80,4,3,2,70,0,0
79436,-66.6666666666667,4,3,2,70,0,0
79811,-66.6666666666667,4,2,1,60,0,0
79936,-66.6666666666667,4,3,1,90,0,0
80186,-66.6666666666667,4,3,1,100,0,0
80936,-66.6666666666667,4,3,99,100,0,1
81186,-66.6666666666667,4,2,1,60,0,0
81436,-66.6666666666667,4,2,1,52,0,0
81936,-66.6666666666667,4,2,1,44,0,0
82436,-66.6666666666667,4,2,1,36,0,0
82936,-66.6666666666667,4,2,1,28,0,0
83436,-66.6666666666667,4,2,1,20,0,0
83936,-66.6666666666667,4,2,1,17,0,0
84061,-66.6666666666667,4,2,1,14,0,0
84186,-66.6666666666667,4,2,1,11,0,0
84311,-66.6666666666667,4,2,1,8,0,0
84436,-66.6666666666667,4,2,1,5,0,0

[Colours]
Combo1 : 220,150,220
Combo2 : 120,120,200
Combo3 : 75,175,200
Combo4 : 35,190,90
Combo5 : 240,240,90
Combo6 : 255,125,70

[HitObjects]
100,164,1418,6,0,L|260:164,2,157.5,2|8|8,0:0|0:0|0:0,0:0:0:0:
415,164,2813,2,0,L|256:164,2,157.5,2|8|8,0:0|0:0|0:0,0:0:0:0:
160,264,4208,6,0,L|212:168,1,105,2|0,0:0|0:0,0:0:0:0:
376,204,4731,2,0,L|296:104,1,105,8|0,0:0|0:0,0:0:0:0:
168,132,5255,2,0,L|104:112,1,52.5,2|0,0:0|0:0,0:0:0:0:
397,60,5604,1,8,0:0:0:0:
458,151,5778,1,0,0:0:0:0:
425,255,5952,1,0,0:0:0:0:
322,296,6127,1,0,0:0:0:0:
168,296,6301,1,2,0:0:0:0:
60,260,6475,1,0,0:0:0:0:
26,172,6649,1,8,0:0:0:0:
92,96,6824,1,0,0:0:0:0:
388,64,6999,6,0,L|512:64,2,118.125004506111,2|8|8,0:0|0:0|0:0,0:0:0:0:
195,80,8394,2,0,L|93:176,1,105,2|0,0:0|0:0,0:0:0:0:
316,136,8986,2,0,P|336:192|288:252,1,105,2|0,0:0|0:0,0:0:0:0:
136,204,9686,2,0,L|136:292,1,52.5,10|4,0:0|0:3,0:0:0:0:
368,232,10436,6,0,L|480:140,1,105,4|0,0:0|0:0,0:0:0:0:
492,128,10811,1,8,0:0:0:0:
308,160,10936,2,0,L|248:96,1,52.5,2|0,0:0|0:0,0:0:0:0:
396,72,11186,2,0,L|460:72,1,52.5,8|0,0:0|0:0,0:0:0:0:
160,64,11436,5,8,0:0:0:0:
118,115,11561,1,0,0:0:0:0:
126,181,11686,1,0,0:0:0:0:
179,222,11811,1,8,0:0:0:0:
300,228,11936,1,2,0:0:0:0:
48,232,12186,1,8,0:0:0:0:
388,232,12436,6,0,P|408:168|384:112,1,105,4|0,0:0|0:0,0:0:0:0:
212,168,12811,2,0,P|184:116|228:60,1,105,8|2,0:0|0:0,0:0:0:0:
332,64,13186,2,0,L|404:48,1,52.5,8|2,0:0|0:0,0:0:0:0:
104,56,13436,2,0,L|56:108,1,65.625,8|0,0:0|0:0,0:0:0:0:
168,132,13686,2,0,L|220:76,1,65.625,2|8,0:0|0:0,0:0:0:0:
48,212,13936,2,0,L|48:136,1,65.625,2|2,0:0|0:0,0:0:0:0:
264,208,14186,2,0,L|336:180,1,65.625,8|2,0:0|0:0,0:0:0:0:
140,272,14436,6,0,P|124:212|156:148,1,105,4|2,0:0|0:0,0:0:0:0:
172,140,14811,1,8,0:0:0:0:
356,116,14936,2,0,L|428:80,1,52.5,2|0,0:0|0:0,0:0:0:0:
268,60,15186,2,0,L|184:36,1,52.5,8|0,0:0|0:0,0:0:0:0:
408,40,15436,2,0,P|440:104|412:144,1,105,8|2,0:0|0:0,0:0:0:0:
108,120,15811,2,0,P|84:184|148:244,1,157.5,8|10,0:0|0:0,0:0:0:0:
276,244,16311,1,2,0:0:0:0:
318,244,16373,1,2,0:0:0:0:
372,244,16436,6,0,L|484:244,1,105,8|2,0:0|0:0,0:0:0:0:
272,168,16811,2,0,L|160:168,1,105,8|2,0:0|0:0,0:0:0:0:
324,104,17186,2,0,L|396:76,1,52.5,0|2,0:0|0:0,0:0:0:0:
84,112,17436,6,0,L|56:48,1,52.5,4|0,0:0|0:0,0:0:0:0:
324,104,17686,2,0,L|352:44,1,52.5,2|2,0:0|0:0,0:0:0:0:
136,44,17936,1,8,0:0:0:0:
91,95,18061,1,2,0:0:0:0:
99,164,18186,1,2,0:0:0:0:
159,195,18311,1,0,0:0:0:0:
344,200,18436,6,0,L|468:200,1,105,6|2,0:0|0:0,0:0:0:0:
260,200,18811,2,0,P|236:96|308:32,1,210,8|2,0:0|0:0,0:0:0:0:
408,28,19186,2,0,L|472:68,1,52.5,10|2,0:0|0:0,0:0:0:0:
256,56,19436,2,0,L|248:120,1,52.5,8|0,0:0|0:0,0:0:0:0:
319,92,19686,2,0,L|371:68,1,52.5,2|8,0:0|0:0,0:0:0:0:
456,40,19936,1,2,0:0:0:0:
192,44,20186,1,2,0:0:0:0:
424,208,20436,6,0,P|444:148|420:96,1,105,4|2,0:0|0:0,0:0:0:0:
366,69,20811,1,8,0:0:0:0:
224,168,20936,2,0,L|176:136,1,52.5,2|0,0:0|0:0,0:0:0:0:
272,128,21186,2,0,L|328:172,1,52.5,8|2,0:0|0:0,0:0:0:0:
120,120,21436,2,0,P|80:212|156:252,1,157.500006008148,8|2,0:0|0:0,0:0:0:0:
252,248,21811,2,0,L|384:248,1,105,2|2,0:0|0:0,0:0:0:0:
428,248,22186,1,0,0:0:0:0:
168,248,22436,6,0,P|144:192|172:148,1,105,4|2,0:0|0:0,0:0:0:0:
348,160,22811,2,0,P|372:100|344:48,1,105,8|2,0:0|0:0,0:0:0:0:
256,64,23186,2,0,L|176:64,1,52.5,8|2,0:0|0:0,0:0:0:0:
8,64,23436,2,0,L|124:64,1,105,8|2,0:0|0:0,0:0:0:0:
320,88,23811,2,0,L|208:88,1,105,2|0,0:0|0:0,0:0:0:0:
152,88,24186,1,2,0:0:0:0:
92,88,24311,1,2,0:0:0:0:
280,136,24436,6,0,L|396:136,1,105,4|2,0:0|0:0,0:0:0:0:
128,148,24811,2,0,P|120:208|156:268,1,105,8|2,0:0|0:0,0:0:0:0:
200,256,25186,2,0,L|252:256,1,52.5,0|2,0:0|0:0,0:0:0:0:
472,256,25436,2,0,L|500:200,1,52.5,8|2,0:0|0:0,0:0:0:0:
352,228,25686,2,0,L|296:228,1,52.5,2|2,0:0|0:0,0:0:0:0:
456,228,25935,1,8,0:0:0:0:
492,171,26060,1,8,0:0:0:0:
485,104,26185,1,2,0:0:0:0:
438,56,26310,1,0,0:0:0:0:
192,88,26436,6,0,P|160:156|172:188,1,105,6|2,0:0|0:0,0:0:0:0:
356,264,26811,2,0,P|387:222|400:171,1,105,8|2,0:0|0:0,0:0:0:0:
376,120,27186,2,0,L|344:76,1,52.5,2|0,0:0|0:0,0:0:0:0:
148,72,27436,2,0,L|88:72,2,52.5,8|0|2,0:0|0:0|0:0,0:0:0:0:
296,72,27811,2,0,L|364:64,1,52.5,2|8,0:0|0:0,0:0:0:0:
104,72,28186,1,2,0:0:0:0:
320,68,28436,6,0,P|344:136|328:176,1,105,4|2,0:0|0:0,0:0:0:0:
116,252,28811,2,0,P|96:196|120:132,1,105,8|2,0:0|0:0,0:0:0:0:
224,148,29186,2,0,L|288:148,1,52.5,2|2,0:0|0:0,0:0:0:0:
116,144,29436,2,0,P|40:180|52:248,1,157.500006008148,8|2,0:0|0:0,0:0:0:0:
148,252,29811,2,0,L|268:252,1,105,2|8,0:0|0:0,0:0:0:0:
296,252,30186,1,0,0:0:0:0:
44,236,30436,6,0,P|24:192|76:136,1,105,4|2,0:0|0:0,0:0:0:0:
236,176,30811,2,0,P|236:120|216:136,1,105,8|2,0:0|0:0,0:0:0:0:
136,104,31186,2,0,L|72:104,1,52.5,8|2,0:0|0:0,0:0:0:0:
280,48,31436,2,0,L|392:48,1,105,8|2,0:0|0:0,0:0:0:0:
272,124,31811,2,0,L|212:128,1,52.5,2|0,0:0|0:0,0:0:0:0:
320,132,32061,2,0,L|376:156,1,52.5,8|0,0:0|0:0,0:0:0:0:
112,156,32436,6,0,P|92:212|116:244,1,105,6|2,0:0|0:0,0:0:0:0:
236,236,32811,2,0,P|276:192|240:160,1,105,8|2,0:0|0:0,0:0:0:0:
156,152,33186,1,8,0:0:0:0:
408,144,33311,1,2,0:0:0:0:
442,141,33373,1,2,0:0:0:0:
476,138,33436,1,8,0:0:0:0:
348,88,33561,2,0,L|228:88,1,105,2|2,0:0|0:0,0:0:0:0:
24,88,33936,2,0,L|104:88,1,52.5,8|2,0:0|0:0,0:0:0:0:
372,80,34186,2,0,L|416:80,2,26.25,6|0|0,0:0|0:0|0:0,0:0:0:0:
104,92,34436,6,0,P|45:150|40:228,1,157.500006008148,4|2,2:3|0:0,0:0:0:0:
56,260,34811,1,8,0:0:0:0:
220,228,34936,2,0,L|294:253,1,78.7500030040742,2|2,0:0|0:0,0:0:0:0:
356,228,35186,2,0,L|282:199,1,78.7500030040742,8|0,0:0|0:0,0:0:0:0:
448,196,35436,1,8,0:0:0:0:
505,146,35561,1,0,0:0:0:0:
500,71,35686,1,2,0:0:0:0:
436,30,35811,1,8,0:0:0:0:
296,44,35936,1,2,0:0:0:0:
464,44,36186,1,10,0:0:0:0:
120,136,36436,6,0,L|28:136,1,78.7500030040742,4|0,0:0|0:0,0:0:0:0:
224,156,36686,2,0,L|316:156,1,78.7500030040742,2|8,0:0|0:0,0:0:0:0:
116,244,36936,2,0,L|76:244,2,39.3750015020371,10|0|0,0:0|0:0|0:0,0:0:0:0:
256,244,37186,2,0,L|348:244,1,78.7500030040742,2|2,0:0|0:0,0:0:0:0:
132,216,37436,1,8,0:0:0:0:
87,154,37561,1,2,0:0:0:0:
108,80,37686,1,2,0:0:0:0:
177,50,37811,1,8,0:0:0:0:
308,44,37936,2,0,L|464:76,1,157.500006008148,2|8,0:0|0:0,0:0:0:0:
112,248,38436,6,0,P|72:176|108:108,1,157.500006008148,4|2,0:0|0:0,0:0:0:0:
324,176,38811,2,0,P|372:96|328:36,1,157.500006008148,8|2,0:0|0:0,0:0:0:0:
200,48,39186,2,0,L|116:48,1,78.7500030040742,8|2,0:0|0:0,0:0:0:0:
412,44,39436,1,8,0:0:0:0:
457,106,39561,1,0,0:0:0:0:
447,182,39686,1,2,0:0:0:0:
387,230,39811,1,8,0:0:0:0:
164,224,39936,2,0,L|44:88,1,157.500006008148,4|8,0:0|0:0,0:0:0:0:
412,164,40436,6,0,P|464:92|408:32,1,157.500006008148,4|2,0:0|0:0,0:0:0:0:
376,24,40811,1,8,0:0:0:0:
184,136,40936,2,0,L|96:84,1,78.7500030040742,2|2,0:0|0:0,0:0:0:0:
248,120,41186,2,0,L|328:156,1,78.7500030040742,8|0,0:0|0:0,0:0:0:0:
44,84,41436,1,8,0:0:0:0:
10,152,41561,1,0,0:0:0:0:
44,220,41686,1,2,0:0:0:0:
119,234,41811,1,0,0:0:0:0:
320,236,41936,2,0,L|392:164,2,78.7500030040742,8|0|2,0:0|0:0|0:0,0:0:0:0:
56,248,42436,6,0,L|192:112,1,157.500006008148,4|2,0:0|0:0,0:0:0:0:
252,136,42811,1,8,0:0:0:0:
448,160,42936,2,0,L|464:76,1,78.7500030040742,2|2,0:0|0:0,0:0:0:0:
360,152,43186,2,0,L|380:52,1,78.7500030040742,8|2,0:0|0:0,0:0:0:0:
156,60,43436,1,8,0:0:0:0:
85,88,43561,1,2,0:0:0:0:
65,161,43686,1,2,0:0:0:0:
112,220,43811,1,8,0:0:0:0:
328,240,43936,2,0,L|160:240,1,157.500006008148,2|8,0:0|0:0,0:0:0:0:
416,240,44436,6,0,P|476:168|448:124,1,157.500006008148,4|2,0:0|0:0,0:0:0:0:
396,112,44811,1,8,0:0:0:0:
200,116,44936,1,8,0:0:0:0:
160,116,44998,1,0,0:0:0:0:
200,116,45061,1,0,0:0:0:0:
424,116,45186,2,0,L|504:116,1,78.7500030040742,8|2,0:0|0:0,0:0:0:0:
308,56,45436,2,0,L|208:56,2,78.7500030040742,8|2|2,0:0|0:0|0:0,0:0:0:0:
384,56,45811,1,8,0:0:0:0:
248,56,45936,1,2,0:0:0:0:
412,56,46186,1,8,0:0:0:0:
84,112,46436,6,0,P|52:188|112:260,1,157.500006008148,4|2,0:0|0:0,0:0:0:0:
136,272,46811,1,8,0:0:0:0:
428,260,46936,2,0,L|474:190,1,78.7500030040742,2|0,0:0|0:0,0:0:0:0:
352,228,47186,2,0,L|376:152,1,78.7500030040742,8|2,0:0|0:0,0:0:0:0:
124,196,47436,1,4,0:0:0:0:
73,139,47561,1,2,0:0:0:0:
95,67,47686,1,2,0:0:0:0:
167,46,47811,1,8,0:0:0:0:
408,48,47936,2,0,L|480:104,1,78.7500030040742,2|0,0:0|0:0,0:0:0:0:
408,48,48186,1,8,0:0:0:0:
148,48,48311,2,0,L|100:48,1,39.3750015020371,2|2,0:0|0:0,0:0:0:0:
67,53,48436,6,0,P|17:130|100:177,1,210,6|8,0:0|0:0,0:0:0:0:
312,200,48811,2,0,P|420:152|492:224,1,210,4|8,0:0|0:0,0:0:0:0:
488,248,49186,1,0,0:0:0:0:
436,272,49311,1,2,0:0:0:0:
136,260,49436,2,0,L|28:216,1,105,4|2,0:0|0:0,0:0:0:0:
368,176,49686,2,0,L|468:128,1,105,8|2,0:0|0:0,0:0:0:0:
104,156,49936,2,0,P|88:108|104:36,1,105,8|2,0:0|0:0,0:0:0:0:
348,52,50186,2,0,L|464:52,1,105,8|8,0:0|0:0,0:0:0:0:
112,40,50436,6,0,P|68:112|128:188,1,157.500006008148,4|2,0:0|0:0,0:0:0:0:
140,192,50811,1,8,0:0:0:0:
396,104,50936,1,0,0:0:0:0:
462,140,51061,1,2,0:0:0:0:
470,215,51186,1,8,0:0:0:0:
413,265,51311,1,0,0:0:0:0:
200,196,51436,1,8,0:0:0:0:
143,146,51561,1,2,0:0:0:0:
148,71,51686,1,2,0:0:0:0:
212,30,51811,1,8,0:0:0:0:
352,44,51936,1,4,0:0:0:0:
184,44,52186,1,10,0:0:0:0:
424,143,52436,6,0,L|516:143,1,78.7500030040742,4|0,0:0|0:0,0:0:0:0:
316,160,52686,2,0,L|224:160,1,78.7500030040742,2|8,0:0|0:0,0:0:0:0:
428,251,52936,2,0,L|468:251,2,39.3750015020371,8|0|0,0:0|0:0|0:0,0:0:0:0:
288,251,53186,2,0,L|196:251,1,78.7500030040742,8|0,0:0|0:0,0:0:0:0:
396,223,53436,1,8,0:0:0:0:
441,161,53561,1,2,0:0:0:0:
420,87,53686,1,2,0:0:0:0:
351,57,53811,1,8,0:0:0:0:
220,51,53936,2,0,L|64:83,1,157.500006008148,4|2,0:0|0:0,0:0:0:0:
416,255,54436,6,0,P|456:183|420:115,1,157.500006008148,4|2,0:0|0:0,0:0:0:0:
204,183,54811,2,0,P|156:103|200:43,1,157.500006008148,8|0,0:0|0:0,0:0:0:0:
328,55,55186,2,0,L|412:55,1,78.7500030040742,8|0,0:0|0:0,0:0:0:0:
116,51,55436,1,8,0:0:0:0:
71,113,55561,1,0,0:0:0:0:
81,189,55686,1,2,0:0:0:0:
141,237,55811,1,8,0:0:0:0:
352,232,55936,2,0,L|480:96,1,157.500006008148,2|8,0:0|0:0,0:0:0:0:
120,172,56436,6,0,P|68:100|124:40,1,157.500006008148,4|2,0:0|0:0,0:0:0:0:
156,32,56811,1,8,0:0:0:0:
344,143,56936,2,0,L|432:91,1,78.7500030040742,2|2,0:0|0:0,0:0:0:0:
280,127,57186,2,0,L|200:163,1,78.7500030040742,8|0,0:0|0:0,0:0:0:0:
356,220,57436,2,0,L|376:132,1,78.7500030040742,8|0,0:0|0:0,0:0:0:0:
64,198,57686,2,0,L|46:110,1,78.7500030040742,2|8,0:0|0:0,0:0:0:0:
184,208,57936,2,0,L|166:129,1,78.7500030040742,2|8,0:0|0:0,0:0:0:0:
8,128,58186,2,0,L|104:112,1,78.7500030040742,8|2,0:0|0:0,0:0:0:0:
340,104,58436,6,0,P|388:180|340:256,1,157.500006008148,4|2,0:0|0:0,0:0:0:0:
164,252,58811,2,0,P|112:176|160:104,1,157.500006008148,8|2,0:0|0:0,0:0:0:0:
296,108,59186,2,0,L|384:88,1,78.7500030040742,8|0,0:0|0:0,0:0:0:0:
184,112,59436,1,8,0:0:0:0:
109,122,59561,1,2,0:0:0:0:
78,190,59686,1,2,0:0:0:0:
121,253,59811,1,8,0:0:0:0:
400,248,59936,2,0,L|300:120,1,157.500006008148,4|8,0:0|0:0,0:0:0:0:
64,208,60436,6,0,L|40:120,1,78.7500030040742,4|0,0:0|0:0,0:0:0:0:
160,164,60686,2,0,L|132:80,1,78.7500030040742,2|8,0:0|0:0,0:0:0:0:
372,72,60936,2,0,L|424:72,2,39.3750015020371,8|0|0,0:0|0:0|0:0,0:0:0:0:
148,72,61186,2,0,L|56:72,1,78.7500030040742,8|2,0:0|0:0,0:0:0:0:
384,72,61436,2,0,P|440:152|380:244,1,157.500006008148,8|2,0:0|0:0,0:0:0:0:
100,252,61936,2,0,L|208:112,1,157.500006008148,4|8,0:0|0:0,0:0:0:0:
404,216,62436,6,0,P|436:124|404:80,1,157.500006008148,6|0,0:0|0:0,0:0:0:0:
204,72,62811,2,0,L|44:72,1,157.500006008148,8|0,0:0|0:0,0:0:0:0:
188,120,63186,2,0,L|320:120,1,78.7500030040742,2|0,0:0|0:0,0:0:0:0:
68,120,63436,2,0,P|40:180|72:288,1,157.500006008148,4|0,0:0|0:0,0:0:0:0:
376,300,63936,2,0,L|216:180,1,157.500006008148,2|2,0:0|0:0,0:0:0:0:
64,208,64436,6,0,P|32:120|88:64,1,157.500006008148,4|8,0:0|0:0,0:0:0:0:
208,168,64811,2,0,P|248:88|208:28,1,157.500006008148,0|0,0:0|0:0,0:0:0:0:
116,36,65186,1,2,0:0:0:0:
348,36,65311,1,2,0:0:0:0:
387,36,65373,1,0,0:0:0:0:
426,36,65436,1,4,0:0:0:0:
196,40,65561,2,0,L|48:128,1,157.500006008148,8|2,0:0|0:0,0:0:0:0:
204,160,65936,2,0,L|296:160,1,78.7500030040742,8|2,0:0|0:0,0:0:0:0:
152,160,66186,1,8,0:0:0:0:
480,280,66436,6,0,P|495:226|472:176,1,105,4|2,0:0|0:0,0:0:0:0:
422,160,66811,1,8,0:0:0:0:
308,160,66936,2,0,L|244:88,1,78.7500030040742,2|0,0:0|0:0,0:0:0:0:
396,72,67186,2,0,L|480:72,1,78.7500030040742,8|0,0:0|0:0,0:0:0:0:
272,72,67436,2,0,P|208:140|240:212,1,157.5,8|8,0:0|0:0,0:0:0:0:
279,198,67936,1,2,0:0:0:0:
448,196,68186,1,8,0:0:0:0:
120,208,68436,6,0,P|92:152|104:108,1,105,4|0,0:0|0:0,0:0:0:0:
164,76,68811,1,8,0:0:0:0:
280,72,68936,2,0,L|356:72,1,52.5,0|0,0:0|0:0,0:0:0:0:
164,76,69186,2,0,L|128:132,1,52.5,2|2,0:0|0:0,0:0:0:0:
296,216,69436,2,0,P|360:176|356:96,1,157.5,8|4,0:0|0:0,0:0:0:0:
108,76,70186,2,0,L|24:76,1,78.7500030040742,8|0,0:0|0:0,0:0:0:0:
308,76,70436,6,0,L|384:132,1,65.625,4|2,0:0|0:0,0:0:0:0:
100,100,70686,2,0,P|79:149|112:224,1,131.25,8|0,0:0|0:0,0:0:0:0:
167,219,71061,1,2,0:0:0:0:
392,148,71186,2,0,L|468:152,1,65.625,4|0,0:2|0:0,0:0:0:0:
176,132,71436,2,0,P|112:136|120:248,1,196.875,4|0,0:0|2:0,0:0:0:0:
388,132,71936,2,0,P|472:184|361:203,1,275.625002628565,4|0,0:0|0:0,0:0:0:0:
172,204,72436,6,0,P|161:145|190:81,1,105,4|2,0:0|0:0,0:0:0:0:
328,152,72811,2,0,P|344:80|308:36,1,105,8|2,0:0|0:0,0:0:0:0:
140,76,73186,2,0,L|104:32,1,52.5,8|0,0:0|0:0,0:0:0:0:
304,44,73436,1,8,0:0:0:0:
342,97,73561,1,2,0:0:0:0:
328,162,73686,1,2,0:0:0:0:
252,176,73811,2,0,L|144:176,1,105,8|2,0:0|0:0,0:0:0:0:
268,248,74186,2,0,L|308:204,1,52.5,8|0,0:0|0:0,0:0:0:0:
104,228,74436,5,8,0:0:0:0:
65,174,74561,1,2,0:0:0:0:
79,109,74686,1,2,0:0:0:0:
156,96,74811,2,0,L|264:96,1,105,8|2,0:0|0:0,0:0:0:0:
412,88,75186,2,0,L|460:56,1,52.5,8|0,0:0|0:0,0:0:0:0:
184,48,75436,1,4,0:0:0:0:
145,102,75561,1,2,0:0:0:0:
159,167,75686,1,2,0:0:0:0:
300,160,75811,2,0,P|347:208|284:320,1,210,4|2,0:0|0:0,0:0:0:0:
168,328,76186,2,0,L|96:292,1,52.5,8|8,0:0|0:0,0:0:0:0:
320,288,76436,6,0,P|388:228|224:100,1,367.5,4|0,0:0|0:0,0:0:0:0:
136,100,77436,2,0,L|72:108,1,52.5,8|0,0:0|0:0,0:0:0:0:
144,152,77686,1,0,0:0:0:0:
344,172,77811,2,0,L|412:184,1,52.5,8|2,0:0|0:0,0:0:0:0:
356,228,78061,1,0,0:0:0:0:
296,228,78186,1,8,0:0:0:0:
148,216,78311,1,2,0:0:0:0:
112,216,78373,1,2,0:0:0:0:
64,216,78436,6,0,P|28:181|88:128,1,131.25,4|2,0:0|0:0,0:0:0:0:
348,112,78811,2,0,L|484:112,1,131.25,8|2,0:0|0:0,0:0:0:0:
244,116,79186,2,0,L|168:116,1,65.625,0|2,0:0|0:0,0:0:0:0:
404,56,79436,1,4,0:0:0:0:
449,134,79561,1,8,0:0:0:0:
408,215,79686,1,2,0:0:0:0:
108,56,79811,1,4,0:0:0:0:
62,134,79936,1,8,0:0:0:0:
103,215,80061,1,2,0:0:0:0:
372,224,80186,1,4,0:0:0:0:
256,208,80936,5,4,0:0:0:0:
256,192,81186,12,0,84436,0:0:0:0:
