osu file format v14

[General]
AudioFilename: 18. Touhou Hisouten.ogg
AudioLeadIn: 0
PreviewTime: 33418
Countdown: 0
SampleSet: Drum
StackLeniency: 0.7
Mode: 3
LetterboxInBreaks: 0
SpecialStyle: 0
WidescreenStoryboard: 0

[Editor]
DistanceSpacing: 1.8
BeatDivisor: 4
GridSize: 4
TimelineZoom: 1.3

[Metadata]
Title:Touhou Hisouten
TitleUnicode:東方緋想天
Artist:Akiyama Uni
ArtistUnicode:あきやまうに
Creator:FAMoss
Version:Feru's Normal
Source:東方緋想天 ~ Scarlet Weather Rhapsody
Tags:Feerum ZUN 東方Project Touhou Tenshi Hinanawi Tasofro Twilight Frontier 黄昏フロンティア U2 Team Shanghai Alice Perception Heaven 全人類ノ天楽録 東方緋想天 Zenjinrui no Tengakuroku Jun TH10.5 TH 10.5 比那名居 天子 Celestial Music Record of All Humankind - SWR ORIGINAL SOUND TRACK TFM-003 RTS 4 Reitaisai C74 Comiket 74 Instrumental Video Game music vgm orchestra symphony band Scarlet Heaven
BeatmapID:3148906
BeatmapSetID:1540358

[Difficulty]
HPDrainRate:7.5
CircleSize:4
OverallDifficulty:7.5
ApproachRate:5
SliderMultiplier:1.4
SliderTickRate:1

[Events]
//Background and Video events
0,0,"60683976_p4.jpg",0,0
//Break Periods
//Storyboard Layer 0 (Background)
//Storyboard Layer 1 (Fail)
//Storyboard Layer 2 (Pass)
//Storyboard Layer 3 (Foreground)
//Storyboard Layer 4 (Overlay)
//Storyboard Sound Samples
Sample,1923,0,"D6S_s.wav",100
Sample,2446,0,"G6S_s.wav",100
Sample,3667,0,"D6S_s.wav",100
Sample,4539,0,"D6S_s.wav",100
Sample,5062,0,"D6S_s.wav",100
Sample,5760,0,"C7S_s.wav",100
Sample,6109,0,"G6S_s.wav",100
Sample,6458,0,"D6S_s.wav",100
Sample,7504,0,"D6S_s.wav",100
Sample,8770,0,"C6S_s.wav",100
Sample,9435,0,"D6S_s.wav",100
Sample,10043,0,"F6S_s.wav",100

[TimingPoints]
1400,697.674418604651,4,3,1,20,1,0
1400,-71.666667,4,3,1,20,0,0
8376,789.473684210526,4,3,1,20,1,8
8376,-63.333333,4,3,1,20,0,8
8968,934.579439252336,4,3,1,20,1,8
8968,-53.5,4,3,1,20,0,8
9668,1500.0,4,3,1,20,1,8
9668,-33.333333,4,3,1,20,0,8
10418,500.0,4,3,1,40,1,8
34418,-100.0,4,3,1,40,0,9
48418,-100.0,4,3,1,40,0,8
50418,-100.0,4,3,1,40,0,9
64418,-100.0,4,3,1,40,0,8

[HitObjects]
64,192,1051,128,0,1400:0:0:0:0:
320,192,1400,128,0,2795:0:0:0:100:D6S_s.wav
64,192,2795,128,0,3318:0:0:0:100:C6S_s.wav
192,192,3318,128,0,3841:0:0:0:100:F6S_s.wav
448,192,3841,128,0,4190:0:0:0:100:A6S_s.wav
320,192,4190,128,0,4713:0:0:0:100:D6S_s.wav
192,192,4713,128,0,5237:0:0:0:100:C6S_s.wav
320,192,5237,1,0,0:0:0:100:A#6S_Bb6S_s.wav
64,192,5411,1,0,0:0:0:100:A6S_s.wav
448,192,5586,1,0,0:0:0:100:A#6S_Bb6S_s.wav
320,192,5934,1,0,0:0:0:100:A6S_s.wav
192,192,6283,1,0,0:0:0:100:F6S_s.wav
320,192,6632,1,0,0:0:0:100:A#5S_Bb5S_s.wav
192,192,6806,1,0,0:0:0:100:A5S_s.wav
64,192,6981,128,0,8027:0:0:0:100:G5S_s.wav
192,192,8027,1,0,0:0:0:100:D6S_s.wav
448,192,8202,1,0,0:0:0:100:C6S_s.wav
320,192,8376,128,0,8968:0:0:0:100:A5S_s.wav
192,192,8968,128,0,9668:0:0:0:100:F6S_s.wav
448,192,9668,128,0,10418:0:0:0:100:A6S_s.wav
64,192,10418,1,6,0:0:0:0:
192,192,10418,1,0,0:0:0:100:Trambolined_Short.wav
320,192,10793,1,8,0:0:0:0:
192,192,10918,1,2,0:0:0:0:
448,192,11168,1,8,0:0:0:0:
64,192,11418,1,2,0:0:0:0:
192,192,11793,1,8,0:0:0:0:
448,192,11918,1,2,0:0:0:0:
320,192,12168,1,8,0:0:0:0:
192,192,12418,1,2,0:0:0:0:
448,192,12793,1,8,0:0:0:0:
64,192,12918,1,2,0:0:0:0:
192,192,13168,1,8,0:0:0:0:
448,192,13418,1,2,0:0:0:0:
320,192,13543,1,2,0:0:0:0:
64,192,13668,1,8,0:0:0:0:
192,192,13918,1,2,0:0:0:0:
320,192,14043,1,0,0:0:0:0:
448,192,14168,1,8,0:0:0:0:
64,192,14293,1,0,0:0:0:0:
320,192,14418,1,2,0:0:0:0:
192,192,14793,1,8,0:0:0:0:
448,192,14918,1,2,0:0:0:0:
320,192,15168,1,8,0:0:0:0:
64,192,15418,1,2,0:0:0:0:
192,192,15793,1,0,0:0:0:0:
448,192,15918,1,2,0:0:0:0:
320,192,16168,1,8,0:0:0:0:
64,192,16418,128,2,16793:0:0:0:0:
448,192,16668,1,2,0:0:0:0:
192,192,16793,128,8,17168:0:0:0:0:
320,192,17043,1,2,0:0:0:0:
448,192,17168,128,8,17418:0:0:0:0:
64,192,17418,1,12,0:0:0:0:
192,192,17668,1,6,0:0:0:0:
320,192,17918,1,2,0:0:0:0:
64,192,18168,1,12,0:0:0:0:
192,192,18418,1,2,0:0:0:0:
448,192,18418,1,4,0:0:0:0:
320,192,18668,1,0,0:0:0:0:
64,192,18793,1,8,0:0:0:0:
192,192,18918,1,2,0:0:0:0:
320,192,19168,1,8,0:0:0:0:
64,192,19418,1,2,0:0:0:0:
448,192,19668,1,0,0:0:0:0:
64,192,19793,1,8,0:0:0:0:
320,192,19918,1,2,0:0:0:0:
192,192,20168,1,8,0:0:0:0:
448,192,20418,1,2,0:0:0:0:
64,192,20668,1,0,0:0:0:0:
320,192,20793,1,8,0:0:0:0:
192,192,20918,1,2,0:0:0:0:
320,192,21168,1,8,0:0:0:0:
448,192,21418,1,2,0:0:0:0:
192,192,21668,1,0,0:0:0:0:
320,192,21793,1,8,0:0:0:0:
64,192,21918,1,2,0:0:0:0:
192,192,22168,1,8,0:0:0:0:
448,192,22418,1,2,0:0:0:0:
320,192,22668,1,0,0:0:0:0:
64,192,22918,1,2,0:0:0:0:
192,192,23043,1,0,0:0:0:0:
320,192,23168,1,8,0:0:0:0:
448,192,23293,1,0,0:0:0:0:
192,192,23418,1,2,0:0:0:0:
320,192,23668,1,0,0:0:0:0:
64,192,23793,1,8,0:0:0:0:
448,192,24043,1,0,0:0:0:0:
64,192,24168,1,8,0:0:0:0:
192,192,24293,1,0,0:0:0:0:
320,192,24418,128,2,24668:0:0:0:0:
64,192,24668,1,0,0:0:0:0:
448,192,24793,1,8,0:0:0:0:
192,192,25043,1,0,0:0:0:0:
64,192,25293,128,0,25918:0:0:0:0:
320,192,25418,1,2,0:0:0:0:
448,192,25668,1,0,0:0:0:0:
320,192,25918,1,2,0:0:0:0:
192,192,26043,1,2,0:0:0:0:
448,192,26168,1,8,0:0:0:0:
320,192,26418,1,2,0:0:0:0:
64,192,26668,1,0,0:0:0:0:
448,192,26793,1,8,0:0:0:0:
192,192,26918,1,2,0:0:0:0:
320,192,27168,1,8,0:0:0:0:
64,192,27418,1,2,0:0:0:0:
192,192,27668,1,0,0:0:0:0:
320,192,27793,1,8,0:0:0:0:
448,192,27918,1,2,0:0:0:0:
192,192,28168,1,8,0:0:0:0:
320,192,28418,1,2,0:0:0:0:
64,192,28668,1,0,0:0:0:0:
448,192,28793,1,8,0:0:0:0:
192,192,28918,1,2,0:0:0:0:
320,192,29168,1,8,0:0:0:0:
64,192,29418,1,2,0:0:0:0:
192,192,29668,1,0,0:0:0:0:
448,192,29793,1,8,0:0:0:0:
320,192,29918,1,2,0:0:0:0:
64,192,30168,1,8,0:0:0:0:
448,192,30418,1,2,0:0:0:0:
192,192,30668,1,0,0:0:0:0:
320,192,30918,1,2,0:0:0:0:
64,192,31043,1,0,0:0:0:0:
448,192,31168,1,8,0:0:0:0:
320,192,31293,1,0,0:0:0:0:
192,192,31418,1,2,0:0:0:0:
64,192,31668,1,0,0:0:0:0:
448,192,31793,1,8,0:0:0:0:
192,192,32043,1,0,0:0:0:0:
448,192,32168,1,8,0:0:0:0:
64,192,32293,1,0,0:0:0:0:
320,192,32418,1,2,0:0:0:0:
192,192,32793,1,8,0:0:0:0:
448,192,32918,1,2,0:0:0:0:
320,192,33168,1,8,0:0:0:0:
448,192,33418,128,2,33668:0:0:0:0:
64,192,33668,128,0,33918:0:0:0:0:
192,192,33918,128,2,34168:0:0:0:0:
320,192,34168,128,8,34418:0:0:0:0:
64,192,34418,1,6,0:0:0:0:
448,192,34418,128,0,35918:0:0:0:100:Trambolined_Short.wav
192,192,34793,1,8,0:0:0:0:
64,192,34918,1,2,0:0:0:0:
320,192,35168,1,8,0:0:0:0:
192,192,35418,1,2,0:0:0:0:
64,192,35793,1,8,0:0:0:0:
192,192,35918,128,2,36168:0:0:0:0:
320,192,36168,128,8,36418:0:0:0:0:
448,192,36418,128,2,36668:0:0:0:0:
192,192,36668,128,0,36918:0:0:0:0:
320,192,36918,1,2,0:0:0:0:
448,192,37043,1,0,0:0:0:0:
64,192,37168,128,8,37418:0:0:0:0:
320,192,37418,128,2,37918:0:0:0:0:
192,192,37918,128,2,38168:0:0:0:0:
448,192,38168,128,8,38418:0:0:0:0:
64,192,38418,128,2,39918:0:0:0:0:
320,192,38793,1,8,0:0:0:0:
448,192,38918,1,2,0:0:0:0:
192,192,39168,1,8,0:0:0:0:
320,192,39418,1,2,0:0:0:0:
448,192,39793,1,8,0:0:0:0:
192,192,39918,128,2,40168:0:0:0:0:
320,192,40168,128,8,40418:0:0:0:0:
448,192,40418,128,2,40668:0:0:0:0:
64,192,40668,1,0,0:0:0:0:
64,192,40918,128,2,41668:0:0:0:0:
448,192,41168,1,8,0:0:0:0:
192,192,41293,1,0,0:0:0:0:
320,192,41418,1,2,0:0:0:0:
448,192,41668,128,0,41918:0:0:0:0:
320,192,41918,128,2,42168:0:0:0:0:
192,192,42168,128,8,42418:0:0:0:0:
64,192,42418,128,2,43918:0:0:0:0:
320,192,42793,1,8,0:0:0:0:
192,192,42918,1,2,0:0:0:0:
448,192,43168,1,8,0:0:0:0:
320,192,43418,1,2,0:0:0:0:
448,192,43793,1,8,0:0:0:0:
192,192,43918,128,2,44168:0:0:0:0:
320,192,44168,128,8,44418:0:0:0:0:
448,192,44418,128,2,44668:0:0:0:0:
64,192,44668,128,0,44918:0:0:0:0:
192,192,44918,1,2,0:0:0:0:
448,192,45043,1,0,0:0:0:0:
320,192,45168,128,8,45418:0:0:0:0:
192,192,45418,128,2,45918:0:0:0:0:
64,192,45918,128,2,46168:0:0:0:0:
448,192,46168,128,8,46418:0:0:0:0:
192,192,46418,128,2,46918:0:0:0:0:
64,192,46918,128,2,47168:0:0:0:0:
448,192,47168,128,8,47418:0:0:0:0:
192,192,47418,128,2,47918:0:0:0:0:
448,192,47918,128,2,48168:0:0:0:0:
64,192,48168,128,8,48418:0:0:0:0:
320,192,48418,128,2,49043:0:0:0:0:
192,192,48668,1,8,0:0:0:0:
64,192,48793,1,8,0:0:0:0:
448,192,49043,1,2,0:0:0:0:
64,192,49168,1,2,0:0:0:0:
320,192,49293,1,8,0:0:0:0:
192,192,49418,128,6,49668:0:0:0:0:
448,192,49668,128,6,49918:0:0:0:0:
320,192,49918,128,2,50168:0:0:0:0:
192,192,50168,128,6,50418:0:0:0:0:
64,192,50418,128,6,51918:0:0:0:0:
448,192,50418,1,0,0:0:0:100:Trambolined_Short.wav
320,192,50793,1,8,0:0:0:0:
448,192,50918,1,2,0:0:0:0:
192,192,51168,1,8,0:0:0:0:
320,192,51418,1,2,0:0:0:0:
448,192,51793,1,8,0:0:0:0:
192,192,51918,128,2,52168:0:0:0:0:
320,192,52168,128,8,52418:0:0:0:0:
448,192,52418,128,2,52668:0:0:0:0:
192,192,52668,128,0,52918:0:0:0:0:
448,192,52918,1,2,0:0:0:0:
64,192,53043,1,0,0:0:0:0:
320,192,53168,128,8,53418:0:0:0:0:
64,192,53418,128,2,53918:0:0:0:0:
320,192,53918,128,2,54168:0:0:0:0:
192,192,54168,128,8,54418:0:0:0:0:
448,192,54418,128,2,55918:0:0:0:0:
192,192,54793,1,8,0:0:0:0:
64,192,54918,1,2,0:0:0:0:
320,192,55168,1,8,0:0:0:0:
192,192,55418,1,2,0:0:0:0:
64,192,55793,1,8,0:0:0:0:
320,192,55918,128,2,56168:0:0:0:0:
192,192,56168,128,8,56418:0:0:0:0:
64,192,56418,128,2,56668:0:0:0:0:
448,192,56668,1,0,0:0:0:0:
448,192,56918,128,2,57668:0:0:0:0:
192,192,57168,1,8,0:0:0:0:
320,192,57293,1,0,0:0:0:0:
64,192,57418,1,2,0:0:0:0:
320,192,57668,128,0,57918:0:0:0:0:
64,192,57918,1,2,0:0:0:0:
448,192,58043,1,2,0:0:0:0:
192,192,58168,1,8,0:0:0:0:
64,192,58293,1,0,0:0:0:0:
448,192,58418,128,2,59918:0:0:0:0:
192,192,58793,1,8,0:0:0:0:
320,192,58918,1,2,0:0:0:0:
64,192,59168,1,8,0:0:0:0:
192,192,59418,1,2,0:0:0:0:
64,192,59793,1,8,0:0:0:0:
320,192,59918,128,2,60168:0:0:0:0:
192,192,60168,128,8,60418:0:0:0:0:
64,192,60418,128,2,60668:0:0:0:0:
448,192,60668,128,0,60918:0:0:0:0:
64,192,60918,1,2,0:0:0:0:
320,192,61043,1,0,0:0:0:0:
192,192,61168,128,8,61418:0:0:0:0:
64,192,61418,128,2,61918:0:0:0:0:
320,192,61918,128,2,62168:0:0:0:0:
192,192,62168,128,8,62418:0:0:0:0:
448,192,62418,128,2,62793:0:0:0:0:
64,192,62793,128,8,63168:0:0:0:0:
320,192,63168,128,8,63418:0:0:0:0:
192,192,63418,128,2,63918:0:0:0:0:
448,192,63918,128,2,64168:0:0:0:0:
64,192,64168,128,8,64418:0:0:0:0:
320,192,64418,1,2,0:0:0:0:
192,192,64543,1,0,0:0:0:0:
448,192,64668,128,0,65418:0:0:0:0:
64,192,64793,1,8,0:0:0:0:
192,192,65043,1,2,0:0:0:0:
320,192,65168,1,8,0:0:0:0:
64,192,65418,1,6,0:0:0:0:
320,192,65543,1,2,0:0:0:0:
448,192,65793,1,8,0:0:0:0:
192,192,65918,1,6,0:0:0:0:
64,192,66043,1,2,0:0:0:0:
320,192,66168,1,4,0:0:0:0:
448,192,66168,1,8,0:0:0:0:
64,192,66418,1,6,0:0:0:0:
192,192,66418,1,0,0:0:0:100:Trambolined_Short.wav
448,192,66668,1,0,0:0:0:0:
192,192,66793,1,8,0:0:0:0:
320,192,66918,1,2,0:0:0:0:
64,192,67168,1,8,0:0:0:0:
448,192,67418,1,2,0:0:0:0:
192,192,67668,1,0,0:0:0:0:
320,192,67793,1,8,0:0:0:0:
448,192,67918,1,2,0:0:0:0:
64,192,68168,1,8,0:0:0:0:
320,192,68418,1,2,0:0:0:0:
192,192,68668,1,0,0:0:0:0:
448,192,68793,1,8,0:0:0:0:
64,192,68918,1,2,0:0:0:0:
320,192,69168,1,8,0:0:0:0:
192,192,69418,1,2,0:0:0:0:
64,192,69543,1,2,0:0:0:0:
448,192,69668,1,8,0:0:0:0:
320,192,69793,1,0,0:0:0:0:
192,192,69918,1,2,0:0:0:0:
448,192,70168,1,8,0:0:0:0:
64,192,70293,1,0,0:0:0:0:
192,192,70418,1,2,0:0:0:0:
320,192,70418,1,4,0:0:0:0:
448,192,70668,1,6,0:0:0:0:
64,192,70793,1,0,0:0:0:0:
320,192,70918,1,0,0:0:0:0:
192,192,71168,1,12,0:0:0:0:
320,192,71418,1,6,0:0:0:0:
448,192,71418,1,0,0:0:0:100:Trambolined_Short.wav
64,192,71918,128,6,72418:0:0:0:0:
320,192,72418,1,6,0:0:0:0:
448,192,72418,1,0,0:0:0:100:Trambolined_Short.wav
192,192,72668,1,0,0:0:0:0:
448,192,72793,1,8,0:0:0:0:
64,192,72918,1,2,0:0:0:0:
320,192,73168,1,8,0:0:0:0:
192,192,73418,1,2,0:0:0:0:
64,192,73668,1,0,0:0:0:0:
448,192,73793,1,8,0:0:0:0:
320,192,73918,1,2,0:0:0:0:
192,192,74168,1,8,0:0:0:0:
320,192,74418,1,2,0:0:0:0:
448,192,74543,1,0,0:0:0:0:
64,192,74668,1,0,0:0:0:0:
192,192,74793,1,8,0:0:0:0:
320,192,74918,1,2,0:0:0:0:
448,192,75168,1,8,0:0:0:0:
192,192,75418,1,2,0:0:0:0:
64,192,75543,1,2,0:0:0:0:
448,192,75668,1,0,0:0:0:0:
320,192,75793,1,8,0:0:0:0:
192,192,75918,1,2,0:0:0:0:
448,192,76168,1,8,0:0:0:0:
64,192,76418,1,2,0:0:0:0:
192,192,76668,1,0,0:0:0:0:
448,192,76793,1,8,0:0:0:0:
320,192,76918,1,2,0:0:0:0:
64,192,77168,1,8,0:0:0:0:
448,192,77418,1,2,0:0:0:0:
320,192,77668,1,0,0:0:0:0:
64,192,77793,1,8,0:0:0:0:
192,192,77918,1,2,0:0:0:0:
448,192,78168,1,8,0:0:0:0:
320,192,78418,1,2,0:0:0:0:
64,192,78543,1,0,0:0:0:0:
192,192,78668,1,2,0:0:0:0:
320,192,78793,1,8,0:0:0:0:
448,192,78918,1,0,0:0:0:0:
64,192,79168,1,8,0:0:0:0:
320,192,79418,1,2,0:0:0:0:
448,192,79418,1,4,0:0:0:0:
192,192,79793,1,2,0:0:0:0:
320,192,79793,1,4,0:0:0:0:
64,192,80168,1,8,0:0:0:0:
192,192,80168,1,4,0:0:0:0:
192,192,80918,128,6,83918:0:0:0:0:
320,192,80918,128,0,83918:0:0:0:100:Trambolined_Short.wav
