osu file format v14

[General]
AudioFilename: audio.mp3
AudioLeadIn: 0
PreviewTime: 33028
Countdown: 0
SampleSet: Normal
StackLeniency: 0.7
Mode: 1
LetterboxInBreaks: 0
WidescreenStoryboard: 0

[Editor]
Bookmarks: 935,9953,17953,25953,33953,48953,49953,65953,71953,78953,80453,83453
DistanceSpacing: 1.8
BeatDivisor: 4
GridSize: 32
TimelineZoom: 1.8

[Metadata]
Title:Touhou Hisouten
TitleUnicode:東方緋想天
Artist:Akiyama Uni
ArtistUnicode:あきやまうに
Creator:Emre1504
Version:Ayyri's Rhapsody
Source:東方緋想天 ~ Scarlet Weather Rhapsody
Tags:Yasuho Dako Lyawi eiri- Ayyri Instrumental Video Game 東方Project Tenshi Hinanawi Tasofro Twilight Frontier 黄昏フロンティア U2 ZUN Team Shanghai Alice Perception Heaven 全人類ノ天楽録 Jun TH10.5 TH 10.5 比那名居 天子 Celestial Music Record of All Humankind - SWR ORIGINAL SOUND TRACK TFM-003 RTS 4 Reitaisai C74 Comiket 74
BeatmapID:2563917
BeatmapSetID:1195011

[Difficulty]
HPDrainRate:6
CircleSize:2
OverallDifficulty:6
ApproachRate:10
SliderMultiplier:1.4
SliderTickRate:1

[Events]
//Background and Video events
0,0,"Tenshi 681.png",0,75
//Break Periods
//Storyboard Layer 0 (Background)
//Storyboard Layer 1 (Fail)
//Storyboard Layer 2 (Pass)
//Storyboard Layer 3 (Foreground)
//Storyboard Layer 4 (Overlay)
//Storyboard Sound Samples

[TimingPoints]
935,697.674418604651,4,1,0,50,1,0
7737,-101.010101010101,4,1,0,50,0,0
7911,789.473684210526,4,1,0,50,1,8
7911,-90.9090909090909,4,1,0,50,0,0
8503,934.579439252336,4,1,0,50,1,8
8503,-83.3333333333333,4,1,0,50,0,8
9203,1500,4,1,0,50,1,8
9203,-57.1428571428571,4,1,0,50,0,8
9953,500,4,1,0,75,1,0
33953,-100,4,1,0,75,0,1
48953,-100,4,1,0,75,0,0
49953,-100,4,1,0,75,0,1
65953,-100,4,1,0,75,0,0
71953,-100,4,1,0,75,0,1
78953,-100,4,1,0,75,0,0
83453,-100,4,1,0,25,0,0

[HitObjects]
256,192,935,5,0,0:0:0:0:
256,192,1283,1,0,0:0:0:0:
256,192,1458,1,8,0:0:0:0:
256,192,1807,1,0,0:0:0:0:
256,192,1981,1,8,0:0:0:0:
256,192,2330,1,8,0:0:0:0:
256,192,2853,1,0,0:0:0:0:
256,192,3376,1,0,0:0:0:0:
256,192,3725,1,8,0:0:0:0:
256,192,4074,1,0,0:0:0:0:
256,192,4248,1,8,0:0:0:0:
256,192,4772,1,0,0:0:0:0:
256,192,4946,1,0,0:0:0:0:
256,192,5121,1,8,0:0:0:0:
256,192,5295,1,8,0:0:0:0:
256,192,5469,1,0,0:0:0:0:
256,192,5644,1,0,0:0:0:0:
256,192,5818,1,8,0:0:0:0:
256,192,6167,1,0,0:0:0:0:
256,192,6341,1,8,0:0:0:0:
256,192,6516,1,0,0:0:0:0:
256,192,7039,1,8,0:0:0:0:
256,192,7562,1,0,0:0:0:0:
256,192,7737,1,8,0:0:0:0:
256,192,7911,1,0,0:0:0:0:
256,192,8503,1,0,0:0:0:0:
256,192,9203,1,8,0:0:0:0:
256,192,9953,1,4,0:0:0:0:
256,192,10203,1,0,0:0:0:0:
256,192,10328,1,8,0:0:0:0:
256,192,10453,1,0,0:0:0:0:
256,192,10578,1,0,0:0:0:0:
256,192,10703,1,8,0:0:0:0:
256,192,10828,1,0,0:0:0:0:
256,192,10953,1,8,0:0:0:0:
256,192,11203,1,0,0:0:0:0:
256,192,11328,1,8,0:0:0:0:
256,192,11578,1,0,0:0:0:0:
256,192,11703,1,8,0:0:0:0:
256,192,11828,1,0,0:0:0:0:
256,192,11953,1,8,0:0:0:0:
256,192,12203,1,0,0:0:0:0:
256,192,12328,1,8,0:0:0:0:
256,192,12453,1,0,0:0:0:0:
256,192,12578,1,0,0:0:0:0:
256,192,12703,1,8,0:0:0:0:
256,192,12953,1,0,0:0:0:0:
256,192,13078,1,8,0:0:0:0:
256,192,13203,1,0,0:0:0:0:
256,192,13328,1,8,0:0:0:0:
256,192,13453,1,0,0:0:0:0:
256,192,13578,1,0,0:0:0:0:
256,192,13703,1,8,0:0:0:0:
256,192,13828,1,0,0:0:0:0:
256,192,13953,1,8,0:0:0:0:
256,192,14203,1,0,0:0:0:0:
256,192,14328,1,8,0:0:0:0:
256,192,14453,1,8,0:0:0:0:
256,192,14578,1,0,0:0:0:0:
256,192,14703,1,8,0:0:0:0:
256,192,14953,1,8,0:0:0:0:
256,192,15078,1,0,0:0:0:0:
256,192,15203,1,0,0:0:0:0:
256,192,15328,1,8,0:0:0:0:
256,192,15453,1,0,0:0:0:0:
256,192,15703,1,8,0:0:0:0:
256,192,15828,1,0,0:0:0:0:
256,192,15890,1,0,0:0:0:0:
256,192,15953,1,8,0:0:0:0:
256,192,16203,1,0,0:0:0:0:
256,192,16328,1,8,0:0:0:0:
256,192,16453,1,0,0:0:0:0:
256,192,16578,1,0,0:0:0:0:
256,192,16703,1,8,0:0:0:0:
256,192,16953,1,4,0:0:0:0:
256,192,17203,1,12,0:0:0:0:
256,192,17453,1,0,0:0:0:0:
256,192,17578,1,8,0:0:0:0:
256,192,17703,1,0,0:0:0:0:
256,192,17765,1,0,0:0:0:0:
256,192,17828,1,0,0:0:0:0:
256,192,17890,1,0,0:0:0:0:
256,192,17953,1,8,0:0:0:0:
256,192,18203,1,0,0:0:0:0:
256,192,18328,1,8,0:0:0:0:
256,192,18453,1,0,0:0:0:0:
256,192,18578,1,0,0:0:0:0:
256,192,18703,1,8,0:0:0:0:
256,192,18953,1,8,0:0:0:0:
256,192,19078,1,0,0:0:0:0:
256,192,19203,1,8,0:0:0:0:
256,192,19328,1,8,0:0:0:0:
256,192,19578,1,8,0:0:0:0:
256,192,19703,1,0,0:0:0:0:
256,192,19828,1,8,0:0:0:0:
256,192,19953,1,0,0:0:0:0:
256,192,20203,1,0,0:0:0:0:
256,192,20328,1,8,0:0:0:0:
256,192,20453,1,8,0:0:0:0:
256,192,20578,1,0,0:0:0:0:
256,192,20703,1,8,0:0:0:0:
256,192,20953,1,8,0:0:0:0:
256,192,21078,1,0,0:0:0:0:
256,192,21203,1,8,0:0:0:0:
256,192,21328,1,8,0:0:0:0:
256,192,21578,1,8,0:0:0:0:
256,192,21703,1,0,0:0:0:0:
256,192,21828,1,8,0:0:0:0:
256,192,21953,1,0,0:0:0:0:
256,192,22203,1,0,0:0:0:0:
256,192,22328,1,8,0:0:0:0:
256,192,22578,1,8,0:0:0:0:
256,192,22703,1,8,0:0:0:0:
256,192,22828,1,0,0:0:0:0:
256,192,22953,1,8,0:0:0:0:
256,192,23203,1,8,0:0:0:0:
256,192,23453,1,0,0:0:0:0:
256,192,23578,1,8,0:0:0:0:
256,192,23703,1,8,0:0:0:0:
256,192,23828,1,0,0:0:0:0:
256,192,23953,1,8,0:0:0:0:
256,192,24203,1,0,0:0:0:0:
256,192,24328,1,8,0:0:0:0:
256,192,24453,1,0,0:0:0:0:
256,192,24578,1,8,0:0:0:0:
256,192,24828,1,0,0:0:0:0:
256,192,24953,1,8,0:0:0:0:
256,192,25078,1,0,0:0:0:0:
256,192,25203,1,0,0:0:0:0:
256,192,25453,1,0,0:0:0:0:
256,192,25578,1,8,0:0:0:0:
256,192,25703,1,8,0:0:0:0:
256,192,25828,1,0,0:0:0:0:
256,192,25953,1,8,0:0:0:0:
256,192,26203,1,0,0:0:0:0:
256,192,26328,1,8,0:0:0:0:
256,192,26453,1,0,0:0:0:0:
256,192,26578,1,8,0:0:0:0:
256,192,26703,1,8,0:0:0:0:
256,192,26953,1,8,0:0:0:0:
256,192,27078,1,0,0:0:0:0:
256,192,27203,1,8,0:0:0:0:
256,192,27328,1,8,0:0:0:0:
256,192,27578,1,8,0:0:0:0:
256,192,27703,1,0,0:0:0:0:
256,192,27828,1,8,0:0:0:0:
256,192,27953,1,0,0:0:0:0:
256,192,28203,1,0,0:0:0:0:
256,192,28328,1,8,0:0:0:0:
256,192,28453,1,0,0:0:0:0:
256,192,28578,1,0,0:0:0:0:
256,192,28703,1,8,0:0:0:0:
256,192,28953,1,8,0:0:0:0:
256,192,29078,1,0,0:0:0:0:
256,192,29203,1,8,0:0:0:0:
256,192,29328,1,8,0:0:0:0:
256,192,29578,1,8,0:0:0:0:
256,192,29703,1,0,0:0:0:0:
256,192,29828,1,8,0:0:0:0:
256,192,29953,1,0,0:0:0:0:
256,192,30203,1,0,0:0:0:0:
256,192,30328,1,8,0:0:0:0:
256,192,30578,1,8,0:0:0:0:
256,192,30703,1,8,0:0:0:0:
256,192,30828,1,0,0:0:0:0:
256,192,30953,1,8,0:0:0:0:
256,192,31078,1,0,0:0:0:0:
256,192,31203,1,0,0:0:0:0:
256,192,31328,1,8,0:0:0:0:
256,192,31578,1,8,0:0:0:0:
256,192,31703,1,0,0:0:0:0:
256,192,31828,1,8,0:0:0:0:
256,192,31953,1,0,0:0:0:0:
256,192,32203,1,0,0:0:0:0:
256,192,32328,1,8,0:0:0:0:
256,192,32453,1,0,0:0:0:0:
256,192,32578,1,0,0:0:0:0:
256,192,32703,1,8,0:0:0:0:
256,192,32828,1,0,0:0:0:0:
256,192,32890,1,0,0:0:0:0:
256,192,32953,1,8,0:0:0:0:
256,192,33078,1,0,0:0:0:0:
256,192,33328,1,0,0:0:0:0:
256,192,33453,1,8,0:0:0:0:
256,192,33578,1,0,0:0:0:0:
256,192,33703,1,8,0:0:0:0:
256,192,33765,1,8,0:0:0:0:
256,192,33828,1,8,0:0:0:0:
256,192,33890,1,8,0:0:0:0:
256,192,33953,1,0,0:0:0:0:
256,192,34203,1,0,0:0:0:0:
256,192,34328,1,8,0:0:0:0:
256,192,34578,1,8,0:0:0:0:
256,192,34703,1,0,0:0:0:0:
256,192,34828,1,0,0:0:0:0:
256,192,34953,1,8,0:0:0:0:
256,192,35203,1,0,0:0:0:0:
256,192,35328,1,0,0:0:0:0:
256,192,35453,1,8,0:0:0:0:
256,192,35578,1,0,0:0:0:0:
256,192,35703,1,8,0:0:0:0:
256,192,35953,1,8,0:0:0:0:
256,192,36078,1,0,0:0:0:0:
256,192,36203,1,8,0:0:0:0:
256,192,36328,1,8,0:0:0:0:
256,192,36453,1,0,0:0:0:0:
256,192,36536,1,0,0:0:0:0:
256,192,36619,1,0,0:0:0:0:
256,192,36703,1,8,0:0:0:0:
256,192,36953,1,8,0:0:0:0:
256,192,37078,1,8,0:0:0:0:
256,192,37203,1,0,0:0:0:0:
256,192,37328,1,8,0:0:0:0:
256,192,37453,1,0,0:0:0:0:
256,192,37703,1,0,0:0:0:0:
256,192,37953,1,8,0:0:0:0:
256,192,38203,1,0,0:0:0:0:
256,192,38328,1,8,0:0:0:0:
256,192,38453,1,0,0:0:0:0:
256,192,38578,1,0,0:0:0:0:
256,192,38703,1,8,0:0:0:0:
256,192,38953,1,8,0:0:0:0:
256,192,39078,1,8,0:0:0:0:
256,192,39203,1,0,0:0:0:0:
256,192,39328,1,8,0:0:0:0:
256,192,39453,1,8,0:0:0:0:
256,192,39578,1,0,0:0:0:0:
256,192,39703,1,8,0:0:0:0:
256,192,39953,1,8,0:0:0:0:
256,192,40078,1,0,0:0:0:0:
256,192,40203,1,8,0:0:0:0:
256,192,40453,1,8,0:0:0:0:
256,192,40578,1,8,0:0:0:0:
256,192,40703,1,0,0:0:0:0:
256,192,40828,1,8,0:0:0:0:
256,192,40953,1,0,0:0:0:0:
256,192,41203,1,8,0:0:0:0:
256,192,41328,1,8,0:0:0:0:
256,192,41453,1,0,0:0:0:0:
256,192,41578,1,0,0:0:0:0:
256,192,41703,1,8,0:0:0:0:
256,192,41828,1,0,0:0:0:0:
256,192,41953,1,8,0:0:0:0:
256,192,42203,1,0,0:0:0:0:
256,192,42328,1,8,0:0:0:0:
256,192,42578,1,8,0:0:0:0:
256,192,42703,1,0,0:0:0:0:
256,192,42828,1,0,0:0:0:0:
256,192,42953,1,8,0:0:0:0:
256,192,43203,1,0,0:0:0:0:
256,192,43328,1,0,0:0:0:0:
256,192,43453,1,8,0:0:0:0:
256,192,43578,1,0,0:0:0:0:
256,192,43703,1,8,0:0:0:0:
256,192,43953,1,8,0:0:0:0:
256,192,44078,1,0,0:0:0:0:
256,192,44203,1,8,0:0:0:0:
256,192,44328,1,8,0:0:0:0:
256,192,44453,1,0,0:0:0:0:
256,192,44536,1,0,0:0:0:0:
256,192,44619,1,0,0:0:0:0:
256,192,44703,1,8,0:0:0:0:
256,192,44953,1,8,0:0:0:0:
256,192,45078,1,0,0:0:0:0:
256,192,45328,1,0,0:0:0:0:
256,192,45453,1,8,0:0:0:0:
256,192,45578,1,8,0:0:0:0:
256,192,45703,1,0,0:0:0:0:
256,192,45953,1,8,0:0:0:0:
256,192,46203,1,0,0:0:0:0:
256,192,46328,1,8,0:0:0:0:
256,192,46453,1,0,0:0:0:0:
256,192,46578,1,0,0:0:0:0:
256,192,46703,1,8,0:0:0:0:
256,192,46953,1,8,0:0:0:0:
256,192,47078,1,8,0:0:0:0:
256,192,47203,1,0,0:0:0:0:
256,192,47328,1,0,0:0:0:0:
256,192,47453,1,8,0:0:0:0:
256,192,47703,1,8,0:0:0:0:
256,192,47828,1,0,0:0:0:0:
256,192,47890,1,0,0:0:0:0:
256,192,47953,1,8,0:0:0:0:
256,192,48203,1,8,0:0:0:0:
256,192,48328,1,0,0:0:0:0:
256,192,48578,1,8,0:0:0:0:
256,192,48703,1,0,0:0:0:0:
256,192,48828,1,0,0:0:0:0:
256,192,48953,1,8,0:0:0:0:
256,192,49203,1,8,0:0:0:0:
256,192,49328,1,0,0:0:0:0:
256,192,49453,1,8,0:0:0:0:
256,192,49578,1,0,0:0:0:0:
256,192,49703,1,8,0:0:0:0:
256,192,49765,1,8,0:0:0:0:
256,192,49828,1,8,0:0:0:0:
256,192,49890,1,8,0:0:0:0:
256,192,49953,1,0,0:0:0:0:
256,192,50203,1,0,0:0:0:0:
256,192,50328,1,8,0:0:0:0:
256,192,50578,1,8,0:0:0:0:
256,192,50703,1,0,0:0:0:0:
256,192,50828,1,0,0:0:0:0:
256,192,50953,1,8,0:0:0:0:
256,192,51203,1,0,0:0:0:0:
256,192,51328,1,0,0:0:0:0:
256,192,51453,1,8,0:0:0:0:
256,192,51578,1,0,0:0:0:0:
256,192,51703,1,8,0:0:0:0:
256,192,51953,1,8,0:0:0:0:
256,192,52078,1,0,0:0:0:0:
256,192,52203,1,8,0:0:0:0:
256,192,52328,1,8,0:0:0:0:
256,192,52453,1,0,0:0:0:0:
256,192,52536,1,0,0:0:0:0:
256,192,52619,1,0,0:0:0:0:
256,192,52703,1,8,0:0:0:0:
256,192,52953,1,8,0:0:0:0:
256,192,53078,1,8,0:0:0:0:
256,192,53203,1,0,0:0:0:0:
256,192,53328,1,8,0:0:0:0:
256,192,53453,1,0,0:0:0:0:
256,192,53703,1,0,0:0:0:0:
256,192,53953,1,8,0:0:0:0:
256,192,54203,1,0,0:0:0:0:
256,192,54328,1,8,0:0:0:0:
256,192,54453,1,0,0:0:0:0:
256,192,54578,1,0,0:0:0:0:
256,192,54703,1,8,0:0:0:0:
256,192,54953,1,8,0:0:0:0:
256,192,55078,1,8,0:0:0:0:
256,192,55203,1,0,0:0:0:0:
256,192,55328,1,8,0:0:0:0:
256,192,55453,1,8,0:0:0:0:
256,192,55578,1,0,0:0:0:0:
256,192,55703,1,8,0:0:0:0:
256,192,55953,1,8,0:0:0:0:
256,192,56078,1,0,0:0:0:0:
256,192,56203,1,8,0:0:0:0:
256,192,56453,1,8,0:0:0:0:
256,192,56578,1,8,0:0:0:0:
256,192,56703,1,0,0:0:0:0:
256,192,56828,1,8,0:0:0:0:
256,192,56953,1,0,0:0:0:0:
256,192,57203,1,8,0:0:0:0:
256,192,57328,1,0,0:0:0:0:
256,192,57453,1,8,0:0:0:0:
256,192,57578,1,0,0:0:0:0:
256,192,57703,1,8,0:0:0:0:
256,192,57828,1,8,0:0:0:0:
256,192,57953,1,0,0:0:0:0:
256,192,58203,1,0,0:0:0:0:
256,192,58328,1,8,0:0:0:0:
256,192,58578,1,8,0:0:0:0:
256,192,58703,1,0,0:0:0:0:
256,192,58828,1,0,0:0:0:0:
256,192,58953,1,8,0:0:0:0:
256,192,59203,1,0,0:0:0:0:
256,192,59328,1,0,0:0:0:0:
256,192,59453,1,8,0:0:0:0:
256,192,59578,1,0,0:0:0:0:
256,192,59703,1,8,0:0:0:0:
256,192,59953,1,8,0:0:0:0:
256,192,60078,1,0,0:0:0:0:
256,192,60203,1,8,0:0:0:0:
256,192,60328,1,8,0:0:0:0:
256,192,60453,1,0,0:0:0:0:
256,192,60536,1,0,0:0:0:0:
256,192,60619,1,0,0:0:0:0:
256,192,60703,1,8,0:0:0:0:
256,192,60953,1,8,0:0:0:0:
256,192,61078,1,0,0:0:0:0:
256,192,61328,1,0,0:0:0:0:
256,192,61453,1,8,0:0:0:0:
256,192,61578,1,8,0:0:0:0:
256,192,61703,1,0,0:0:0:0:
256,192,61953,1,8,0:0:0:0:
256,192,62203,1,0,0:0:0:0:
256,192,62328,1,8,0:0:0:0:
256,192,62453,1,0,0:0:0:0:
256,192,62578,1,0,0:0:0:0:
256,192,62703,1,8,0:0:0:0:
256,192,62953,1,8,0:0:0:0:
256,192,63078,1,8,0:0:0:0:
256,192,63203,1,0,0:0:0:0:
256,192,63328,1,0,0:0:0:0:
256,192,63453,1,8,0:0:0:0:
256,192,63703,1,8,0:0:0:0:
256,192,63953,1,8,0:0:0:0:
256,192,64078,1,0,0:0:0:0:
256,192,64203,1,8,0:0:0:0:
256,192,64328,1,8,0:0:0:0:
256,192,64578,1,8,0:0:0:0:
256,192,64703,1,0,0:0:0:0:
256,192,64953,1,4,0:0:0:0:
256,192,65203,1,12,0:0:0:0:
256,192,65453,1,0,0:0:0:0:
256,192,65578,1,8,0:0:0:0:
256,192,65703,1,4,0:0:0:0:
256,192,65953,1,12,0:0:0:0:
256,192,66203,1,0,0:0:0:0:
256,192,66328,1,8,0:0:0:0:
256,192,66453,1,0,0:0:0:0:
256,192,66703,1,0,0:0:0:0:
256,192,66953,1,8,0:0:0:0:
256,192,67078,1,0,0:0:0:0:
256,192,67203,1,0,0:0:0:0:
256,192,67328,1,8,0:0:0:0:
256,192,67453,1,0,0:0:0:0:
256,192,67703,1,0,0:0:0:0:
256,192,67953,1,8,0:0:0:0:
256,192,68078,1,8,0:0:0:0:
256,192,68203,1,0,0:0:0:0:
256,192,68328,1,8,0:0:0:0:
256,192,68453,1,0,0:0:0:0:
256,192,68703,1,8,0:0:0:0:
256,192,68953,1,8,0:0:0:0:
256,192,69078,1,8,0:0:0:0:
256,192,69203,1,0,0:0:0:0:
256,192,69328,1,8,0:0:0:0:
256,192,69453,1,8,0:0:0:0:
256,192,69703,1,0,0:0:0:0:
256,192,69828,1,8,0:0:0:0:
256,192,69953,1,4,0:0:0:0:
256,192,70203,1,12,0:0:0:0:
256,192,70703,1,12,0:0:0:0:
256,192,70953,1,4,0:0:0:0:
256,192,71453,1,4,0:0:0:0:
256,192,71953,1,12,0:0:0:0:
256,192,72203,1,0,0:0:0:0:
256,192,72328,1,8,0:0:0:0:
256,192,72453,1,0,0:0:0:0:
256,192,72703,1,8,0:0:0:0:
256,192,72828,1,0,0:0:0:0:
256,192,72953,1,8,0:0:0:0:
256,192,73078,1,8,0:0:0:0:
256,192,73203,1,0,0:0:0:0:
256,192,73328,1,8,0:0:0:0:
256,192,73578,1,8,0:0:0:0:
256,192,73703,1,0,0:0:0:0:
256,192,73828,1,0,0:0:0:0:
256,192,73953,1,8,0:0:0:0:
256,192,74078,1,8,0:0:0:0:
256,192,74203,1,0,0:0:0:0:
256,192,74328,1,8,0:0:0:0:
256,192,74578,1,0,0:0:0:0:
256,192,74703,1,8,0:0:0:0:
256,192,74828,1,0,0:0:0:0:
256,192,74953,1,8,0:0:0:0:
256,192,75078,1,8,0:0:0:0:
256,192,75203,1,0,0:0:0:0:
256,192,75328,1,8,0:0:0:0:
256,192,75578,1,0,0:0:0:0:
256,192,75703,1,8,0:0:0:0:
256,192,75828,1,8,0:0:0:0:
256,192,75953,1,0,0:0:0:0:
256,192,76203,1,0,0:0:0:0:
256,192,76328,1,8,0:0:0:0:
256,192,76453,1,0,0:0:0:0:
256,192,76578,1,0,0:0:0:0:
256,192,76703,1,8,0:0:0:0:
256,192,76953,1,8,0:0:0:0:
256,192,77078,1,8,0:0:0:0:
256,192,77203,1,0,0:0:0:0:
256,192,77328,1,8,0:0:0:0:
256,192,77453,1,8,0:0:0:0:
256,192,77578,1,0,0:0:0:0:
256,192,77703,1,8,0:0:0:0:
256,192,77828,1,0,0:0:0:0:
256,192,77890,1,0,0:0:0:0:
256,192,77953,1,8,0:0:0:0:
256,192,78078,1,0,0:0:0:0:
256,192,78203,1,8,0:0:0:0:
256,192,78328,1,0,0:0:0:0:
256,192,78453,1,8,0:0:0:0:
256,192,78578,1,8,0:0:0:0:
256,192,78703,1,0,0:0:0:0:
256,192,78828,1,8,0:0:0:0:
256,192,78953,1,4,0:0:0:0:
256,192,79328,1,12,0:0:0:0:
256,192,79703,1,4,0:0:0:0:
256,192,80453,1,12,0:0:0:0:
256,192,80703,8,0,83453,0:0:0:0:
