osu file format v14

[General]
AudioFilename: Tenimuhou.mp3
AudioLeadIn: 0
PreviewTime: 4503
Countdown: 0
SampleSet: Soft
StackLeniency: 0.2
Mode: 0
LetterboxInBreaks: 0
WidescreenStoryboard: 1

[Editor]
DistanceSpacing: 1
BeatDivisor: 4
GridSize: 4
TimelineZoom: 1.9

[Metadata]
Title:Ten'imuhou
TitleUnicode:天衣無縫
Artist:Akiyama Uni
ArtistUnicode:あきやまうに
Creator:Hollow Wings
Version:Normal
Source:東方Project
Tags:Touhou th10.5 fxt Twilight Frontier Tasofro 黄昏フロンティア zun Scarlet Weather Rhapsody jun Flawless Clothing of the Celestials 永江衣玖 ながえ いく Nagae Iku
BeatmapID:1417593
BeatmapSetID:471440

[Difficulty]
HPDrainRate:3
CircleSize:3
OverallDifficulty:3.5
ApproachRate:4
SliderMultiplier:0.9
SliderTickRate:1

[Events]
//Background and Video events
0,0,"Tenimuhou.jpg",0,0
//Break Periods
//Storyboard Layer 0 (Background)
//Storyboard Layer 1 (Fail)
//Storyboard Layer 2 (Pass)
//Storyboard Layer 3 (Foreground)
//Storyboard Sound Samples

[TimingPoints]
-996,333.333333333333,3,2,1,100,1,0
1003,-100,3,2,1,70,0,0
5003,-100,3,2,1,100,0,1
5337,-100,3,2,1,100,0,0
21003,-100,3,2,1,100,0,1
21337,-100,3,2,1,100,0,0
37003,-100,3,2,1,70,0,0
52003,-100,3,2,1,80,0,0
52670,-100,3,2,1,90,0,0
53003,-100,3,2,1,100,0,1
53337,-100,3,2,1,100,0,0
69003,-100,3,2,1,100,0,0

[Colours]
Combo1 : 255,242,128
Combo2 : 67,109,254
Combo3 : 255,255,255
Combo4 : 251,80,70

[HitObjects]
181,225,1003,6,0,P|137:214|99:191,2,90,0|0|0,0:0|0:0|0:0,0:0:0:0:
256,273,2003,2,0,P|268:315|267:360,2,90,0|0|0,0:0|0:0|0:0,0:0:0:0:
259,182,3003,5,0,0:0:0:0:
183,132,3337,2,0,P|213:99|253:77,1,90,2|0,0:1|0:0,0:0:0:0:
328,125,4003,1,4,0:0:0:0:
394,65,4337,1,8,0:1:0:0:
460,130,4671,1,0,0:0:0:0:
486,216,5003,6,0,P|447:239|404:249,2,90,12|2|2,0:0|0:0|0:0,0:0:0:0:
460,130,6003,1,8,0:0:0:0:
394,65,6337,2,0,P|354:87|324:120,1,90,2|2,0:0|0:0,0:0:0:0:
321,209,7003,5,8,0:0:0:0:
241,165,7337,1,2,0:0:0:0:
244,75,7670,1,2,0:0:0:0:
165,117,8003,2,0,P|121:106|83:83,1,90,8|8,0:0|0:0,0:0:0:0:
7,131,8670,1,8,0:0:0:0:
31,217,9003,6,0,P|43:259|42:304,1,90,8|2,0:0|0:0,0:0:0:0:
106,367,9670,1,2,0:0:0:0:
183,323,10003,2,0,P|221:346|264:356,2,90,8|2|2,0:0|0:0|0:0,0:0:0:0:
131,248,11003,5,8,0:0:0:0:
146,159,11337,2,0,P|176:126|216:104,1,90,2|2,0:0|0:0,0:0:0:0:
299,138,12003,2,0,P|311:180|310:225,1,90,8|8,0:0|0:0,0:0:0:0:
337,311,12670,1,8,0:0:0:0:
411,361,13003,6,0,P|454:350|492:327,2,90,12|2|2,0:0|0:0|0:0,0:0:0:0:
419,271,14003,1,8,0:0:0:0:
501,235,14337,2,0,P|470:202|430:180,1,90,2|2,0:0|0:0,0:0:0:0:
424,90,15003,5,8,0:0:0:0:
336,68,15337,1,2,0:0:0:0:
291,146,15670,1,2,0:0:0:0:
347,217,16003,2,0,P|334:259|335:304,1,90,8|8,0:0|0:0,0:0:0:0:
419,271,16670,1,8,0:0:0:0:
431,180,17003,6,0,P|473:170|512:146,1,90,12|2,0:0|0:0,0:0:0:0:
443,88,17670,1,2,0:0:0:0:
358,120,18003,2,0,P|327:87|288:66,2,90,12|2|2,0:0|0:0|0:0,0:0:0:0:
345,211,19003,5,12,0:0:0:0:
358,300,19337,2,0,P|319:323|276:333,1,90,2|2,0:0|0:0,0:0:0:0:
204,280,20003,2,0,P|202:235|215:192,1,90,8|8,0:0|0:0,0:0:0:0:
125,186,20670,1,8,0:0:0:0:
69,113,21003,6,0,P|69:67|56:25,2,90,12|2|2,0:0|0:0|0:0,0:0:0:0:
35,196,22003,1,8,0:0:0:0:
125,186,22337,2,0,P|164:209|207:219,1,90,2|2,0:0|0:0,0:0:0:0:
246,138,23003,5,8,0:0:0:0:
295,213,23337,1,2,0:0:0:0:
384,208,23670,1,2,0:0:0:0:
338,132,24003,2,0,P|338:86|325:43,1,90,8|8,0:0|0:0,0:0:0:0:
413,23,24670,1,8,0:0:0:0:
459,100,25003,6,0,P|457:144|471:187,1,90,8|2,0:0|0:0,0:0:0:0:
449,274,25670,1,2,0:0:0:0:
362,297,26003,2,0,P|324:320|281:330,2,90,8|2|2,0:0|0:0|0:0,0:0:0:0:
384,208,27003,1,8,0:0:0:0:
338,132,27337,6,0,P|308:99|268:77,1,90,2|2,0:0|0:0,0:0:0:0:
187,115,28003,2,0,P|175:157|176:202,1,90,8|8,0:0|0:0,0:0:0:0:
227,277,28670,1,8,0:0:0:0:
300,328,29003,6,0,P|261:351|218:362,2,90,12|2|2,0:0|0:0|0:0,0:0:0:0:
227,277,30003,1,8,0:0:0:0:
146,317,30337,2,0,P|114:284|75:263,1,90,2|2,0:0|0:0,0:0:0:0:
97,176,31003,5,8,0:0:0:0:
184,199,31337,1,2,0:0:0:0:
227,277,31670,1,2,0:0:0:0:
316,266,32003,2,0,P|329:308|328:353,1,90,8|8,0:0|0:0,0:0:0:0:
412,322,32670,1,8,0:0:0:0:
462,246,33003,6,0,P|418:235|380:212,1,90,12|2,0:0|0:0,0:0:0:0:
343,130,33670,1,2,0:0:0:0:
257,158,34003,2,0,P|217:179|187:212,2,90,12|2|2,0:0|0:0|0:0,0:0:0:0:
275,74,35003,5,12,0:0:0:0:
343,130,35337,2,0,P|381:153|424:163,1,90,2|2,0:0|0:0,0:0:0:0:
489,226,36003,2,0,P|501:268|499:313,1,90,8|8,0:0|0:0,0:0:0:0:
418,354,36670,1,8,0:0:0:0:
337,314,37003,6,0,B|206:323|206:323|78:269,1,270,2|0,0:1|0:0,0:0:0:0:
104,183,38337,1,8,0:1:0:0:
185,145,38670,1,0,0:0:0:0:
211,59,39003,2,0,B|143:64|143:64|82:92,2,135,0|0|0,0:0|0:0|0:0,0:0:0:0:
174,235,40670,1,0,0:0:0:0:
247,286,41003,6,0,B|320:177|320:177|337:39,1,270,2|0,0:1|0:0,0:0:0:0:
248,24,42337,1,8,0:1:0:0:
236,113,42670,1,0,0:0:0:0:
154,151,43003,2,0,B|109:162|109:162|73:187,2,90,0|0|0,0:0|0:0|0:0,0:0:0:0:
201,227,44003,1,0,0:0:0:0:
285,200,44337,1,0,0:0:0:0:
340,271,44670,1,0,0:0:0:0:
430,286,45003,6,0,B|412:148|412:148|339:39,1,270,2|0,0:1|0:0,0:0:0:0:
286,112,46337,1,8,0:1:0:0:
196,99,46670,1,0,0:0:0:0:
143,171,47003,2,0,B|74:176|74:176|14:204,2,135,0|0|0,0:0|0:0|0:0,0:0:0:0:
321,195,48670,1,0,0:0:0:0:
270,269,49003,6,0,B|308:326|308:326|363:363,2,135,8|0|8,0:1|0:0|0:1,0:0:0:0:
461,80,51003,2,0,B|371:83|371:83|286:112,1,180,2|0,0:1|0:0,0:0:0:0:
196,99,52003,2,0,B|151:88|151:88|115:62,2,90,0|8|8,0:0|0:1|0:0,0:0:0:0:
230,182,53003,6,0,P|211:269|170:349,1,180,12|2,0:0|0:0,0:0:0:0:
258,368,54003,2,0,P|343:339|432:335,1,180,8|2,0:0|0:0,0:0:0:0:
412,247,55003,6,0,P|376:219|346:186,2,90,8|2|2,0:0|0:0|0:0,0:0:0:0:
433,336,56003,1,8,0:0:0:0:
346,310,56337,2,0,P|302:319|260:336,1,90,8|8,0:0|0:0,0:0:0:0:
200,269,57003,6,0,P|111:265|26:237,1,180,8|2,0:0|0:0,0:0:0:0:
18,146,58003,2,0,P|51:116|91:94,1,90,8|2,0:0|0:0,0:0:0:0:
115,180,58670,1,2,0:0:0:0:
176,115,59003,6,0,P|177:70|168:27,2,90,8|2|2,0:0|0:0|0:0,0:0:0:0:
259,150,60003,1,8,0:0:0:0:
196,216,60337,2,0,P|153:202|114:178,1,90,8|8,0:0|0:0,0:0:0:0:
85,264,61003,6,0,P|170:292|259:296,1,180,12|2,0:0|0:0,0:0:0:0:
332,243,62003,1,8,0:0:0:0:
250,205,62337,2,0,P|283:175|323:153,1,90,2|2,0:0|0:0,0:0:0:0:
405,189,63003,6,0,P|413:232|412:277,2,90,8|2|2,0:0|0:0|0:0,0:0:0:0:
323,153,64003,1,8,0:0:0:0:
280,73,64337,1,8,0:0:0:0:
194,102,64670,1,8,0:0:0:0:
116,56,65003,6,0,P|97:143|56:223,1,180,12|2,0:0|0:0,0:0:0:0:
84,309,66003,2,0,P|123:330|156:360,2,90,8|6|2,0:0|0:0|0:0,0:0:0:0:
146,244,67003,5,12,0:0:0:0:
235,233,67337,2,0,P|225:276|226:321,1,90,2|2,0:0|0:0,0:0:0:0:
308,284,68003,1,8,0:0:0:0:
317,194,68337,1,8,0:0:0:0:
390,246,68670,6,0,P|432:232|471:209,1,90,8|12,0:0|0:0,0:0:0:0:
