osu file format v14

[General]
AudioFilename: Tenimuhou.mp3
AudioLeadIn: 0
PreviewTime: 4503
Countdown: 0
SampleSet: Soft
StackLeniency: 0.2
Mode: 0
LetterboxInBreaks: 0
WidescreenStoryboard: 1

[Editor]
DistanceSpacing: 1.5
BeatDivisor: 4
GridSize: 4
TimelineZoom: 1.9

[Metadata]
Title:Ten'imuhou
TitleUnicode:天衣無縫
Artist:Akiyama Uni
ArtistUnicode:あきやまうに
Creator:Hollow Wings
Version:Hard
Source:東方Project
Tags:Touhou th10.5 fxt Twilight Frontier Tasofro 黄昏フロンティア zun Scarlet Weather Rhapsody jun Flawless Clothing of the Celestials 永江衣玖 ながえ いく Nagae Iku
BeatmapID:1417471
BeatmapSetID:471440

[Difficulty]
HPDrainRate:4
CircleSize:4
OverallDifficulty:5
ApproachRate:8
SliderMultiplier:1.2
SliderTickRate:1

[Events]
//Background and Video events
0,0,"Tenimuhou.jpg",0,0
//Break Periods
//Storyboard Layer 0 (Background)
//Storyboard Layer 1 (Fail)
//Storyboard Layer 2 (Pass)
//Storyboard Layer 3 (Foreground)
//Storyboard Sound Samples

[TimingPoints]
-996,333.333333333333,3,2,1,100,1,0
1003,-100,3,2,1,70,0,0
5003,-100,3,2,1,100,0,1
5337,-100,3,2,1,100,0,0
21003,-100,3,2,1,100,0,1
21337,-100,3,2,1,100,0,0
37003,-100,3,2,1,70,0,0
52003,-100,3,2,1,80,0,0
52670,-100,3,2,1,90,0,0
53003,-100,3,2,1,100,0,1
53337,-100,3,2,1,100,0,0
69003,-100,3,2,1,100,0,0

[Colours]
Combo1 : 255,242,128
Combo2 : 67,109,254
Combo3 : 255,255,255
Combo4 : 251,80,70

[HitObjects]
117,275,1003,6,0,P|102:249|97:220,1,60,0|0,0:0|0:0,0:0:0:0:
138,44,1503,1,0,0:0:0:0:
195,215,1837,1,0,0:0:0:0:
185,125,2003,6,0,P|214:125|243:134,1,60,0|0,0:0|0:0,0:0:0:0:
375,258,2503,1,0,0:0:0:0:
195,215,2837,1,0,0:0:0:0:
271,260,3003,6,0,P|259:318|231:371,2,120,0|2|0,0:0|0:1|0:0,0:0:0:0:
308,83,4003,1,4,0:0:0:0:
393,111,4170,1,0,0:0:0:0:
325,170,4337,1,8,0:1:0:0:
415,325,4670,1,0,0:0:0:0:
459,150,5003,6,0,P|414:189|382:240,1,120,12|2,0:0|0:0,0:0:0:0:
210,295,5670,1,2,0:0:0:0:
142,235,5837,1,2,0:0:0:0:
226,205,6003,2,0,P|213:146|185:93,1,120,8|2,0:0|0:0,0:0:0:0:
120,31,6503,1,8,0:0:0:0:
117,122,6671,2,0,P|88:131|58:132,1,60,2|2,0:0|0:0,0:0:0:0:
25,215,7003,6,0,P|81:233|141:235,1,120,8|2,0:0|0:0,0:0:0:0:
311,168,7670,1,2,0:0:0:0:
368,98,7837,1,2,0:0:0:0:
280,83,8003,2,0,P|235:122|203:173,1,120,8|8,0:0|0:0,0:0:0:0:
92,315,8670,1,8,0:0:0:0:
180,335,8837,1,2,0:0:0:0:
263,368,9003,6,0,P|251:309|223:256,1,120,8|2,0:0|0:0,0:0:0:0:
351,138,9670,1,2,0:0:0:0:
364,49,9837,1,2,0:0:0:0:
280,83,10003,2,0,P|235:122|203:173,1,120,8|2,0:0|0:0,0:0:0:0:
224,256,10503,1,8,0:0:0:0:
140,292,10671,2,0,P|110:292|80:284,1,60,2|2,0:0|0:0,0:0:0:0:
25,215,11003,1,8,0:0:0:0:
25,215,11337,6,0,P|81:233|141:235,1,120,2|2,0:0|0:0,0:0:0:0:
203,172,11837,1,2,0:0:0:0:
223,256,12003,2,0,P|251:309|263:368,2,120,8|8|8,0:0|0:0|0:0,0:0:0:0:
142,235,12837,1,2,0:0:0:0:
203,172,13003,6,0,P|234:122|280:83,1,120,12|2,0:0|0:0,0:0:0:0:
436,173,13670,1,2,0:0:0:0:
368,233,13837,1,2,0:0:0:0:
352,143,14003,2,0,P|365:84|393:31,1,120,8|2,0:0|0:0,0:0:0:0:
482,19,14503,1,8,0:0:0:0:
495,108,14671,2,0,P|466:117|436:118,1,60,2|2,0:0|0:0,0:0:0:0:
352,143,15003,6,0,P|296:161|236:163,1,120,8|2,0:0|0:0,0:0:0:0:
63,217,15670,1,2,0:0:0:0:
9,147,15837,1,2,0:0:0:0:
94,132,16003,2,0,P|139:171|171:222,1,120,8|8,0:0|0:0,0:0:0:0:
170,221,16670,1,8,0:0:0:0:
146,308,16837,1,2,0:0:0:0:
216,362,17003,6,0,P|227:303|255:250,1,120,12|2,0:0|0:0,0:0:0:0:
426,194,17670,1,2,0:0:0:0:
343,230,17837,1,2,0:0:0:0:
352,143,18003,2,0,P|296:161|236:163,1,120,12|2,0:0|0:0,0:0:0:0:
202,78,18503,1,8,0:0:0:0:
117,43,18671,2,0,P|87:42|57:50,1,60,2|0,0:0|0:0,0:0:0:0:
94,132,19003,1,12,0:0:0:0:
94,132,19337,6,0,P|139:171|171:222,1,120,2|2,0:0|0:0,0:0:0:0:
235,163,19837,1,2,0:0:0:0:
255,250,20003,2,0,P|227:303|216:362,2,120,8|8|8,0:0|0:0|0:0,0:0:0:0:
235,163,20837,1,2,0:0:0:0:
312,118,21003,6,0,P|267:79|235:28,1,120,12|2,0:0|0:0,0:0:0:0:
400,100,21670,1,2,0:0:0:0:
312,118,21837,1,2,0:0:0:0:
371,184,22003,2,0,P|358:243|330:296,1,120,8|2,0:0|0:0,0:0:0:0:
259,351,22503,1,8,0:0:0:0:
171,327,22671,2,0,P|142:318|112:317,1,60,2|2,0:0|0:0,0:0:0:0:
50,252,23003,6,0,P|106:234|166:232,1,120,8|2,0:0|0:0,0:0:0:0:
347,207,23670,1,2,0:0:0:0:
414,268,23837,1,2,0:0:0:0:
330,295,24003,2,0,P|285:256|253:205,1,120,8|8,0:0|0:0,0:0:0:0:
378,75,24670,1,8,0:0:0:0:
314,11,24837,1,2,0:0:0:0:
226,32,25003,6,0,P|214:91|186:144,1,120,8|2,0:0|0:0,0:0:0:0:
8,172,25670,1,2,0:0:0:0:
98,177,25837,1,2,0:0:0:0:
50,252,26003,2,0,P|106:234|166:232,1,120,8|2,0:0|0:0,0:0:0:0:
253,205,26503,1,8,0:0:0:0:
341,226,26671,2,0,P|369:218|399:218,1,60,2|2,0:0|0:0,0:0:0:0:
475,170,27003,1,8,0:0:0:0:
501,348,27337,6,0,P|444:329|384:328,1,120,2|2,0:0|0:0,0:0:0:0:
297,304,27837,1,2,0:0:0:0:
341,226,28003,2,0,P|385:185|416:134,2,120,8|8|8,0:0|0:0|0:0,0:0:0:0:
297,304,28837,1,2,0:0:0:0:
214,341,29003,6,0,P|182:289|167:232,1,120,12|2,0:0|0:0,0:0:0:0:
13,138,29670,1,2,0:0:0:0:
7,48,29837,1,2,0:0:0:0:
95,35,30003,2,0,P|108:94|136:147,1,120,8|2,0:0|0:0,0:0:0:0:
224,161,30503,1,8,0:0:0:0:
269,82,30671,2,0,P|298:83|327:92,1,60,2|2,0:0|0:0,0:0:0:0:
340,180,31003,6,0,P|284:162|224:160,1,120,8|2,0:0|0:0,0:0:0:0:
61,240,31670,1,2,0:0:0:0:
2,308,31837,1,2,0:0:0:0:
90,322,32003,2,0,P|135:283|167:232,1,120,8|8,0:0|0:0,0:0:0:0:
34,109,32670,1,8,0:0:0:0:
6,22,32837,1,2,0:0:0:0:
95,35,33003,6,0,P|108:94|136:147,1,120,12|2,0:0|0:0,0:0:0:0:
228,300,33670,1,2,0:0:0:0:
311,265,33837,1,2,0:0:0:0:
340,180,34003,2,0,P|284:162|224:160,1,120,12|2,0:0|0:0,0:0:0:0:
166,232,34503,1,8,0:0:0:0:
228,299,34671,2,0,P|203:316|173:321,1,60,2|0,0:0|0:0,0:0:0:0:
166,232,35003,5,12,0:0:0:0:
136,146,35170,1,2,0:0:0:0:
95,35,35337,2,0,P|154:37|211:56,1,120,2|2,0:0|0:0,0:0:0:0:
290,100,35837,1,2,0:0:0:0:
223,160,36003,2,0,P|234:218|262:271,2,120,8|8|8,0:0|0:0|0:0,0:0:0:0:
290,100,36837,1,2,0:0:0:0:
379,98,37003,6,0,B|414:142|414:142|428:204,1,120,2|0,0:1|0:0,0:0:0:0:
378,281,37503,2,0,B|322:289|322:289|261:270,1,120,0|0,0:0|0:0,0:0:0:0:
327,209,38003,1,0,0:0:0:0:
151,249,38337,1,8,0:1:0:0:
327,209,38670,1,0,0:0:0:0:
71,228,39003,6,0,B|50:175|50:175|5:132,1,120
244,158,39503,2,0,B|183:177|183:177|128:169,1,120
151,249,40003,2,0,B|116:293|116:293|101:355,2,120
151,249,40837,1,0,0:0:0:0:
204,175,41003,6,0,B|264:193|264:193|320:185,1,120,2|0,0:1|0:0,0:0:0:0:
389,243,41503,2,0,B|424:287|424:287|438:349,1,120,0|0,0:0|0:0,0:0:0:0:
351,323,42003,1,0,0:0:0:0:
405,152,42337,1,8,0:1:0:0:
351,323,42670,1,0,0:0:0:0:
229,190,43003,5,0,0:0:0:0:
405,152,43336,1,0,0:0:0:0:
405,152,43670,2,0,B|419:89|419:89|454:45,1,120,0|0,0:0|0:0,0:0:0:0:
454,45,44337,1,0,0:0:0:0:
492,220,44669,1,0,0:0:0:0:
351,323,45003,6,0,B|336:260|336:260|301:216,1,120,2|0,0:1|0:0,0:0:0:0:
217,185,45503,2,0,B|161:193|161:193|100:174,1,120,0|0,0:0|0:0,0:0:0:0:
164,111,46003,1,0,0:0:0:0:
230,277,46337,1,8,0:1:0:0:
164,111,46670,1,0,0:0:0:0:
339,73,47003,6,0,B|374:117|374:117|388:179,1,120,0|0,0:0|0:0,0:0:0:0:
229,276,47503,2,0,B|250:224|250:224|297:181,1,120,0|0,0:0|0:0,0:0:0:0:
343,258,48003,2,0,B|403:276|403:276|459:268,2,120,0|2|0,0:0|0:1|0:0,0:0:0:0:
297,181,48837,1,0,0:0:0:0:
388,179,49003,6,0,B|373:116|373:116|338:72,1,120,8|0,0:1|0:0,0:0:0:0:
297,181,49503,2,0,B|250:224|250:224|229:276,1,120,0|0,0:0|0:0,0:0:0:0:
343,258,50003,2,0,B|403:276|403:276|459:268,1,120,8|0,0:1|0:0,0:0:0:0:
388,179,50503,2,0,B|373:116|373:116|338:72,1,120,0|0,0:0|0:0,0:0:0:0:
297,181,51003,6,0,B|250:224|250:224|229:276,2,120,2|0|0,0:1|0:0|0:0,0:0:0:0:
388,179,51837,1,0,0:0:0:0:
297,181,52003,2,0,L|272:126,1,60,0|0,0:0|0:0,0:0:0:0:
198,73,52337,2,0,L|138:66,1,60,8|0,0:1|0:0,0:0:0:0:
55,103,52670,1,8,0:0:0:0:
68,13,52837,1,0,0:0:0:0:
55,103,53003,6,0,P|102:138|158:160,1,120,12|2,0:0|0:0,0:0:0:0:
239,321,53670,1,2,0:0:0:0:
154,354,53837,1,2,0:0:0:0:
239,321,54003,2,0,P|245:262|236:203,1,120,8|2,0:0|0:0,0:0:0:0:
395,117,54670,2,0,P|419:91|425:63,1,60,2|2,0:0|0:0,0:0:0:0:
336,51,55003,6,0,P|282:74|235:111,1,120,8|2,0:0|0:0,0:0:0:0:
239,321,55503,2,0,P|245:262|236:203,1,120,8|2,0:0|0:0,0:0:0:0:
55,103,56003,2,0,P|102:138|158:160,2,120,8|8|8,0:0|0:0|0:0,0:0:0:0:
68,13,56837,1,2,0:0:0:0:
156,41,57003,6,0,P|165:100|158:159,1,120,8|2,0:0|0:0,0:0:0:0:
338,142,57670,1,2,0:0:0:0:
409,198,57837,1,2,0:0:0:0:
341,260,58003,2,0,P|285:238|237:202,1,120,8|2,0:0|0:0,0:0:0:0:
56,209,58670,2,0,P|59:179|68:150,1,60,2|2,0:0|0:0,0:0:0:0:
106,262,59003,6,0,P|134:253|159:239,1,60,8|2,0:0|0:0,0:0:0:0:
216,127,59337,2,0,P|208:155|209:186,1,60,2|8,0:0|0:0,0:0:0:0:
276,291,59670,2,0,P|253:270|227:254,1,60,2|2,0:0|0:0,0:0:0:0:
106,262,60003,2,0,P|131:246|159:238,1,60,8|2,0:0|0:0,0:0:0:0:
217,126,60337,2,0,P|215:156|209:186,1,60,8|0,0:0|0:0,0:0:0:0:
276,291,60670,2,0,P|250:276|229:255,1,60,8|2,0:0|0:0,0:0:0:0:
106,262,61003,6,0,P|52:285|5:322,1,120,12|2,0:0|0:0,0:0:0:0:
76,157,61670,1,2,0:0:0:0:
229,254,62003,2,0,P|276:289|332:311,1,120,8|2,0:0|0:0,0:0:0:0:
152,305,62670,2,0,P|139:275|138:240,1,60,2|2,0:0|0:0,0:0:0:0:
163,161,63003,6,0,P|169:102|160:43,1,120,8|2,0:0|0:0,0:0:0:0:
240,0,63503,2,0,P|287:35|343:57,1,120,8|2,0:0|0:0,0:0:0:0:
345,147,64003,2,0,P|291:170|244:207,2,120,8|8|8,0:0|0:0|0:0,0:0:0:0:
422,100,64837,1,2,0:0:0:0:
428,189,65003,6,0,P|437:248|430:307,1,120,12|2,0:0|0:0,0:0:0:0:
347,265,65503,2,0,P|291:243|243:207,1,120,8|2,0:0|0:0,0:0:0:0:
320,161,66003,2,0,P|366:123|421:99,2,120,8|6|2,0:0|0:0|0:0,0:0:0:0:
243,208,66837,1,2,0:0:0:0:
320,161,67003,5,12,0:0:0:0:
241,119,67170,1,2,0:0:0:0:
243,208,67337,2,0,P|252:267|245:326,2,120,2|2|8,0:0|0:0|0:0,0:0:0:0:
241,119,68170,1,2,0:0:0:0:
320,161,68337,1,8,0:0:0:0:
243,208,68503,1,2,0:0:0:0:
153,205,68670,6,0,P|97:183|49:147,1,120,8|12,0:0|0:0,0:0:0:0:
