osu file format v14

[General]
AudioFilename: audio.mp3
AudioLeadIn: 0
PreviewTime: 30016
Countdown: 0
SampleSet: Normal
StackLeniency: 0.7
Mode: 1
LetterboxInBreaks: 0
WidescreenStoryboard: 1

[Editor]
DistanceSpacing: 0.5
BeatDivisor: 4
GridSize: 32
TimelineZoom: 1

[Metadata]
Title:Shinkirou Hayashi (Short Ver.)
TitleUnicode:心綺楼囃子 (Short Ver.)
Artist:Akiyama Uni
ArtistUnicode:あきやまうに
Creator:Yasuho
Version:Muzukashii
Source:東方心綺楼 ~ Hopeless Masquerade.
Tags:東方Project Touhou Orchestra Title Screen 13.5 Tasofro JUN ZUN Twilight Frontier Team Shanghai Alice [R] ron th13.5 U2 video game instrumental myangellain
BeatmapID:2223890
BeatmapSetID:1062041

[Difficulty]
HPDrainRate:7
CircleSize:2
OverallDifficulty:5
ApproachRate:10
SliderMultiplier:1.4
SliderTickRate:1

[Events]
//Background and Video events
0,0,"PqTRCJj.png",0,75
//Break Periods
//Storyboard Layer 0 (Background)
//Storyboard Layer 1 (Fail)
//Storyboard Layer 2 (Pass)
//Storyboard Layer 3 (Foreground)
//Storyboard Layer 4 (Overlay)
//Storyboard Sound Samples

[TimingPoints]
516,500,4,1,0,70,1,0
516,-83.3333333333333,4,1,0,70,0,0
30516,-76.9230769230769,4,1,0,70,0,1
36516,-76.9230769230769,4,1,0,70,0,0
38516,-76.9230769230769,4,1,0,70,0,1
44516,-76.9230769230769,4,1,0,70,0,0
46516,-76.9230769230769,4,1,0,70,0,1
48516,-76.9230769230769,4,1,0,70,0,0

[HitObjects]
256,192,516,5,4,0:0:0:0:
256,192,766,1,4,0:0:0:0:
256,192,1016,1,8,0:0:0:0:
256,192,1391,1,8,0:0:0:0:
256,192,1516,1,8,0:0:0:0:
256,192,1766,1,0,0:0:0:0:
256,192,2016,1,8,0:0:0:0:
256,184,2516,1,4,0:0:0:0:
256,184,2766,1,4,0:0:0:0:
231,192,3016,1,8,0:0:0:0:
256,184,3516,1,8,0:0:0:0:
256,184,3766,1,8,0:0:0:0:
256,184,4016,1,8,0:0:0:0:
256,184,4516,1,4,0:0:0:0:
256,184,4766,1,4,0:0:0:0:
256,184,5016,1,8,0:0:0:0:
216,188,5391,1,8,0:0:0:0:
256,184,5516,1,8,0:0:0:0:
256,184,5766,1,0,0:0:0:0:
256,184,6016,1,8,0:0:0:0:
256,184,6516,1,0,0:0:0:0:
256,184,7266,1,0,0:0:0:0:
256,192,7391,1,8,0:0:0:0:
256,184,7516,1,8,0:0:0:0:
256,184,8016,1,8,0:0:0:0:
256,184,8266,1,0,0:0:0:0:
256,184,8516,1,8,0:0:0:0:
260,177,9016,1,8,0:0:0:0:
260,177,9516,1,0,0:0:0:0:
260,177,10016,1,0,0:0:0:0:
260,177,10266,1,8,0:0:0:0:
260,177,10516,1,12,0:0:0:0:
260,177,11266,1,0,0:0:0:0:
264,184,11516,1,8,0:0:0:0:
245,182,11766,1,8,0:0:0:0:
264,184,12016,1,8,0:0:0:0:
264,184,12266,1,0,0:0:0:0:
264,184,12516,1,8,0:0:0:0:
264,184,13016,1,8,0:0:0:0:
245,188,13266,1,0,0:0:0:0:
256,192,13516,1,8,0:0:0:0:
256,192,14016,1,8,0:0:0:0:
256,192,14516,1,4,0:0:0:0:
256,192,15516,1,8,0:0:0:0:
256,192,15766,1,8,0:0:0:0:
256,192,16016,1,8,0:0:0:0:
256,192,16516,1,8,0:0:0:0:
256,192,16766,1,8,0:0:0:0:
256,192,17016,1,0,0:0:0:0:
256,192,17266,1,0,0:0:0:0:
256,192,17516,1,8,0:0:0:0:
256,192,18016,1,8,0:0:0:0:
256,192,18266,1,0,0:0:0:0:
256,192,18516,1,0,0:0:0:0:
256,192,19391,1,0,0:0:0:0:
256,192,19516,1,0,0:0:0:0:
256,192,19766,1,8,0:0:0:0:
256,192,19891,1,8,0:0:0:0:
256,192,20016,1,8,0:0:0:0:
256,192,20516,1,8,0:0:0:0:
256,192,20766,1,8,0:0:0:0:
256,192,21016,1,0,0:0:0:0:
256,192,21266,1,0,0:0:0:0:
256,192,21516,1,8,0:0:0:0:
256,192,22516,1,0,0:0:0:0:
256,192,23516,1,0,0:0:0:0:
256,192,23766,1,8,0:0:0:0:
256,192,23891,1,8,0:0:0:0:
256,192,24016,1,8,0:0:0:0:
256,192,24516,1,8,0:0:0:0:
256,192,24766,1,8,0:0:0:0:
256,192,25016,1,0,0:0:0:0:
256,192,25266,1,0,0:0:0:0:
256,192,25516,1,8,0:0:0:0:
256,192,26266,1,8,0:0:0:0:
256,192,26516,1,0,0:0:0:0:
256,192,27016,1,8,0:0:0:0:
256,192,27516,1,8,0:0:0:0:
256,192,28016,1,8,0:0:0:0:
256,192,28141,1,8,0:0:0:0:
256,192,28516,1,0,0:0:0:0:
246,208,29391,1,8,0:0:0:0:
256,192,29516,1,0,0:0:0:0:
256,192,29766,1,8,0:0:0:0:
256,192,30016,1,8,0:0:0:0:
256,192,30516,1,4,0:0:0:0:
256,192,30766,1,4,0:0:0:0:
256,192,31141,1,8,0:0:0:0:
256,192,31266,1,8,0:0:0:0:
256,192,31516,1,0,0:0:0:0:
256,192,31766,1,8,0:0:0:0:
256,192,31891,1,8,0:0:0:0:
256,192,32266,1,8,0:0:0:0:
256,192,32516,1,4,0:0:0:0:
256,192,32766,1,4,0:0:0:0:
256,192,33141,1,8,0:0:0:0:
256,192,33266,1,0,0:0:0:0:
256,192,33516,1,8,0:0:0:0:
256,192,33766,1,0,0:0:0:0:
236,190,33891,1,8,0:0:0:0:
256,192,34141,1,0,0:0:0:0:
251,186,34266,1,8,0:0:0:0:
252,186,34516,1,4,0:0:0:0:
253,185,34766,1,4,0:0:0:0:
256,192,35141,1,8,0:0:0:0:
251,186,35266,1,8,0:0:0:0:
252,186,35516,1,8,0:0:0:0:
251,186,36016,1,0,0:0:0:0:
252,186,36516,1,4,0:0:0:0:
251,186,37016,1,8,0:0:0:0:
256,192,37516,1,0,0:0:0:0:
251,186,37891,1,8,0:0:0:0:
251,186,38016,1,8,0:0:0:0:
256,192,38266,1,8,0:0:0:0:
256,192,38516,1,4,0:0:0:0:
251,186,38766,1,4,0:0:0:0:
256,192,39141,1,8,0:0:0:0:
256,192,39266,1,8,0:0:0:0:
256,192,39516,1,0,0:0:0:0:
256,192,39766,1,8,0:0:0:0:
214,168,39891,1,8,0:0:0:0:
256,192,40266,1,8,0:0:0:0:
256,192,40516,1,4,0:0:0:0:
256,192,40766,1,4,0:0:0:0:
256,192,41141,1,8,0:0:0:0:
256,192,41266,1,0,0:0:0:0:
256,192,41516,1,8,0:0:0:0:
256,192,41766,1,8,0:0:0:0:
270,190,41891,1,8,0:0:0:0:
270,190,42141,1,8,0:0:0:0:
256,192,42266,1,0,0:0:0:0:
256,192,42516,1,0,0:0:0:0:
256,192,43141,1,0,0:0:0:0:
256,192,43266,1,8,0:0:0:0:
256,192,43516,1,8,0:0:0:0:
224,192,44016,1,0,0:0:0:0:
256,192,44266,1,8,0:0:0:0:
256,192,44516,12,4,46266,0:0:0:0:
256,192,46516,5,12,0:0:0:0:
256,192,46891,1,12,0:0:0:0:
256,192,47266,1,12,0:0:0:0:
256,192,47516,1,12,0:0:0:0:
256,192,47891,1,0,0:0:0:0:
256,192,48016,1,0,0:0:0:0:
256,192,48266,1,0,0:0:0:0:
256,192,48516,1,12,0:0:0:0:
256,192,48766,1,0,0:0:0:0:
256,192,49016,1,8,0:0:0:0:
256,192,49266,1,0,0:0:0:0:
256,192,49516,1,0,0:0:0:0:
256,192,50266,1,8,0:0:0:0:
256,192,50516,1,0,0:0:0:0:
256,192,50766,1,0,0:0:0:0:
256,192,51016,1,8,0:0:0:0:
256,192,51266,1,0,0:0:0:0:
256,192,51516,1,0,0:0:0:0:
256,192,52016,1,0,0:0:0:0:
256,192,52266,1,8,0:0:0:0:
256,192,52516,1,8,0:0:0:0:
245,182,52766,1,0,0:0:0:0:
256,192,53016,1,8,0:0:0:0:
178,164,53516,1,8,0:0:0:0:
256,192,54016,1,0,0:0:0:0:
256,192,54266,1,0,0:0:0:0:
256,192,54516,1,8,0:0:0:0:
256,192,55016,1,0,0:0:0:0:
256,192,55266,1,0,0:0:0:0:
256,192,55516,1,0,0:0:0:0:
256,192,55766,1,8,0:0:0:0:
256,192,56016,1,0,0:0:0:0:
256,192,56516,1,8,0:0:0:0:
256,192,56766,1,8,0:0:0:0:
256,192,57016,1,0,0:0:0:0:
256,192,57516,1,8,0:0:0:0:
256,192,57766,1,0,0:0:0:0:
256,192,58016,1,8,0:0:0:0:
256,192,58516,1,8,0:0:0:0:
256,192,59016,1,0,0:0:0:0:
256,192,59266,1,8,0:0:0:0:
256,192,59516,1,0,0:0:0:0:
256,192,60266,1,0,0:0:0:0:
256,192,60516,1,8,0:0:0:0:
256,192,60766,1,0,0:0:0:0:
256,192,61016,1,8,0:0:0:0:
256,192,61516,1,8,0:0:0:0:
256,192,61766,1,0,0:0:0:0:
256,192,62016,1,8,0:0:0:0:
256,192,62516,1,8,0:0:0:0:
256,192,62766,1,0,0:0:0:0:
256,192,63016,1,8,0:0:0:0:
256,192,63516,1,8,0:0:0:0:
256,192,64016,1,0,0:0:0:0:
256,192,64516,1,4,0:0:0:0:
256,192,64766,1,4,0:0:0:0:
256,192,65016,1,8,0:0:0:0:
256,192,65391,1,8,0:0:0:0:
256,192,65516,1,0,0:0:0:0:
256,192,65766,1,0,0:0:0:0:
256,192,66016,1,8,0:0:0:0:
256,184,66516,1,4,0:0:0:0:
256,184,66766,1,4,0:0:0:0:
231,192,67016,1,8,0:0:0:0:
256,184,67516,1,8,0:0:0:0:
256,184,67766,1,8,0:0:0:0:
256,184,68016,1,8,0:0:0:0:
256,184,68516,1,4,0:0:0:0:
256,184,68766,1,4,0:0:0:0:
256,184,69016,1,8,0:0:0:0:
256,192,69391,1,8,0:0:0:0:
256,192,69516,1,0,0:0:0:0:
256,192,69766,1,0,0:0:0:0:
256,192,70016,1,8,0:0:0:0:
256,192,70516,1,4,0:0:0:0:
256,192,71266,1,0,0:0:0:0:
256,192,71516,1,8,0:0:0:0:
256,192,71766,1,8,0:0:0:0:
256,192,72016,1,0,0:0:0:0:
256,192,72266,1,0,0:0:0:0:
256,192,72516,1,8,0:0:0:0:
256,192,73016,1,8,0:0:0:0:
256,192,73516,1,4,0:0:0:0:
256,192,74016,1,8,0:0:0:0:
256,192,74141,1,8,0:0:0:0:
256,192,74266,1,8,0:0:0:0:
256,192,74516,1,8,0:0:0:0:
256,192,75016,1,0,0:0:0:0:
256,192,75266,1,0,0:0:0:0:
256,192,75516,1,8,0:0:0:0:
233,197,75766,1,0,0:0:0:0:
256,192,76016,1,8,0:0:0:0:
256,192,76266,1,8,0:0:0:0:
256,192,76516,1,0,0:0:0:0:
256,192,77016,1,8,0:0:0:0:
256,192,77266,1,0,0:0:0:0:
256,192,77516,1,12,0:0:0:0:
