osu file format v14

[General]
AudioFilename: audio.mp3
AudioLeadIn: 0
PreviewTime: 396
Countdown: 0
SampleSet: Soft
StackLeniency: 0.7
Mode: 0
LetterboxInBreaks: 0
WidescreenStoryboard: 0

[Editor]
DistanceSpacing: 1
BeatDivisor: 4
GridSize: 4
TimelineZoom: 1.7

[Metadata]
Title:Shinkirou Bayashi (Short Version)
TitleUnicode:心綺楼囃子 (Short Version)
Artist:Akiyama Uni
ArtistUnicode:あきやまうに
Creator:PEPOTTI
Version:Extra
Source:
Tags:
BeatmapID:1514517
BeatmapSetID:716777

[Difficulty]
HPDrainRate:6
CircleSize:3.5
OverallDifficulty:8.5
ApproachRate:9.5
SliderMultiplier:2
SliderTickRate:1

[Events]
//Background and Video events
0,0,"kokoro.jpg",0,0
//Break Periods
//Storyboard Layer 0 (Background)
//Storyboard Layer 1 (Fail)
//Storyboard Layer 2 (Pass)
//Storyboard Layer 3 (Foreground)
//Storyboard Sound Samples

[TimingPoints]
521,250,4,2,1,70,1,0
9958,-200,4,2,1,70,0,0
10458,-100,4,2,1,70,0,0
13958,-200,4,2,1,70,0,0
14458,-100,4,2,1,70,0,0
26458,-133.333333333333,4,2,1,70,0,0
28458,-200,4,2,1,70,0,0
29458,-100,4,2,1,70,0,0
30458,-66.6666666666667,4,2,1,70,0,0
30958,-100,4,2,1,70,0,0
32458,-76.9230769230769,4,2,1,70,0,0
32958,-100,4,2,1,70,0,0
34458,-90.9090909090909,4,2,1,70,0,0
34958,-100,4,2,1,70,0,0
38458,-66.6666666666667,4,2,1,70,0,0
38958,-100,4,2,1,70,0,0

[Colours]
Combo1 : 32,164,78
Combo2 : 223,98,154
Combo3 : 150,248,231

[HitObjects]
48,232,521,6,0,L|147:220,1,99.9999952316285
384,264,771,2,0,L|483:252,1,99.9999952316285
216,56,1021,1,0,0:0:0:0:
216,56,1083,1,0,0:0:0:0:
216,56,1146,1,0,0:0:0:0:
236,156,1271,1,0,0:0:0:0:
139,123,1396,1,0,0:0:0:0:
312,28,1521,5,0,0:0:0:0:
264,248,1646,2,0,P|320:224|408:224,1,149.999992847443
483,251,1896,1,0,0:0:0:0:
432,104,2021,2,0,P|442:54|464:7,1,99.9999952316285
328,184,2271,2,0,P|312:136|308:84,1,99.9999952316285
447,340,2521,6,0,L|348:352,1,99.9999952316285
111,308,2771,2,0,L|12:320,1,99.9999952316285
292,176,3021,1,0,0:0:0:0:
280,276,3146,1,0,0:0:0:0:
280,276,3208,1,0,0:0:0:0:
280,276,3271,1,0,0:0:0:0:
199,215,3396,1,0,0:0:0:0:
252,376,3521,5,0,0:0:0:0:
424,164,3646,2,0,P|477:182|404:244,1,199.999990463257
360,104,4021,5,0,0:0:0:0:
340,304,4146,1,0,0:0:0:0:
156,160,4271,2,0,L|176:312,1,149.999992847443
76,372,4521,6,0,L|88:272,1,99.9999952316285
48,24,4771,2,0,L|36:124,1,99.9999952316285
288,72,5021,1,0,0:0:0:0:
288,72,5083,1,0,0:0:0:0:
288,72,5146,1,0,0:0:0:0:
308,172,5271,1,0,0:0:0:0:
308,172,5396,1,0,0:0:0:0:
192,336,5521,5,0,0:0:0:0:
212,140,5646,2,0,B|283:108|290:151|362:116,1,149.999992847443
408,52,5896,1,0,0:0:0:0:
504,192,6021,2,0,P|460:220|412:232,1,99.9999952316285
432,372,6271,2,0,P|389:346|340:335,1,99.9999952316285
92,344,6521,6,0,P|132:256|228:240,1,199.999990463257
64,188,6896,1,0,0:0:0:0:
256,264,7021,2,0,L|268:364,1,99.9999952316285
384,188,7271,1,0,0:0:0:0:
384,188,7396,1,0,0:0:0:0:
304,128,7521,6,0,P|348:96|392:88,1,99.9999952316285
423,279,7771,2,0,P|368:284|326:269,1,99.9999952316285
116,116,8021,2,0,P|170:110|212:125,1,99.9999952316285
248,316,8271,2,0,P|204:348|160:356,1,99.9999952316285
32,56,8521,5,0,0:0:0:0:
24,44,9021,1,0,0:0:0:0:
16,32,9521,1,0,0:0:0:0:
8,140,10021,5,0,0:0:0:0:
68,88,10104,1,0,0:0:0:0:
145,72,10187,1,0,0:0:0:0:
219,96,10271,2,0,L|228:132,2,24.9999988079071
284,48,10521,6,0,L|312:144,1,99.9999952316285
492,168,10771,2,0,L|396:196,1,99.9999952316285
153,185,11021,2,0,P|205:197|245:225,1,99.9999952316285
176,376,11271,2,0,P|161:329|164:280,2,99.9999952316285
153,185,11646,1,0,0:0:0:0:
332,261,11771,6,0,P|295:300|251:320,1,99.9999952316285
396,196,12021,2,0,P|448:208|487:236,1,99.9999952316285
308,174,12271,2,0,P|292:122|297:74,1,99.9999952316285
76,304,12521,6,0,P|148:232|244:236,1,199.999990463257
68,176,12896,1,0,0:0:0:0:
164,36,13021,2,0,L|156:136,1,99.9999952316285
228,368,13271,5,0,0:0:0:0:
248,128,13396,1,0,0:0:0:0:
500,248,13521,1,0,0:0:0:0:
500,248,14021,6,0,B|500:296|500:296|488:336|448:352|448:352|400:352,1,175
368,368,14521,6,0,L|380:264,1,100
364,48,14771,1,0,0:0:0:0:
472,160,14896,1,0,0:0:0:0:
284,108,15021,2,0,P|232:100|180:96,1,100
36,244,15271,5,0,0:0:0:0:
208,204,15396,1,0,0:0:0:0:
154,368,15521,2,0,L|132:268,1,100
288,144,15771,5,0,0:0:0:0:
477,186,15896,1,0,0:0:0:0:
417,6,16021,2,0,L|392:116,1,100
329,328,16271,5,0,0:0:0:0:
281,121,16396,1,0,0:0:0:0:
477,186,16521,2,0,L|357:212,1,100
86,165,16771,2,0,L|184:144,1,100
329,328,17021,2,0,P|284:356|236:368,1,100
220,48,17271,2,0,P|272:46|320:59,1,100
160,248,17521,5,0,0:0:0:0:
261,121,17646,1,0,0:0:0:0:
252,283,17771,1,0,0:0:0:0:
164,148,17896,1,0,0:0:0:0:
348,176,18021,2,0,L|367:274,1,100
408,96,18271,2,0,L|483:30,1,100
308,80,18521,6,0,P|216:36|116:40,1,200
4,188,18896,1,0,0:0:0:0:
196,140,19021,2,0,P|212:188|220:236,1,100
76,328,19271,5,0,0:0:0:0:
216,272,19396,1,0,0:0:0:0:
365,293,19521,2,0,P|416:312|456:336,1,100
248,360,19771,5,0,0:0:0:0:
271,195,19896,1,0,0:0:0:0:
372,65,20021,2,0,P|413:30|454:7,1,100
476,248,20271,5,0,0:0:0:0:
294,268,20396,1,0,0:0:0:0:
128,197,20521,2,0,P|83:165|51:131,1,100
240,0,20771,2,0,P|262:50|273:95,1,100
168,292,21021,5,0,0:0:0:0:
232,188,21146,1,0,0:0:0:0:
348,164,21271,1,0,0:0:0:0:
460,200,21396,1,0,0:0:0:0:
460,8,21521,2,0,P|480:53|492:101,1,100
396,328,21771,6,0,P|444:308|496:296,1,100
296,202,22021,2,0,L|308:268,2,66.6666666666667
276,320,22271,2,0,P|228:340|176:352,1,100
256,107,22521,6,0,P|305:103|353:118,1,100
132,268,22771,2,0,P|80:258|38:230,1,100
196,28,23021,1,0,0:0:0:0:
220,200,23146,1,0,0:0:0:0:
56,64,23271,5,0,0:0:0:0:
256,108,23396,1,0,0:0:0:0:
56,64,23521,2,0,P|72:112|84:168,1,100
108,344,23771,5,0,0:0:0:0:
329,295,23896,1,0,0:0:0:0:
105,349,24021,2,0,P|121:301|133:245,1,100
256,108,24271,5,0,0:0:0:0:
308,348,24396,1,0,0:0:0:0:
255,107,24521,2,0,P|303:123|359:135,1,100
504,272,24771,2,0,P|455:282|407:298,1,100
188,228,25021,6,0,P|204:276|220:328,1,100
44,184,25271,2,0,P|72:226|100:272,1,100
40,368,25521,2,0,P|108:292|200:276,1,200
340,336,25896,1,0,0:0:0:0:
296,112,26021,2,0,L|315:210,1,100
204,76,26271,1,0,0:0:0:0:
204,76,26396,5,0,0:0:0:0:
188,312,26521,2,0,L|156:164,1,150.000005722046
204,76,26896,5,0,0:0:0:0:
104,376,27021,2,0,L|72:228,1,150.000005722046
104,40,27396,5,0,0:0:0:0:
355,165,27521,2,0,L|324:312,1,150.000005722046
308,76,27896,5,0,0:0:0:0:
476,184,28021,1,0,0:0:0:0:
204,236,28146,2,0,L|216:288,4,37.5000014305115
140,340,28521,6,0,B|188:380|240:384|292:352|320:296|320:296|352:240|424:284|392:344|344:308,1,350
308,168,29521,5,0,0:0:0:0:
408,168,29646,1,0,0:0:0:0:
484,232,29771,1,0,0:0:0:0:
500,332,29896,1,0,0:0:0:0:
312,284,30021,5,0,0:0:0:0:
292,224,30146,1,0,0:0:0:0:
308,168,30271,1,0,0:0:0:0:
348,128,30396,1,0,0:0:0:0:
172,12,30521,6,0,P|163:86|152:164,1,150.000005722046
340,372,30771,2,0,P|348:297|360:220,1,150.000005722046
267,32,31521,6,0,P|178:64|151:159,1,200
302,292,31896,2,0,P|317:198|248:129,1,200
59,193,32271,2,0,P|88:231|136:256,1,100
172,12,32521,6,0,P|164:76|154:143,1,129.999994049073
340,372,32771,2,0,P|346:307|357:240,1,129.999994049073
220,228,33521,6,0,P|120:239|52:176,1,200
292,156,33896,2,0,P|392:144|460:208,1,200
356,243,34271,1,0,0:0:0:0:
356,243,34396,1,0,0:0:0:0:
172,12,34521,6,0,P|165:66|156:122,1,110.000003356934
340,372,34771,2,0,P|346:317|355:261,1,110.000003356934
336,72,35146,6,0,P|388:72|436:88,2,100
204,16,35521,2,0,L|224:116,1,100
252,232,35771,1,0,0:0:0:0:
44,235,35896,2,0,P|87:210|136:200,1,100
416,292,36146,5,0,0:0:0:0:
316,308,36271,1,0,0:0:0:0:
452,197,36396,1,0,0:0:0:0:
480,371,36521,6,0,P|384:380|316:308,1,200
287,136,36896,2,0,P|342:214|314:309,1,200
140,292,37271,2,0,P|120:248|120:196,1,100
264,40,37521,2,0,P|378:138|300:232,1,300
168,120,38021,5,0,0:0:0:0:
388,184,38146,1,0,0:0:0:0:
140,292,38271,5,0,0:0:0:0:
264,40,38396,1,0,0:0:0:0:
480,288,38521,6,0,P|406:297|328:308,1,150.000005722046
32,96,38771,2,0,P|106:86|184:75,1,150.000005722046
