osu file format v14

[General]
AudioFilename: audio.mp3
AudioLeadIn: 0
PreviewTime: 51474
Countdown: 0
SampleSet: Normal
StackLeniency: 0.7
Mode: 1
LetterboxInBreaks: 0
WidescreenStoryboard: 1

[Editor]
DistanceSpacing: 0.4
BeatDivisor: 4
GridSize: 32
TimelineZoom: 2.1

[Metadata]
Title:Sawa no Kappa no Gijutsuryoku
TitleUnicode:沢の河童の技術力
Artist:Akiyama Uni
ArtistUnicode:あきやまうに
Creator:CallMeLyra
Version:Oni
Source:東方憑依華 ~ Antinomy of Common Flowers.
Tags:The Ravine Kappa's Technological Prowess th15.5 Kawashiro Nitori 河城 にとり Genbu Ravine 玄武の沢 Twilight Frontier Tasofro 黄昏フロンティア U2 ZUN 東方project touhou hyouibana team shanghai alice Instrumental Video Game
BeatmapID:2743552
BeatmapSetID:1323908

[Difficulty]
HPDrainRate:5.5
CircleSize:5
OverallDifficulty:5.5
ApproachRate:5
SliderMultiplier:1.4
SliderTickRate:1

[Events]
//Background and Video events
0,0,"Nitori.jpg",0,0
//Break Periods
//Storyboard Layer 0 (Background)
//Storyboard Layer 1 (Fail)
//Storyboard Layer 2 (Pass)
//Storyboard Layer 3 (Foreground)
//Storyboard Layer 4 (Overlay)
//Storyboard Sound Samples

[TimingPoints]
-808,434.782608695652,4,1,0,60,1,0
4137,-97.0873786407767,4,1,0,60,0,0
4246,-96.1538461538461,4,1,0,60,0,0
4300,-95.2380952380952,4,1,0,60,0,0
4355,-94.3396226415094,4,1,0,60,0,0
4573,-90.9090909090909,4,1,0,60,0,0
51529,-90.0900900900901,4,1,0,60,0,0
51637,-89.6860986547085,4,1,0,60,0,0
51747,-89.2857142857143,4,1,0,60,0,0
51855,-88.8888888888889,4,1,0,60,0,0
51964,-88.4955752212389,4,1,0,60,0,0
52072,-88.1057268722467,4,1,0,60,0,0
52181,-87.719298245614,4,1,0,60,0,0
52289,-87.3362445414847,4,1,0,60,0,0
52399,-86.9565217391304,4,1,0,60,0,0
52616,-86.2068965517241,4,1,0,60,0,0
52724,-85.4700854700855,4,1,0,60,0,0
52834,-84.7457627118644,4,1,0,60,0,0
52942,-84.0336134453781,4,1,0,60,0,0
53105,-83.3333333333333,4,1,0,70,0,1
65053,-82.9875518672199,4,1,0,70,0,1
65162,-82.6446280991736,4,1,0,70,0,1
65270,-81.9672131147541,4,1,0,70,0,1
65379,-81.3008130081301,4,1,0,70,0,1
65488,-80.6451612903226,4,1,0,70,0,1
65705,-80,4,1,0,70,0,1
65814,-79.6812749003984,4,1,0,70,0,1
65922,-79.3650793650794,4,1,0,70,0,1
66140,-78.7401574803149,4,1,0,70,0,1
66249,-78.4313725490196,4,1,0,70,0,1
66357,-78.125,4,1,0,70,0,1
66466,-77.8210116731517,4,1,0,70,0,1
66575,-77.5193798449612,4,1,0,70,0,1
66683,-77.2200772200772,4,1,0,70,0,1
66792,-76.9230769230769,4,1,0,70,0,1
67009,-80,4,1,0,70,0,1
67100,-83.3333333333333,4,1,0,70,0,1
78966,-82.9875518672199,4,1,0,70,0,1
79075,-82.6446280991736,4,1,0,70,0,1
79183,-81.9672131147541,4,1,0,70,0,1
79292,-81.3008130081301,4,1,0,70,0,1
79401,-80.6451612903226,4,1,0,70,0,1
79618,-80,4,1,0,70,0,1
79727,-79.6812749003984,4,1,0,70,0,1
79835,-79.3650793650794,4,1,0,70,0,1
80053,-78.7401574803149,4,1,0,70,0,1
80162,-78.4313725490196,4,1,0,70,0,1
80270,-78.125,4,1,0,70,0,1
80379,-77.8210116731517,4,1,0,70,0,1
80488,-77.5193798449612,4,1,0,70,0,1
80596,-77.2200772200772,4,1,0,70,0,1
80705,-76.9230769230769,4,1,0,70,0,1
80814,-76.6283524904215,4,1,0,70,0,1
80931,-76.3358778625954,4,1,0,60,0,0
81312,-90.9090909090909,4,1,0,60,0,0
94572,-88.4955752212389,4,1,0,60,0,0
94681,-87.719298245614,4,1,0,60,0,0
94735,-86.9565217391304,4,1,0,60,0,0
94790,-86.2068965517241,4,1,0,60,0,0

[HitObjects]
256,192,605,5,0,0:0:0:0:
256,192,713,1,0,0:0:0:0:
256,192,822,5,8,0:0:0:0:
256,192,931,5,8,0:0:0:0:
256,192,1148,1,0,0:0:0:0:
256,192,1257,1,8,0:0:0:0:
256,192,1474,1,0,0:0:0:0:
256,192,1691,1,8,0:0:0:0:
256,192,1909,1,0,0:0:0:0:
256,192,2126,1,8,0:0:0:0:
256,192,2235,1,0,0:0:0:0:
256,192,2452,1,0,0:0:0:0:
256,192,2561,1,8,0:0:0:0:
256,192,2670,1,8,0:0:0:0:
256,192,2887,1,8,0:0:0:0:
256,192,2996,1,8,0:0:0:0:
256,192,3105,1,0,0:0:0:0:
256,192,3213,1,8,0:0:0:0:
256,192,3431,1,0,0:0:0:0:
256,192,4191,1,8,0:0:0:0:
256,192,4264,1,8,0:0:0:0:
256,192,4336,1,8,0:0:0:0:
256,192,4409,5,0,0:0:0:0:
256,192,4626,1,0,0:0:0:0:
256,192,4735,1,0,0:0:0:0:
256,192,4844,1,8,0:0:0:0:
256,192,5061,1,0,0:0:0:0:
256,192,5278,1,8,0:0:0:0:
256,192,5496,1,8,0:0:0:0:
256,192,5605,1,8,0:0:0:0:
256,192,5822,1,8,0:0:0:0:
256,192,6039,1,0,0:0:0:0:
256,192,6148,1,8,0:0:0:0:
256,192,6365,1,0,0:0:0:0:
256,192,6474,1,0,0:0:0:0:
256,192,6583,1,8,0:0:0:0:
256,192,6800,1,0,0:0:0:0:
256,192,7018,1,8,0:0:0:0:
256,192,7235,1,8,0:0:0:0:
256,192,7344,1,0,0:0:0:0:
256,192,7561,1,0,0:0:0:0:
256,192,7778,1,0,0:0:0:0:
256,192,7887,1,0,0:0:0:0:
256,192,8105,1,0,0:0:0:0:
256,192,8213,1,0,0:0:0:0:
256,192,8322,1,0,0:0:0:0:
256,192,8539,1,0,0:0:0:0:
256,192,8757,1,8,0:0:0:0:
256,192,8974,1,0,0:0:0:0:
256,192,9083,1,0,0:0:0:0:
256,192,9300,1,0,0:0:0:0:
256,192,9518,1,8,0:0:0:0:
256,192,9626,1,0,0:0:0:0:
256,192,9844,1,8,0:0:0:0:
256,192,9952,1,0,0:0:0:0:
256,192,10061,1,8,0:0:0:0:
256,192,10278,1,8,0:0:0:0:
256,192,10496,1,0,0:0:0:0:
256,192,10713,1,8,0:0:0:0:
256,192,10822,1,0,0:0:0:0:
256,192,11039,1,0,0:0:0:0:
256,192,11257,1,0,0:0:0:0:
256,192,11365,1,8,0:0:0:0:
256,192,11800,1,8,0:0:0:0:
256,192,12018,1,0,0:0:0:0:
256,192,12235,1,8,0:0:0:0:
256,192,12452,1,0,0:0:0:0:
256,192,12561,1,0,0:0:0:0:
256,192,12778,1,8,0:0:0:0:
256,192,12996,1,0,0:0:0:0:
256,192,13105,1,8,0:0:0:0:
256,192,13322,1,8,0:0:0:0:
256,192,13431,1,8,0:0:0:0:
256,192,13539,1,0,0:0:0:0:
256,192,13757,1,8,0:0:0:0:
256,192,13974,1,0,0:0:0:0:
256,192,14191,1,8,0:0:0:0:
256,192,14300,1,0,0:0:0:0:
256,192,14518,1,0,0:0:0:0:
256,192,14735,1,8,0:0:0:0:
256,192,14844,1,4,0:0:0:0:
256,192,15061,1,8,0:0:0:0:
256,192,15170,1,0,0:0:0:0:
256,192,15387,1,0,0:0:0:0:
256,192,15496,1,8,0:0:0:0:
256,192,15713,1,4,0:0:0:0:
256,192,15931,1,8,0:0:0:0:
256,192,16039,1,0,0:0:0:0:
256,192,16257,1,0,0:0:0:0:
256,192,16365,1,8,0:0:0:0:
256,192,16583,1,4,0:0:0:0:
256,192,16800,1,8,0:0:0:0:
256,192,16909,1,0,0:0:0:0:
256,192,17235,1,0,0:0:0:0:
256,192,17344,1,8,0:0:0:0:
256,192,17452,1,4,0:0:0:0:
256,192,17887,1,8,0:0:0:0:
256,192,17996,1,8,0:0:0:0:
256,192,18105,1,0,0:0:0:0:
256,192,18213,1,8,0:0:0:0:
256,192,18322,5,4,0:0:0:0:
256,192,18539,1,0,0:0:0:0:
256,192,18648,1,0,0:0:0:0:
256,192,18757,1,8,0:0:0:0:
256,192,18974,1,0,0:0:0:0:
256,192,19191,1,8,0:0:0:0:
256,192,19409,1,8,0:0:0:0:
256,192,19518,1,8,0:0:0:0:
256,192,19626,1,0,0:0:0:0:
256,192,19735,1,8,0:0:0:0:
256,192,19952,1,0,0:0:0:0:
256,192,20061,1,8,0:0:0:0:
256,192,20278,1,0,0:0:0:0:
256,192,20387,1,0,0:0:0:0:
256,192,20496,1,8,0:0:0:0:
256,192,20713,1,8,0:0:0:0:
256,192,20931,1,8,0:0:0:0:
256,192,21148,1,8,0:0:0:0:
256,192,21257,1,0,0:0:0:0:
256,192,21365,1,8,0:0:0:0:
256,192,21474,1,0,0:0:0:0:
256,192,21691,1,0,0:0:0:0:
256,192,21800,1,0,0:0:0:0:
256,192,22018,1,0,0:0:0:0:
256,192,22126,1,0,0:0:0:0:
256,192,22235,1,0,0:0:0:0:
256,192,22452,1,0,0:0:0:0:
256,192,22670,1,8,0:0:0:0:
256,192,22887,1,0,0:0:0:0:
256,192,22996,1,0,0:0:0:0:
256,192,23105,1,8,0:0:0:0:
256,192,23213,1,0,0:0:0:0:
256,192,23431,1,8,0:0:0:0:
256,192,23539,1,0,0:0:0:0:
256,192,23757,1,8,0:0:0:0:
256,192,23865,1,0,0:0:0:0:
256,192,23974,1,8,0:0:0:0:
256,192,24191,1,8,0:0:0:0:
256,192,24409,1,0,0:0:0:0:
256,192,24626,1,8,0:0:0:0:
256,192,24735,1,0,0:0:0:0:
256,192,24844,1,0,0:0:0:0:
256,192,24952,1,8,0:0:0:0:
256,192,25170,1,0,0:0:0:0:
256,192,25278,1,8,0:0:0:0:
256,192,25713,1,8,0:0:0:0:
256,192,25931,1,0,0:0:0:0:
256,192,26148,1,8,0:0:0:0:
256,192,26365,1,0,0:0:0:0:
256,192,26474,1,0,0:0:0:0:
256,192,26583,1,8,0:0:0:0:
256,192,26691,1,8,0:0:0:0:
256,192,26909,1,0,0:0:0:0:
256,192,27018,1,8,0:0:0:0:
256,192,27235,1,8,0:0:0:0:
256,192,27344,1,8,0:0:0:0:
256,192,27452,1,0,0:0:0:0:
256,192,27561,1,0,0:0:0:0:
256,192,27670,1,8,0:0:0:0:
256,192,27887,1,0,0:0:0:0:
256,192,28105,1,8,0:0:0:0:
256,192,28213,1,0,0:0:0:0:
256,192,28431,1,0,0:0:0:0:
256,192,28648,1,8,0:0:0:0:
256,192,28757,1,4,0:0:0:0:
256,192,28974,1,8,0:0:0:0:
256,192,29083,1,0,0:0:0:0:
256,192,29300,1,0,0:0:0:0:
256,192,29409,1,8,0:0:0:0:
256,192,29626,1,4,0:0:0:0:
256,192,29844,1,8,0:0:0:0:
256,192,29952,1,0,0:0:0:0:
256,192,30170,1,0,0:0:0:0:
256,192,30278,1,8,0:0:0:0:
256,192,30496,1,4,0:0:0:0:
256,192,30713,1,8,0:0:0:0:
256,192,30822,1,0,0:0:0:0:
256,192,31148,1,0,0:0:0:0:
256,192,31257,1,0,0:0:0:0:
256,192,31365,5,12,0:0:0:0:
256,192,31800,1,8,0:0:0:0:
256,192,31909,1,8,0:0:0:0:
256,192,32018,1,0,0:0:0:0:
256,192,32126,1,8,0:0:0:0:
256,192,32235,5,4,0:0:0:0:
256,192,32452,1,0,0:0:0:0:
256,192,32561,1,8,0:0:0:0:
256,192,32670,1,0,0:0:0:0:
256,192,32778,1,0,0:0:0:0:
256,192,32996,1,8,0:0:0:0:
256,192,33105,1,0,0:0:0:0:
256,192,33322,1,0,0:0:0:0:
256,192,33431,1,0,0:0:0:0:
256,192,33539,1,8,0:0:0:0:
256,192,33757,1,0,0:0:0:0:
256,192,33974,1,8,0:0:0:0:
256,192,34191,1,0,0:0:0:0:
256,192,34409,1,8,0:0:0:0:
256,192,34626,1,0,0:0:0:0:
256,192,34735,1,0,0:0:0:0:
256,192,34844,1,8,0:0:0:0:
256,192,35061,1,0,0:0:0:0:
256,192,35170,1,0,0:0:0:0:
256,192,35278,1,8,0:0:0:0:
256,192,35387,1,8,0:0:0:0:
256,192,35496,1,0,0:0:0:0:
256,192,35713,1,8,0:0:0:0:
256,192,35931,1,0,0:0:0:0:
256,192,36039,1,8,0:0:0:0:
256,192,36148,1,0,0:0:0:0:
256,192,36257,1,0,0:0:0:0:
256,192,36474,1,0,0:0:0:0:
256,192,36583,1,8,0:0:0:0:
256,192,36800,1,0,0:0:0:0:
256,192,36909,1,8,0:0:0:0:
256,192,37018,1,0,0:0:0:0:
256,192,37235,1,8,0:0:0:0:
256,192,37452,1,8,0:0:0:0:
256,192,37670,1,0,0:0:0:0:
256,192,37778,1,0,0:0:0:0:
256,192,37887,1,8,0:0:0:0:
256,192,38105,1,0,0:0:0:0:
256,192,38322,1,8,0:0:0:0:
256,192,38757,1,8,0:0:0:0:
256,192,38865,1,0,0:0:0:0:
256,192,38974,1,8,0:0:0:0:
256,192,39191,1,8,0:0:0:0:
256,192,39409,1,8,0:0:0:0:
256,192,39518,1,0,0:0:0:0:
256,192,39626,1,8,0:0:0:0:
256,192,39735,1,0,0:0:0:0:
256,192,39952,1,8,0:0:0:0:
256,192,40061,1,0,0:0:0:0:
256,192,40278,1,0,0:0:0:0:
256,192,40387,1,0,0:0:0:0:
256,192,40496,1,0,0:0:0:0:
256,192,40713,1,8,0:0:0:0:
256,192,40931,1,8,0:0:0:0:
256,192,41148,1,0,0:0:0:0:
256,192,41257,1,0,0:0:0:0:
256,192,41365,1,8,0:0:0:0:
256,192,41583,1,8,0:0:0:0:
256,192,41800,1,0,0:0:0:0:
256,192,42235,1,0,0:0:0:0:
256,192,42344,1,0,0:0:0:0:
256,192,42452,1,8,0:0:0:0:
256,192,42670,1,12,0:0:0:0:
256,192,42887,1,0,0:0:0:0:
256,192,42996,1,0,0:0:0:0:
256,192,43105,1,0,0:0:0:0:
256,192,43322,1,8,0:0:0:0:
256,192,43431,1,0,0:0:0:0:
256,192,43539,1,8,0:0:0:0:
256,192,43757,1,0,0:0:0:0:
256,192,43865,1,0,0:0:0:0:
256,192,43974,1,8,0:0:0:0:
256,192,44191,1,0,0:0:0:0:
256,192,44409,1,12,0:0:0:0:
256,192,44626,1,0,0:0:0:0:
256,192,44735,1,8,0:0:0:0:
256,192,44844,1,0,0:0:0:0:
256,192,45061,1,8,0:0:0:0:
256,192,45170,1,0,0:0:0:0:
256,192,45278,1,8,0:0:0:0:
256,192,45496,1,0,0:0:0:0:
256,192,45605,1,0,0:0:0:0:
256,192,45713,1,8,0:0:0:0:
256,192,45931,1,0,0:0:0:0:
256,192,46148,5,12,0:0:0:0:
256,192,46583,1,8,0:0:0:0:
256,192,46800,1,8,0:0:0:0:
256,192,46909,1,0,0:0:0:0:
256,192,47126,1,0,0:0:0:0:
256,192,47235,1,0,0:0:0:0:
256,192,47344,1,0,0:0:0:0:
256,192,47452,1,8,0:0:0:0:
256,192,47887,1,0,0:0:0:0:
256,192,48105,1,0,0:0:0:0:
256,192,48322,1,8,0:0:0:0:
256,192,48539,1,8,0:0:0:0:
256,192,48648,1,0,0:0:0:0:
256,192,48865,1,0,0:0:0:0:
256,192,48974,1,0,0:0:0:0:
256,192,49083,1,0,0:0:0:0:
256,192,49191,1,8,0:0:0:0:
256,192,49626,1,0,0:0:0:0:
256,192,49844,1,0,0:0:0:0:
256,192,49952,1,0,0:0:0:0:
256,192,50061,1,8,0:0:0:0:
256,192,50170,1,8,0:0:0:0:
256,192,50278,1,0,0:0:0:0:
256,192,50387,1,8,0:0:0:0:
256,192,50496,1,0,0:0:0:0:
256,192,50822,1,8,0:0:0:0:
256,192,50931,1,0,0:0:0:0:
256,192,51365,1,4,0:0:0:0:
256,192,51583,1,0,0:0:0:0:
256,192,51691,1,0,0:0:0:0:
256,192,51800,1,8,0:0:0:0:
256,192,51909,1,8,0:0:0:0:
256,192,52018,1,0,0:0:0:0:
256,192,52126,1,0,0:0:0:0:
256,192,52235,1,8,0:0:0:0:
256,192,52344,1,8,0:0:0:0:
256,192,52452,1,8,0:0:0:0:
256,192,52670,1,8,0:0:0:0:
256,192,52778,1,0,0:0:0:0:
256,192,52887,1,8,0:0:0:0:
256,192,52996,1,8,0:0:0:0:
256,192,53105,5,4,0:0:0:0:
256,192,53322,1,0,0:0:0:0:
256,192,53431,1,8,0:0:0:0:
256,192,53648,1,0,0:0:0:0:
256,192,53865,1,8,0:0:0:0:
256,192,53974,1,0,0:0:0:0:
256,192,54191,1,8,0:0:0:0:
256,192,54300,1,8,0:0:0:0:
256,192,54409,1,0,0:0:0:0:
256,192,54626,1,0,0:0:0:0:
256,192,54735,1,8,0:0:0:0:
256,192,54844,1,0,0:0:0:0:
256,192,55061,1,8,0:0:0:0:
256,192,55170,1,8,0:0:0:0:
256,192,55278,1,0,0:0:0:0:
256,192,55496,1,8,0:0:0:0:
256,192,55605,1,8,0:0:0:0:
256,192,55713,1,0,0:0:0:0:
256,192,55822,1,0,0:0:0:0:
256,192,55931,1,8,0:0:0:0:
256,192,56039,1,8,0:0:0:0:
256,192,56148,1,0,0:0:0:0:
256,192,56365,1,8,0:0:0:0:
256,192,56583,1,0,0:0:0:0:
256,192,56800,1,0,0:0:0:0:
256,192,56909,1,8,0:0:0:0:
256,192,57126,1,0,0:0:0:0:
256,192,57344,1,8,0:0:0:0:
256,192,57452,1,0,0:0:0:0:
256,192,57670,1,8,0:0:0:0:
256,192,57778,1,8,0:0:0:0:
256,192,57887,1,0,0:0:0:0:
256,192,58105,1,0,0:0:0:0:
256,192,58213,1,8,0:0:0:0:
256,192,58322,1,0,0:0:0:0:
256,192,58757,1,8,0:0:0:0:
256,192,58974,1,0,0:0:0:0:
256,192,59083,1,0,0:0:0:0:
256,192,59191,1,8,0:0:0:0:
256,192,59300,1,0,0:0:0:0:
256,192,59409,1,8,0:0:0:0:
256,192,59626,1,0,0:0:0:0:
256,192,59844,1,8,0:0:0:0:
256,192,60061,1,0,0:0:0:0:
256,192,60278,1,0,0:0:0:0:
256,192,60387,1,8,0:0:0:0:
256,192,60605,1,0,0:0:0:0:
256,192,60822,1,0,0:0:0:0:
256,192,60931,1,8,0:0:0:0:
256,192,61148,1,8,0:0:0:0:
256,192,61257,1,0,0:0:0:0:
256,192,61365,1,8,0:0:0:0:
256,192,61583,1,0,0:0:0:0:
256,192,61800,1,8,0:0:0:0:
256,192,62018,1,8,0:0:0:0:
256,192,62126,1,8,0:0:0:0:
256,192,62235,1,0,0:0:0:0:
256,192,62452,1,8,0:0:0:0:
256,192,62525,1,8,0:0:0:0:
256,192,62597,1,8,0:0:0:0:
256,192,62670,1,0,0:0:0:0:
256,192,62887,1,8,0:0:0:0:
256,192,62996,1,8,0:0:0:0:
256,192,63105,1,0,0:0:0:0:
256,192,63213,1,0,0:0:0:0:
256,192,63322,1,8,0:0:0:0:
256,192,63539,1,8,0:0:0:0:
256,192,63648,1,0,0:0:0:0:
256,192,63757,1,8,0:0:0:0:
256,192,63974,1,0,0:0:0:0:
256,192,64409,1,8,0:0:0:0:
256,192,64518,1,0,0:0:0:0:
256,192,64626,1,8,0:0:0:0:
256,192,64844,1,0,0:0:0:0:
256,192,65061,1,0,0:0:0:0:
256,192,65170,1,0,0:0:0:0:
256,192,65278,1,8,0:0:0:0:
256,192,65387,1,0,0:0:0:0:
256,192,65496,1,8,0:0:0:0:
256,192,65713,1,0,0:0:0:0:
256,192,65822,1,8,0:0:0:0:
256,192,65931,1,0,0:0:0:0:
256,192,66148,1,8,0:0:0:0:
256,192,66257,1,8,0:0:0:0:
256,192,66365,1,0,0:0:0:0:
256,192,66474,1,8,0:0:0:0:
256,192,66583,1,0,0:0:0:0:
256,192,66691,1,0,0:0:0:0:
256,192,66800,1,8,0:0:0:0:
256,192,67018,5,4,0:0:0:0:
256,192,67235,1,0,0:0:0:0:
256,192,67344,1,8,0:0:0:0:
256,192,67561,1,0,0:0:0:0:
256,192,67778,1,8,0:0:0:0:
256,192,67887,1,0,0:0:0:0:
256,192,68105,1,0,0:0:0:0:
256,192,68213,1,8,0:0:0:0:
256,192,68322,1,0,0:0:0:0:
256,192,68539,1,8,0:0:0:0:
256,192,68648,1,0,0:0:0:0:
256,192,68757,1,0,0:0:0:0:
256,192,68974,1,8,0:0:0:0:
256,192,69083,1,8,0:0:0:0:
256,192,69191,1,0,0:0:0:0:
256,192,69409,1,8,0:0:0:0:
256,192,69518,1,0,0:0:0:0:
256,192,69626,1,8,0:0:0:0:
256,192,69735,1,0,0:0:0:0:
256,192,69844,1,8,0:0:0:0:
256,192,69952,1,8,0:0:0:0:
256,192,70061,1,0,0:0:0:0:
256,192,70278,1,8,0:0:0:0:
256,192,70496,1,0,0:0:0:0:
256,192,70713,1,0,0:0:0:0:
256,192,70822,1,8,0:0:0:0:
256,192,71039,1,0,0:0:0:0:
256,192,71257,1,8,0:0:0:0:
256,192,71365,1,8,0:0:0:0:
256,192,71583,1,0,0:0:0:0:
256,192,71691,1,8,0:0:0:0:
256,192,71800,1,0,0:0:0:0:
256,192,72018,1,8,0:0:0:0:
256,192,72126,1,8,0:0:0:0:
256,192,72235,1,0,0:0:0:0:
256,192,72670,1,0,0:0:0:0:
256,192,72887,1,0,0:0:0:0:
256,192,72996,1,0,0:0:0:0:
256,192,73105,1,8,0:0:0:0:
256,192,73213,1,0,0:0:0:0:
256,192,73322,1,8,0:0:0:0:
256,192,73539,1,0,0:0:0:0:
256,192,73757,1,8,0:0:0:0:
256,192,73974,1,0,0:0:0:0:
256,192,74191,1,0,0:0:0:0:
256,192,74300,1,8,0:0:0:0:
256,192,74518,1,0,0:0:0:0:
256,192,74735,1,8,0:0:0:0:
256,192,74844,1,8,0:0:0:0:
256,192,75061,1,8,0:0:0:0:
256,192,75170,1,0,0:0:0:0:
256,192,75278,1,8,0:0:0:0:
256,192,75496,1,0,0:0:0:0:
256,192,75713,1,8,0:0:0:0:
256,192,75931,1,8,0:0:0:0:
256,192,76039,1,8,0:0:0:0:
256,192,76148,1,0,0:0:0:0:
256,192,76365,1,0,0:0:0:0:
256,192,76438,1,8,0:0:0:0:
256,192,76510,1,8,0:0:0:0:
256,192,76583,1,0,0:0:0:0:
256,192,76800,1,8,0:0:0:0:
256,192,76909,1,8,0:0:0:0:
256,192,77018,1,0,0:0:0:0:
256,192,77126,1,0,0:0:0:0:
256,192,77235,1,8,0:0:0:0:
256,192,77452,1,8,0:0:0:0:
256,192,77561,1,0,0:0:0:0:
256,192,77670,1,8,0:0:0:0:
256,192,77887,1,0,0:0:0:0:
256,192,78322,1,8,0:0:0:0:
256,192,78431,1,0,0:0:0:0:
256,192,78539,1,8,0:0:0:0:
256,192,78757,1,0,0:0:0:0:
256,192,78974,1,0,0:0:0:0:
256,192,79083,1,0,0:0:0:0:
256,192,79191,1,8,0:0:0:0:
256,192,79300,1,0,0:0:0:0:
256,192,79409,1,8,0:0:0:0:
256,192,79626,1,0,0:0:0:0:
256,192,79735,1,0,0:0:0:0:
256,192,79844,1,8,0:0:0:0:
256,192,80061,1,8,0:0:0:0:
256,192,80170,5,8,0:0:0:0:
256,192,80278,1,0,0:0:0:0:
256,192,80387,1,8,0:0:0:0:
256,192,80496,1,0,0:0:0:0:
256,192,80605,1,8,0:0:0:0:
256,192,80713,1,0,0:0:0:0:
256,192,80822,1,0,0:0:0:0:
256,192,80931,1,12,0:0:0:0:
256,192,81365,1,8,0:0:0:0:
256,192,81583,1,8,0:0:0:0:
256,192,81691,1,0,0:0:0:0:
256,192,81909,1,0,0:0:0:0:
256,192,82126,1,0,0:0:0:0:
256,192,82235,1,8,0:0:0:0:
256,192,82452,1,0,0:0:0:0:
256,192,82670,1,8,0:0:0:0:
256,192,82887,1,0,0:0:0:0:
256,192,82960,1,8,0:0:0:0:
256,192,83032,1,8,0:0:0:0:
256,192,83105,1,0,0:0:0:0:
256,192,83322,1,0,0:0:0:0:
256,192,83539,1,0,0:0:0:0:
256,192,83648,1,8,0:0:0:0:
256,192,83865,1,8,0:0:0:0:
256,192,84191,1,0,0:0:0:0:
256,192,84300,1,8,0:0:0:0:
256,192,84409,1,8,0:0:0:0:
256,192,84518,1,0,0:0:0:0:
256,192,84735,1,0,0:0:0:0:
256,192,84952,1,8,0:0:0:0:
256,192,85061,1,0,0:0:0:0:
256,192,85170,1,8,0:0:0:0:
256,192,85278,1,0,0:0:0:0:
256,192,85387,1,0,0:0:0:0:
256,192,85605,1,0,0:0:0:0:
256,192,85822,1,8,0:0:0:0:
256,192,85931,1,0,0:0:0:0:
256,192,86039,1,0,0:0:0:0:
256,192,86148,1,8,0:0:0:0:
256,192,86365,1,8,0:0:0:0:
256,192,86474,1,8,0:0:0:0:
256,192,86691,1,0,0:0:0:0:
256,192,86909,1,8,0:0:0:0:
256,192,87126,1,0,0:0:0:0:
256,192,87344,1,0,0:0:0:0:
256,192,87887,1,8,0:0:0:0:
256,192,87996,1,0,0:0:0:0:
256,192,88213,1,0,0:0:0:0:
256,192,88431,1,8,0:0:0:0:
256,192,88539,1,0,0:0:0:0:
256,192,88648,1,0,0:0:0:0:
256,192,88757,1,8,0:0:0:0:
256,192,88865,1,0,0:0:0:0:
256,192,89083,1,0,0:0:0:0:
256,192,89300,1,0,0:0:0:0:
256,192,89409,1,8,0:0:0:0:
256,192,89518,1,8,0:0:0:0:
256,192,89626,1,0,0:0:0:0:
256,192,89844,1,8,0:0:0:0:
256,192,89952,1,0,0:0:0:0:
256,192,90170,1,0,0:0:0:0:
256,192,90278,1,0,0:0:0:0:
256,192,90387,1,8,0:0:0:0:
256,192,90496,1,8,0:0:0:0:
256,192,90605,1,0,0:0:0:0:
256,192,90822,1,0,0:0:0:0:
256,192,91039,1,0,0:0:0:0:
256,192,91148,1,0,0:0:0:0:
256,192,91257,1,8,0:0:0:0:
256,192,91365,5,8,0:0:0:0:
256,192,91583,1,0,0:0:0:0:
256,192,91691,1,8,0:0:0:0:
256,192,91909,1,0,0:0:0:0:
256,192,92126,1,8,0:0:0:0:
256,192,92344,1,0,0:0:0:0:
256,192,92561,1,8,0:0:0:0:
256,192,92670,1,0,0:0:0:0:
256,192,92887,1,0,0:0:0:0:
256,192,92996,1,8,0:0:0:0:
256,192,93105,1,8,0:0:0:0:
256,192,93322,1,8,0:0:0:0:
256,192,93431,1,8,0:0:0:0:
256,192,93539,1,0,0:0:0:0:
256,192,93648,1,8,0:0:0:0:
256,192,93865,1,0,0:0:0:0:
256,192,94626,1,8,0:0:0:0:
256,192,94699,1,8,0:0:0:0:
256,192,94771,1,8,0:0:0:0:
256,192,94844,5,0,0:0:0:0:
