osu file format v14

[General]
AudioFilename: audio.mp3
AudioLeadIn: 0
PreviewTime: 51474
Countdown: 0
SampleSet: Normal
StackLeniency: 0.7
Mode: 1
LetterboxInBreaks: 0
WidescreenStoryboard: 1

[Editor]
DistanceSpacing: 0.4
BeatDivisor: 1
GridSize: 32
TimelineZoom: 1.5

[Metadata]
Title:Sawa no Kappa no Gijutsuryoku
TitleUnicode:沢の河童の技術力
Artist:Akiyama Uni
ArtistUnicode:あきやまうに
Creator:CallMeLyra
Version:Futsuu
Source:東方憑依華 ~ Antinomy of Common Flowers.
Tags:The Ravine Kappa's Technological Prowess th15.5 Kawashiro Nitori 河城 にとり Genbu Ravine 玄武の沢 Twilight Frontier Tasofro 黄昏フロンティア U2 ZUN 東方project touhou hyouibana team shanghai alice Instrumental Video Game
BeatmapID:2745390
BeatmapSetID:1323908

[Difficulty]
HPDrainRate:7
CircleSize:5
OverallDifficulty:4
ApproachRate:5
SliderMultiplier:1.4
SliderTickRate:1

[Events]
//Background and Video events
0,0,"Nitori.jpg",0,0
//Break Periods
//Storyboard Layer 0 (Background)
//Storyboard Layer 1 (Fail)
//Storyboard Layer 2 (Pass)
//Storyboard Layer 3 (Foreground)
//Storyboard Layer 4 (Overlay)
//Storyboard Sound Samples

[TimingPoints]
-808,434.782608695652,4,1,0,60,1,0
53105,-100,4,1,0,70,0,1
80931,-100,4,1,0,70,0,0
81312,-100,4,1,0,60,0,0

[HitObjects]
256,192,931,5,0,0:0:0:0:
256,192,1257,1,8,0:0:0:0:
256,192,1691,1,8,0:0:0:0:
256,192,1909,1,0,0:0:0:0:
256,192,2126,1,8,0:0:0:0:
256,192,2452,1,0,0:0:0:0:
256,192,2670,1,8,0:0:0:0:
256,192,2996,1,8,0:0:0:0:
256,192,3213,1,8,0:0:0:0:
256,192,3431,1,0,0:0:0:0:
256,192,4409,5,4,0:0:0:0:
256,192,4844,1,8,0:0:0:0:
256,192,5278,1,0,0:0:0:0:
256,192,5496,1,0,0:0:0:0:
256,192,5713,1,8,0:0:0:0:
256,192,6148,1,8,0:0:0:0:
256,192,6583,1,8,0:0:0:0:
256,192,7018,1,0,0:0:0:0:
256,192,7235,1,8,0:0:0:0:
256,192,7452,1,8,0:0:0:0:
256,192,7887,1,0,0:0:0:0:
256,192,8322,1,0,0:0:0:0:
256,192,8757,1,8,0:0:0:0:
256,192,8974,1,0,0:0:0:0:
256,192,9191,1,0,0:0:0:0:
256,192,9626,1,0,0:0:0:0:
256,192,10061,1,8,0:0:0:0:
256,192,10496,1,8,0:0:0:0:
256,192,10713,1,8,0:0:0:0:
256,192,10931,1,0,0:0:0:0:
256,192,11365,1,8,0:0:0:0:
256,192,12235,1,8,0:0:0:0:
256,192,12452,1,0,0:0:0:0:
256,192,12670,1,8,0:0:0:0:
256,192,13105,1,8,0:0:0:0:
256,192,13539,1,8,0:0:0:0:
256,192,13757,1,8,0:0:0:0:
256,192,13974,1,0,0:0:0:0:
256,192,14191,1,0,0:0:0:0:
256,192,14409,1,0,0:0:0:0:
256,192,14844,1,12,0:0:0:0:
256,192,15170,1,0,0:0:0:0:
256,192,15496,1,8,0:0:0:0:
256,192,15713,1,4,0:0:0:0:
256,192,16039,1,0,0:0:0:0:
256,192,16365,1,8,0:0:0:0:
256,192,16583,1,4,0:0:0:0:
256,192,16909,1,0,0:0:0:0:
256,192,17235,1,8,0:0:0:0:
256,192,17452,1,4,0:0:0:0:
256,192,18322,5,4,0:0:0:0:
256,192,18757,1,8,0:0:0:0:
256,192,19191,1,0,0:0:0:0:
256,192,19409,1,0,0:0:0:0:
256,192,19626,1,8,0:0:0:0:
256,192,20061,1,8,0:0:0:0:
256,192,20278,1,0,0:0:0:0:
256,192,20496,1,8,0:0:0:0:
256,192,20931,1,0,0:0:0:0:
256,192,21148,1,8,0:0:0:0:
256,192,21365,1,8,0:0:0:0:
256,192,21800,1,0,0:0:0:0:
256,192,22235,1,0,0:0:0:0:
256,192,22670,1,8,0:0:0:0:
256,192,22887,1,0,0:0:0:0:
256,192,23105,1,0,0:0:0:0:
256,192,23539,1,0,0:0:0:0:
256,192,23757,1,0,0:0:0:0:
256,192,23974,1,8,0:0:0:0:
256,192,24409,1,8,0:0:0:0:
256,192,24626,1,8,0:0:0:0:
256,192,24844,1,0,0:0:0:0:
256,192,25278,1,8,0:0:0:0:
256,192,26148,1,8,0:0:0:0:
256,192,26365,1,0,0:0:0:0:
256,192,26583,1,8,0:0:0:0:
256,192,27018,1,8,0:0:0:0:
256,192,27452,1,8,0:0:0:0:
256,192,27670,1,8,0:0:0:0:
256,192,27887,1,0,0:0:0:0:
256,192,28105,1,0,0:0:0:0:
256,192,28322,1,0,0:0:0:0:
256,192,28757,1,12,0:0:0:0:
256,192,29083,1,0,0:0:0:0:
256,192,29409,1,8,0:0:0:0:
256,192,29626,1,4,0:0:0:0:
256,192,29952,1,0,0:0:0:0:
256,192,30278,1,8,0:0:0:0:
256,192,30496,1,4,0:0:0:0:
256,192,30822,1,0,0:0:0:0:
256,192,31148,5,0,0:0:0:0:
256,192,31365,1,12,0:0:0:0:
256,192,32235,5,4,0:0:0:0:
256,192,32670,1,8,0:0:0:0:
256,192,33105,1,0,0:0:0:0:
256,192,33322,1,0,0:0:0:0:
256,192,33539,1,8,0:0:0:0:
256,192,33974,1,8,0:0:0:0:
256,192,34191,1,0,0:0:0:0:
256,192,34409,1,8,0:0:0:0:
256,192,34844,1,8,0:0:0:0:
256,192,35061,1,0,0:0:0:0:
256,192,35278,1,0,0:0:0:0:
256,192,35496,1,0,0:0:0:0:
256,192,35713,1,8,0:0:0:0:
256,192,36148,1,8,0:0:0:0:
256,192,36583,1,0,0:0:0:0:
256,192,37018,1,0,0:0:0:0:
256,192,37452,1,8,0:0:0:0:
256,192,37670,1,0,0:0:0:0:
256,192,37887,1,0,0:0:0:0:
256,192,38105,1,8,0:0:0:0:
256,192,38322,1,8,0:0:0:0:
256,192,39191,1,8,0:0:0:0:
256,192,39626,1,0,0:0:0:0:
256,192,40061,1,8,0:0:0:0:
256,192,40278,1,0,0:0:0:0:
256,192,40496,1,0,0:0:0:0:
256,192,40931,1,8,0:0:0:0:
256,192,41148,1,0,0:0:0:0:
256,192,41365,1,8,0:0:0:0:
256,192,41583,1,8,0:0:0:0:
256,192,41800,1,0,0:0:0:0:
256,192,42235,1,0,0:0:0:0:
256,192,42452,1,8,0:0:0:0:
256,192,42670,1,12,0:0:0:0:
256,192,43105,1,0,0:0:0:0:
256,192,43322,1,0,0:0:0:0:
256,192,43539,1,8,0:0:0:0:
256,192,43974,1,0,0:0:0:0:
256,192,44191,1,8,0:0:0:0:
256,192,44409,1,12,0:0:0:0:
256,192,44844,1,0,0:0:0:0:
256,192,45061,1,0,0:0:0:0:
256,192,45278,1,8,0:0:0:0:
256,192,46148,5,12,0:0:0:0:
256,192,46583,5,8,0:0:0:0:
256,192,46909,1,0,0:0:0:0:
256,192,47126,1,0,0:0:0:0:
256,192,47452,1,8,0:0:0:0:
256,192,47887,1,0,0:0:0:0:
256,192,48322,1,8,0:0:0:0:
256,192,48648,1,0,0:0:0:0:
256,192,48865,1,0,0:0:0:0:
256,192,49191,1,8,0:0:0:0:
256,192,49844,1,0,0:0:0:0:
256,192,50061,1,8,0:0:0:0:
256,192,50278,1,8,0:0:0:0:
256,192,50496,1,0,0:0:0:0:
256,192,50931,1,0,0:0:0:0:
256,192,51365,1,4,0:0:0:0:
256,192,52235,1,0,0:0:0:0:
256,192,52452,1,0,0:0:0:0:
256,192,52670,1,8,0:0:0:0:
256,192,52887,1,8,0:0:0:0:
256,192,53105,5,4,0:0:0:0:
256,192,53539,5,8,0:0:0:0:
256,192,53974,1,8,0:0:0:0:
256,192,54191,1,0,0:0:0:0:
256,192,54409,1,0,0:0:0:0:
256,192,54844,1,0,0:0:0:0:
256,192,55061,1,8,0:0:0:0:
256,192,55278,1,0,0:0:0:0:
256,192,55496,1,8,0:0:0:0:
256,192,55713,1,8,0:0:0:0:
256,192,56039,1,8,0:0:0:0:
256,192,56583,1,0,0:0:0:0:
256,192,57018,1,8,0:0:0:0:
256,192,57452,1,8,0:0:0:0:
256,192,57670,1,0,0:0:0:0:
256,192,57887,1,8,0:0:0:0:
256,192,58105,1,8,0:0:0:0:
256,192,58322,1,0,0:0:0:0:
256,192,58757,1,8,0:0:0:0:
256,192,58974,1,0,0:0:0:0:
256,192,59191,1,8,0:0:0:0:
256,192,60061,1,0,0:0:0:0:
256,192,60496,1,0,0:0:0:0:
256,192,60931,1,0,0:0:0:0:
256,192,61148,1,8,0:0:0:0:
256,192,61365,1,8,0:0:0:0:
256,192,61583,1,0,0:0:0:0:
256,192,61800,1,8,0:0:0:0:
256,192,62235,1,0,0:0:0:0:
256,192,62452,1,8,0:0:0:0:
256,192,62670,1,0,0:0:0:0:
256,192,63105,1,0,0:0:0:0:
256,192,63322,1,8,0:0:0:0:
256,192,63539,1,8,0:0:0:0:
256,192,63757,1,8,0:0:0:0:
256,192,63974,1,0,0:0:0:0:
256,192,64409,1,8,0:0:0:0:
256,192,64626,1,8,0:0:0:0:
256,192,64844,1,0,0:0:0:0:
256,192,65278,1,8,0:0:0:0:
256,192,65496,1,8,0:0:0:0:
256,192,65713,1,0,0:0:0:0:
256,192,65931,1,0,0:0:0:0:
256,192,66148,1,8,0:0:0:0:
256,192,67018,1,4,0:0:0:0:
256,192,67452,1,0,0:0:0:0:
256,192,67887,1,8,0:0:0:0:
256,192,68105,1,0,0:0:0:0:
256,192,68322,1,0,0:0:0:0:
256,192,68757,1,0,0:0:0:0:
256,192,68974,1,8,0:0:0:0:
256,192,69191,1,0,0:0:0:0:
256,192,69409,1,8,0:0:0:0:
256,192,69626,1,8,0:0:0:0:
256,192,69952,1,0,0:0:0:0:
256,192,70496,1,0,0:0:0:0:
256,192,70931,1,8,0:0:0:0:
256,192,71365,1,8,0:0:0:0:
256,192,71583,1,0,0:0:0:0:
256,192,71800,1,8,0:0:0:0:
256,192,72018,1,0,0:0:0:0:
256,192,72235,1,0,0:0:0:0:
256,192,72670,1,0,0:0:0:0:
256,192,72887,1,0,0:0:0:0:
256,192,73105,1,8,0:0:0:0:
256,192,73974,1,0,0:0:0:0:
256,192,74409,1,8,0:0:0:0:
256,192,74844,1,0,0:0:0:0:
256,192,75061,1,8,0:0:0:0:
256,192,75278,1,8,0:0:0:0:
256,192,75496,1,0,0:0:0:0:
256,192,75713,1,8,0:0:0:0:
256,192,76148,1,0,0:0:0:0:
256,192,76365,1,8,0:0:0:0:
256,192,76583,1,0,0:0:0:0:
256,192,77018,1,0,0:0:0:0:
256,192,77235,1,0,0:0:0:0:
256,192,77452,1,8,0:0:0:0:
256,192,77670,1,8,0:0:0:0:
256,192,77887,1,0,0:0:0:0:
256,192,78322,1,8,0:0:0:0:
256,192,78539,1,8,0:0:0:0:
256,192,78757,1,0,0:0:0:0:
256,192,79191,1,8,0:0:0:0:
256,192,79409,1,8,0:0:0:0:
256,192,79626,1,0,0:0:0:0:
256,192,79844,1,8,0:0:0:0:
256,192,80061,1,8,0:0:0:0:
256,192,80496,1,0,0:0:0:0:
256,192,80713,1,0,0:0:0:0:
256,192,80931,1,12,0:0:0:0:
256,192,82452,5,0,0:0:0:0:
256,192,82670,1,8,0:0:0:0:
256,192,83105,1,0,0:0:0:0:
256,192,83322,1,0,0:0:0:0:
256,192,83539,1,8,0:0:0:0:
256,192,83865,1,8,0:0:0:0:
256,192,84409,1,0,0:0:0:0:
256,192,85061,1,8,0:0:0:0:
256,192,85278,1,0,0:0:0:0:
256,192,85605,1,0,0:0:0:0:
256,192,85931,1,0,0:0:0:0:
256,192,86148,1,8,0:0:0:0:
256,192,86474,1,8,0:0:0:0:
256,192,86691,1,0,0:0:0:0:
256,192,86909,1,8,0:0:0:0:
256,192,87126,1,0,0:0:0:0:
256,192,87344,1,0,0:0:0:0:
256,192,87887,1,0,0:0:0:0:
256,192,88539,1,8,0:0:0:0:
256,192,88757,1,8,0:0:0:0:
256,192,89083,1,0,0:0:0:0:
256,192,89409,1,8,0:0:0:0:
256,192,89626,1,0,0:0:0:0:
256,192,89952,1,0,0:0:0:0:
256,192,90278,1,0,0:0:0:0:
256,192,90496,1,8,0:0:0:0:
256,192,90822,1,0,0:0:0:0:
256,192,91365,5,0,0:0:0:0:
256,192,91691,1,8,0:0:0:0:
256,192,92126,1,8,0:0:0:0:
256,192,92344,1,0,0:0:0:0:
256,192,92561,1,8,0:0:0:0:
256,192,92887,1,0,0:0:0:0:
256,192,93105,1,8,0:0:0:0:
256,192,93431,1,8,0:0:0:0:
256,192,93648,1,8,0:0:0:0:
256,192,93865,1,0,0:0:0:0:
256,192,94844,1,4,0:0:0:0:
