osu file format v14

[General]
AudioFilename: audio.mp3
AudioLeadIn: 0
PreviewTime: 278
Countdown: 0
SampleSet: Soft
StackLeniency: 0.7
Mode: 2
LetterboxInBreaks: 0
WidescreenStoryboard: 1

[Editor]
DistanceSpacing: 3.4
BeatDivisor: 6
GridSize: 16
TimelineZoom: 2.5

[Metadata]
Title:Odoru Mizushibuki
TitleUnicode:踊る水飛沫
Artist:Akiyama Uni
ArtistUnicode:あきやまうに
Creator:fayew
Version:Deluge
Source:東方緋想天 ~ Scarlet Weather Rhapsody
Tags:-hex- du5t dust wonjae paranoid grapes -luminate luminate kukkai skill issue lol Touhou th10.5 fxt Twilight Frontier Tasofro 黄昏フロンティア zun jun Dancing Water Spray 比那名居 天子 ひななゐ てんし Hinanawi Tenshi electronic video game instrumental 全人類ノ天楽録 ORIGINAL SOUND TRACK
BeatmapID:4486176
BeatmapSetID:1394969

[Difficulty]
HPDrainRate:6
CircleSize:3.5
OverallDifficulty:10
ApproachRate:10
SliderMultiplier:2.6
SliderTickRate:1

[Events]
//Background and Video events
0,0,"bg.jpg",0,0
//Break Periods
//Storyboard Layer 0 (Background)
//Storyboard Layer 1 (Fail)
//Storyboard Layer 2 (Pass)
//Storyboard Layer 3 (Foreground)
//Storyboard Layer 4 (Overlay)
//Storyboard Sound Samples

[TimingPoints]
306,434.782608695652,4,2,1,80,1,0
7262,-90.9090909090909,4,2,1,80,0,0
12479,-45.4545454545455,4,2,1,80,0,0
12914,-90.9090909090909,4,2,1,80,0,0
19436,-45.4545454545455,4,2,1,80,0,0
19871,-90.9090909090909,4,2,1,80,0,0
21175,-83.3333333333333,4,2,1,80,0,0
26392,-41.6666666666667,4,2,1,80,0,0
27153,-83.3333333333333,4,2,1,80,0,0
33349,-41.6666666666667,4,2,1,80,0,0
34110,-83.3333333333333,4,2,1,80,0,0
35088,-100,4,2,1,80,0,0
49001,-80,4,2,1,80,0,0
55958,-66.6666666666667,4,2,1,80,0,1
62914,-50,4,2,1,80,0,1
63566,-66.6666666666667,4,2,1,80,0,1
63784,-50,4,2,1,80,0,1
64219,-66.6666666666667,4,2,1,80,0,1
69871,-62.5,4,2,1,80,0,1
83784,-66.6666666666667,4,2,1,80,0,0

[Colours]
Combo1 : 0,0,255
Combo2 : 192,192,192
Combo3 : 0,128,255
Combo4 : 128,128,128

[HitObjects]
289,312,306,6,0,L|190:315,1,65,6|0,0:1|0:0,0:0:0:0:
92,195,632,1,0,0:0:0:0:
311,232,740,2,0,L|196:218,1,65
435,132,958,1,0,0:0:0:0:
377,152,1066,1,0,0:0:0:0:
141,266,1175,5,0,0:0:0:0:
368,247,1284,2,0,L|175:234,1,130,8|0,0:1|0:0,0:0:0:0:
162,231,1610,1,0,0:0:0:0:
428,159,1719,2,0,L|315:163,2,65,2|0|0,0:0|0:0|0:0,0:0:0:0:
160,319,2045,6,0,L|236:311,1,65,8|0,0:0|0:0,0:0:0:0:
62,208,2370,1,0,0:0:0:0:
297,316,2479,2,0,L|186:306,1,65
48,241,2697,2,0,L|138:226,1,65
324,250,2914,5,0,0:0:0:0:
123,207,3023,2,0,L|287:212,1,130,8|0,0:1|0:0,0:0:0:0:
47,121,3349,1,0,0:0:0:0:
235,216,3458,2,0,L|156:222,1,65
347,144,3676,1,0,0:0:0:0:
172,323,3784,6,0,L|99:325,1,65,8|0,0:0|0:0,0:0:0:0:
285,271,4110,1,0,0:0:0:0:
64,219,4219,2,0,L|163:224,1,65
325,317,4436,2,0,L|244:317,1,65
448,238,4653,5,0,0:0:0:0:
218,304,4762,2,0,L|383:310,1,130,8|0,0:1|0:0,0:0:0:0:
149,254,5088,1,0,0:0:0:0:
330,212,5197,2,0,L|259:210,2,65,2|0|0,0:0|0:0|0:0,0:0:0:0:
83,318,5523,6,0,L|182:314,1,65,8|0,0:0|0:0,0:0:0:0:
313,301,5849,1,0,0:0:0:0:
111,239,5958,2,0,L|192:244,1,65
365,207,6175,1,0,0:0:0:0:
172,173,6284,1,0,0:0:0:0:
408,144,6392,6,0,L|344:150,1,65,8|0,0:0|0:0,0:0:0:0:
155,259,6610,1,0,0:0:0:0:
344,242,6719,1,0,0:0:0:0:
160,231,6827,2,0,L|268:231,1,65,8|0,0:0|0:0,0:0:0:0:
16,176,7045,1,10,0:0:0:0:
215,208,7153,1,0,0:0:0:0:
16,176,7262,6,0,L|16:64,1,71.5000021820069,12|0,0:0|0:0,0:0:0:0:
208,192,7479,2,0,L|176:112,1,71.5000021820069,8|0,0:0|0:0,0:0:0:0:
416,192,7697,2,0,L|224:192,1,143.000004364014,2|8,0:0|0:0,0:0:0:0:
480,112,8023,1,8,0:0:0:0:
272,320,8132,6,0,L|288:240,1,71.5000021820069,8|0,0:0|0:0,0:0:0:0:
112,224,8349,2,0,L|96:128,1,71.5000021820069,8|0,0:0|0:0,0:0:0:0:
320,144,8566,2,0,L|128:144,1,143.000004364014,2|8,0:0|0:0,0:0:0:0:
416,80,8892,1,8,0:0:0:0:
231,323,9001,6,0,L|243:239,1,71.5000021820069,8|0,0:0|0:0,0:0:0:0:
421,223,9219,2,0,L|407:137,1,71.5000021820069,8|0,0:0|0:0,0:0:0:0:
160,170,9436,2,0,L|329:165,1,143.000004364014,2|8,0:0|0:0,0:0:0:0:
85,124,9762,1,8,0:0:0:0:
285,308,9871,6,0,L|262:220,1,71.5000021820069,8|0,0:0|0:0,0:0:0:0:
462,205,10088,2,0,L|393:161,1,71.5000021820069,8|0,0:0|0:0,0:0:0:0:
116,135,10305,2,0,L|319:132,1,143.000004364014,2|8,0:0|0:0,0:0:0:0:
271,53,10632,1,0,0:0:0:0:
77,296,10740,6,0,L|59:209,1,71.5000021820069,8|0,0:0|0:0,0:0:0:0:
258,215,10958,2,0,L|172:215,1,71.5000021820069,8|0,0:0|0:0,0:0:0:0:
374,308,11175,2,0,L|190:303,1,143.000004364014,2|8,0:0|0:0,0:0:0:0:
407,196,11501,1,8,0:0:0:0:
170,337,11610,6,0,L|282:333,1,71.5000021820069,8|0,0:0|0:0,0:0:0:0:
58,253,11827,2,0,L|148:257,1,71.5000021820069,8|0,0:0|0:0,0:0:0:0:
308,236,12045,2,0,L|196:232,1,71.5000021820069,2|0,0:0|0:0,0:0:0:0:
420,152,12262,2,0,L|330:156,1,71.5000021820069,8|0,0:0|0:0,0:0:0:0:
119,323,12479,6,0,L|506:315,1,286.000008728028,8|2,0:0|0:0,0:0:0:0:
470,276,12769,1,2,0:0:0:0:
403,235,12842,1,2,0:0:0:0:
193,270,12914,2,0,L|384:270,1,143.000004364014,2|8,0:0|0:0,0:0:0:0:
261,193,13240,2,0,L|204:193,1,35.7500010910034
416,208,13349,6,0,L|496:208,1,71.5000021820069,8|0,0:0|0:0,0:0:0:0:
272,144,13566,2,0,L|368:144,1,71.5000021820069,8|0,0:0|0:0,0:0:0:0:
144,224,13784,2,0,L|240:224,1,71.5000021820069,10|0,0:1|0:0,0:0:0:0:
16,160,14001,2,0,L|128:160,1,71.5000021820069,8|0,0:0|0:0,0:0:0:0:
496,176,14219,6,0,L|496:64,1,71.5000021820069,12|0,0:0|0:0,0:0:0:0:
304,192,14436,2,0,L|336:112,1,71.5000021820069,8|0,0:0|0:0,0:0:0:0:
96,192,14653,2,0,L|288:192,1,143.000004364014,2|8,0:0|0:0,0:0:0:0:
16,112,14980,1,2,0:0:0:0:
240,320,15089,6,0,L|224:240,1,71.5000021820069,8|0,0:0|0:0,0:0:0:0:
400,224,15306,2,0,L|416:128,1,71.5000021820069,8|0,0:0|0:0,0:0:0:0:
192,144,15523,2,0,L|384:144,1,143.000004364014,2|8,0:0|0:0,0:0:0:0:
66,73,15849,1,2,0:0:0:0:
281,323,15958,6,0,L|269:239,1,71.5000021820069,8|0,0:0|0:0,0:0:0:0:
91,223,16176,2,0,L|105:137,1,71.5000021820069,8|0,0:0|0:0,0:0:0:0:
352,170,16393,2,0,L|183:165,1,143.000004364014,2|8,0:0|0:0,0:0:0:0:
484,70,16719,1,2,0:0:0:0:
280,305,16828,6,0,L|303:217,1,71.5000021820069,8|0,0:0|0:0,0:0:0:0:
103,202,17045,2,0,L|172:158,1,71.5000021820069,8|0,0:0|0:0,0:0:0:0:
396,135,17262,2,0,L|193:132,1,143.000004364014,2|2,0:0|0:0,0:0:0:0:
191,132,17589,1,0,0:0:0:0:
435,296,17697,6,0,L|453:209,1,71.5000021820069,8|0,0:0|0:0,0:0:0:0:
254,215,17915,2,0,L|340:215,1,71.5000021820069,8|0,0:0|0:0,0:0:0:0:
138,308,18132,2,0,L|322:303,1,143.000004364014,2|8,0:0|0:0,0:0:0:0:
51,186,18458,1,2,0:0:0:0:
342,337,18567,6,0,L|230:333,1,71.5000021820069,8|0,0:0|0:0,0:0:0:0:
485,243,18784,2,0,L|395:247,1,71.5000021820069,8|0,0:0|0:0,0:0:0:0:
185,244,19002,2,0,L|297:240,1,71.5000021820069,2|0,0:0|0:0,0:0:0:0:
29,139,19219,2,0,L|119:143,1,71.5000021820069,10|0,0:0|0:0,0:0:0:0:
393,323,19436,6,0,L|6:315,1,286.000008728028,10|2,0:0|0:0,0:0:0:0:
42,276,19726,1,2,0:0:0:0:
109,235,19799,1,2,0:0:0:0:
319,270,19871,2,0,L|128:270,1,143.000004364014,2|8,0:0|0:0,0:0:0:0:
251,193,20197,2,0,L|308:193,1,35.7500010910034
96,208,20306,6,0,L|16:208,1,71.5000021820069,10|0,0:1|0:0,0:0:0:0:
320,144,20523,2,0,L|224:144,1,71.5000021820069,10|0,0:0|0:0,0:0:0:0:
64,320,20741,2,0,L|160:320,1,71.5000021820069,10|0,0:1|0:0,0:0:0:0:
464,160,20958,2,0,L|352:160,1,71.5000021820069,10|0,0:0|0:0,0:0:0:0:
157,327,21175,6,0,L|366:320,1,155.999995239258,12|8,0:0|0:0,0:0:0:0:
133,230,21501,1,0,0:0:0:0:
312,303,21610,2,0,L|152:272,1,155.999995239258,8|8,0:1|0:0,0:0:0:0:
383,179,21936,1,8,0:0:0:0:
144,291,22045,6,0,L|151:188,1,77.999997619629,8|0,0:0|0:0,0:0:0:0:
342,209,22262,2,0,L|256:204,1,77.999997619629,8|0,0:0|0:0,0:0:0:0:
473,131,22479,2,0,L|279:130,1,155.999995239258,8|8,0:1|0:0,0:0:0:0:
113,196,22805,1,8,0:0:0:0:
366,338,22914,6,0,L|344:251,1,77.999997619629,8|0,0:0|0:0,0:0:0:0:
161,266,23132,2,0,L|286:267,1,77.999997619629,8|0,0:0|0:0,0:0:0:0:
44,229,23349,2,0,L|242:221,1,155.999995239258,8|8,0:1|0:0,0:0:0:0:
16,128,23675,1,8,0:0:0:0:
240,336,23784,6,0,L|208:240,1,77.999997619629,8|0,0:0|0:0,0:0:0:0:
416,224,24001,2,0,L|336:224,1,77.999997619629,8|0,0:0|0:0,0:0:0:0:
134,333,24219,2,0,L|342:328,1,155.999995239258,8|8,0:1|0:1,0:0:0:0:
267,223,24545,1,0,0:0:0:0:
79,205,24653,6,0,L|81:108,1,77.999997619629,8|0,0:0|0:0,0:0:0:0:
282,190,24871,2,0,L|224:98,1,77.999997619629,8|0,0:0|0:0,0:0:0:0:
447,97,25088,2,0,L|245:87,1,155.999995239258,8|8,0:1|0:0,0:0:0:0:
481,168,25414,1,8,0:0:0:0:
217,320,25523,6,0,L|366:316,1,77.999997619629,8|0,0:0|0:0,0:0:0:0:
68,221,25740,2,0,L|173:221,1,77.999997619629,8|0,0:0|0:0,0:0:0:0:
325,299,25958,2,0,L|176:295,1,77.999997619629,8|0,0:1|0:0,0:0:0:0:
474,200,26175,2,0,L|369:200,1,77.999997619629,8|0,0:0|0:0,0:0:0:0:
132,314,26392,6,0,L|473:288,1,311.999990478516,10|2,0:0|0:0,0:0:0:0:
383,257,26682,1,2,0:0:0:0:
304,229,26755,1,2,0:0:0:0:
80,227,26827,2,0,L|432:204,1,311.999990478516,2|8,0:0|0:0,0:0:0:0:
182,117,27153,2,0,L|117:103,1,38.9999988098145
397,329,27262,6,0,L|507:335,1,77.999997619629,8|0,0:1|0:0,0:0:0:0:
277,238,27479,2,0,L|387:244,1,77.999997619629,8|0,0:0|0:0,0:0:0:0:
165,132,27697,2,0,L|275:138,1,77.999997619629,10|0,0:1|0:0,0:0:0:0:
45,41,27914,2,0,L|155:47,1,77.999997619629,8|0,0:0|0:0,0:0:0:0:
355,327,28132,6,0,L|146:320,1,155.999995239258,12|8,0:0|0:0,0:0:0:0:
399,278,28458,1,0,0:0:0:0:
200,303,28567,2,0,L|360:272,1,155.999995239258,8|8,0:1|0:0,0:0:0:0:
88,173,28893,1,10,0:0:0:0:
368,291,29002,6,0,L|361:188,1,77.999997619629,8|0,0:0|0:0,0:0:0:0:
170,209,29219,2,0,L|256:204,1,77.999997619629,8|0,0:0|0:0,0:0:0:0:
39,131,29436,2,0,L|233:130,1,155.999995239258,8|8,0:1|0:0,0:0:0:0:
444,186,29762,1,10,0:0:0:0:
146,338,29871,6,0,L|116:240,1,77.999997619629,8|0,0:0|0:0,0:0:0:0:
335,303,30089,2,0,L|460:304,1,77.999997619629,8|0,0:0|0:0,0:0:0:0:
218,246,30306,2,0,L|20:238,1,155.999995239258,8|8,0:1|0:0,0:0:0:0:
374,145,30632,1,10,0:0:0:0:
121,345,30741,6,0,L|153:249,1,77.999997619629,8|0,0:0|0:0,0:0:0:0:
416,223,30958,2,0,L|336:223,1,77.999997619629,8|0,0:0|0:0,0:0:0:0:
134,333,31176,2,0,L|342:328,1,155.999995239258,8|8,0:1|0:1,0:0:0:0:
213,253,31502,1,0,0:0:0:0:
433,205,31610,6,0,L|431:108,1,77.999997619629,8|0,0:0|0:0,0:0:0:0:
230,190,31828,2,0,L|288:98,1,77.999997619629,8|0,0:0|0:0,0:0:0:0:
65,97,32045,2,0,L|267:87,1,155.999995239258,8|8,0:1|0:0,0:0:0:0:
16,176,32371,1,10,0:0:0:0:
295,320,32480,6,0,L|146:316,1,77.999997619629,8|0,0:0|0:0,0:0:0:0:
444,221,32697,2,0,L|339:221,1,77.999997619629,8|0,0:0|0:0,0:0:0:0:
187,299,32915,2,0,L|336:295,1,77.999997619629,8|0,0:1|0:0,0:0:0:0:
38,200,33132,2,0,L|143:200,1,77.999997619629,10|2,0:0|0:0,0:0:0:0:
380,314,33349,6,0,L|39:288,1,311.999990478516,10|2,0:0|0:0,0:0:0:0:
129,257,33639,1,2,0:0:0:0:
208,229,33712,1,2,0:0:0:0:
432,227,33784,2,0,L|80:204,1,311.999990478516,2|10,0:0|0:0,0:0:0:0:
330,117,34110,2,0,L|395:103,1,38.9999988098145
115,329,34219,6,0,L|5:335,1,77.999997619629,12|0,0:1|0:0,0:0:0:0:
402,264,34436,2,0,L|512:270,1,77.999997619629,12|0,0:0|0:0,0:0:0:0:
16,192,34654,2,0,L|128:192,1,77.999997619629,12|0,0:1|0:0,0:0:0:0:
296,336,34871,2,0,L|200:336,1,77.999997619629,12|0,0:0|0:0,0:0:0:0:
496,288,35088,6,0,L|496:128,1,130,6|0,2:1|0:1,0:1:0:0:
303,135,35523,1,0,0:1:0:0:
442,88,35740,2,0,L|426:168,1,65,0|0,0:1|0:1,0:1:0:0:
254,260,35958,2,0,L|418:236,1,130,0|2,0:1|0:1,0:1:0:0:
173,188,36392,1,8,0:1:0:0:
487,295,36610,1,0,0:1:0:0:
138,332,36827,6,0,P|125:251|193:202,1,130,2|2,0:1|0:1,0:1:0:0:
226,195,37117,1,0,0:1:0:0:
226,195,37190,1,0,0:1:0:0:
151,217,37262,2,0,P|115:156|153:108,1,130,2|0,0:1|0:1,0:1:0:0:
233,92,37588,1,2,0:1:0:0:
38,188,37697,2,0,L|198:202,1,130,0|8,0:1|0:2,0:1:0:0:
42,180,38132,2,0,P|21:269|128:306,1,195,4|0,0:1|0:1,0:1:0:0:
337,333,38566,6,0,L|192:320,2,130,2|0|0,0:1|0:1|0:1,0:1:0:0:
197,261,39219,2,0,L|110:275,1,65,0|0,0:1|0:1,0:1:0:0:
308,196,39436,2,0,L|457:200,1,130,0|6,0:1|0:1,0:1:0:0:
256,293,39871,2,0,L|112:311,1,130,8|0,0:1|0:1,0:1:0:0:
442,334,40305,5,6,0:1:0:0:
292,271,40523,2,0,L|306:111,1,130,0|0,0:1|0:1,0:1:0:0:
475,95,40958,2,0,L|371:81,1,65,4|0,0:1|0:1,0:1:0:0:
131,232,41175,2,0,L|236:222,2,65,0|0|10,0:1|0:1|0:2,0:1:0:0:
295,323,41610,2,0,P|277:256|155:194,1,195,4|0,0:1|0:1,0:1:0:0:
414,294,42045,6,0,L|426:132,1,130,6|0,0:1|0:1,0:1:0:0:
252,118,42479,1,0,0:1:0:0:
433,100,42697,2,0,L|324:96,1,65,0|0,0:1|0:1,0:1:0:0:
126,236,42914,2,0,L|288:215,2,130,0|2|8,0:1|0:1|0:1,0:1:0:0:
446,340,43566,1,4,0:1:0:0:
95,333,43784,6,0,L|270:311,1,130,6|0,0:1|0:1,0:1:0:0:
311,295,44074,1,0,0:1:0:0:
382,247,44146,1,0,0:1:0:0:
435,176,44219,2,0,P|388:116|282:105,1,130,2|0,0:1|0:1,0:1:0:0:
242,98,44545,1,0,0:1:0:0:
471,290,44653,2,0,L|302:258,2,130,0|8|6,0:1|0:2|0:1,0:1:0:0:
480,209,45305,1,0,0:1:0:0:
168,306,45523,6,0,L|343:297,1,130,2|0,0:1|0:1,0:1:0:0:
94,135,45958,2,0,P|53:187|117:230,1,130,6|0,0:1|0:1,0:1:0:0:
160,237,46284,1,0,0:1:0:0:
400,339,46392,2,0,L|230:335,1,130,0|12,0:1|0:1,0:1:0:0:
450,245,46827,2,0,L|464:114,1,130,0|0,0:1|0:1,0:1:0:0:
167,282,47262,6,0,L|350:266,2,130,14|0|0,0:1|0:1|0:1,0:1:0:0:
388,319,47914,2,0,L|278:305,1,65,10|10,0:1|0:1,0:1:0:0:
121,217,48132,1,2,0:1:0:0:
300,227,48240,2,0,L|184:226,1,65,2|10,0:1|0:1,0:1:0:0:
235,226,48458,1,0,0:1:0:0:
413,89,48566,2,0,L|508:85,1,65,8|8,0:2|0:2,0:2:0:0:
212,249,48784,2,0,L|112:249,1,65,8|8,0:1|0:1,0:1:0:0:
370,337,49001,6,0,P|435:271|317:152,1,243.75,12|2,0:0|0:0,0:0:0:0:
160,144,49436,1,8,0:0:0:0:
372,153,49653,2,0,L|272:148,2,81.25,0|2|8,0:0|0:0|0:0,0:0:0:0:
64,320,50088,2,0,L|164:315,2,81.25,0|2|8,0:0|0:0|0:0,0:0:0:0:
474,191,50523,2,0,L|374:186,2,81.25,0|2|8,0:0|0:0|0:0,0:0:0:0:
145,206,50958,6,0,L|86:202,1,54.1666666666667,2|2,0:0|0:0,0:0:0:0:
298,148,51103,2,0,L|241:148,1,54.1666666666667,2|8,0:0|0:0,0:0:0:0:
70,92,51392,1,0,0:0:0:0:
273,303,51610,2,0,L|99:272,1,162.5,0|8,0:0|0:0,0:0:0:0:
23,71,52045,1,2,0:0:0:0:
240,188,52262,2,0,L|109:186,1,81.25,8|8,0:0|0:0,0:0:0:0:
448,272,52479,5,12,0:0:0:0:
208,256,52588,2,0,L|416:256,1,162.5,12|10,0:0|0:0,0:0:0:0:
448,256,52914,1,0,0:0:0:0:
448,320,53023,1,10,0:0:0:0:
256,320,53132,2,0,L|368:320,1,81.25,8|8,0:0|0:0,0:0:0:0:
64,272,53349,5,12,0:0:0:0:
304,256,53458,2,0,L|96:256,1,162.5,12|10,0:0|0:0,0:0:0:0:
64,256,53784,1,0,0:0:0:0:
256,320,53892,2,0,L|144:320,1,81.25,10|8,0:0|0:0,0:0:0:0:
352,272,54110,1,8,0:0:0:0:
80,320,54219,5,12,0:0:0:0:
352,320,54327,2,0,L|176:320,1,162.5,12|10,0:0|0:0,0:0:0:0:
432,272,54653,2,0,L|432:160,1,81.25,0|10,0:0|0:0,0:0:0:0:
208,160,54871,2,0,L|336:160,1,81.25,8|8,0:0|0:0,0:0:0:0:
96,272,55088,5,8,0:0:0:0:
336,272,55197,1,8,0:0:0:0:
112,224,55305,1,8,0:0:0:0:
320,224,55414,1,8,0:0:0:0:
48,192,55523,1,8,0:0:0:0:
352,128,55632,1,8,0:1:0:0:
160,128,55740,1,8,0:0:0:0:
464,192,55849,1,8,0:1:0:0:
192,304,55958,6,0,L|64:304,1,97.50000371933,12|0,0:0|0:0,0:0:0:0:
384,272,56175,2,0,L|384:144,1,97.50000371933,8|0,0:0|0:0,0:0:0:0:
115,279,56392,2,0,P|48:224|138:196,1,195.00000743866,2|8,0:0|0:0,0:0:0:0:
338,59,56719,1,8,0:0:0:0:
115,279,56827,6,0,L|259:267,1,97.50000371933,0|8,0:0|0:0,0:0:0:0:
441,150,57045,2,0,L|434:276,1,97.50000371933,8|8,0:0|0:0,0:0:0:0:
202,349,57262,2,0,L|477:333,1,195.00000743866,2|8,0:0|0:0,0:0:0:0:
125,237,57588,1,0,0:0:0:0:
410,238,57697,6,0,P|395:114|309:83,1,195.00000743866,8|8,0:0|0:0,0:0:0:0:
135,177,58023,2,0,L|262:169,1,97.50000371933,0|2,0:0|0:0,0:0:0:0:
37,77,58349,1,8,0:0:0:0:
399,274,58566,5,2,0:0:0:0:
193,222,58675,1,2,0:0:0:0:
410,277,58784,1,2,0:0:0:0:
385,176,58892,1,0,0:0:0:0:
124,299,59001,2,0,L|294:290,1,97.50000371933,8|0,0:0|0:0,0:0:0:0:
467,227,59219,2,0,L|340:222,1,97.50000371933,8|0,0:0|0:0,0:0:0:0:
141,324,59436,6,0,L|383:315,1,195.00000743866,12|8,0:0|0:0,0:0:0:0:
400,274,59762,1,0,0:0:0:0:
167,262,59871,2,0,L|134:91,1,97.50000371933,2|0,0:0|0:0,0:0:0:0:
326,117,60088,1,8,0:0:0:0:
148,166,60197,1,8,0:0:0:0:
352,180,60305,6,0,P|412:223|353:330,1,195.00000743866,0|8,0:0|0:0,0:0:0:0:
149,328,60632,1,8,0:0:0:0:
349,330,60740,2,0,L|247:324,1,97.50000371933,2|0,0:0|0:0,0:0:0:0:
45,271,60958,2,0,L|195:263,1,97.50000371933,2|0,0:0|0:0,0:0:0:0:
404,242,61175,5,2,0:0:0:0:
63,152,61392,1,2,0:0:0:0:
252,97,61501,1,0,0:0:0:0:
28,87,61610,1,8,0:0:0:0:
450,293,61827,1,2,0:0:0:0:
84,260,62045,5,2,0:0:0:0:
328,214,62153,1,2,0:0:0:0:
122,162,62262,1,2,0:0:0:0:
405,92,62371,1,0,0:0:0:0:
156,289,62479,2,0,L|261:282,1,97.50000371933,8|0,0:0|0:0,0:0:0:0:
35,227,62696,2,0,L|21:131,1,97.50000371933,8|0,0:1|0:0,0:0:0:0:
275,332,62914,6,0,P|310:233|44:134,1,390,12|0,0:0|0:0,0:0:0:0:
377,93,63349,1,2,0:0:0:0:
185,222,63566,2,0,L|361:214,1,97.50000371933,8|8,0:0|0:0,0:0:0:0:
67,329,63784,6,0,P|14:255|205:118,1,390,8|0,0:0|0:0,0:0:0:0:
409,236,64219,2,0,L|259:231,1,97.50000371933,2|0,0:0|0:0,0:0:0:0:
90,243,64436,1,8,0:0:0:0:
355,202,64545,1,8,0:0:0:0:
57,294,64653,6,0,P|26:187|91:130,1,195.00000743866,8|2,0:0|0:0,0:0:0:0:
157,114,64979,1,2,0:0:0:0:
389,203,65088,2,0,L|205:191,1,97.50000371933,8|0,0:0|0:0,0:0:0:0:
102,207,65305,2,0,L|54:61,1,97.50000371933,8|0,0:0|0:0,0:0:0:0:
313,134,65523,6,0,L|78:117,2,195.00000743866,2|2|8,0:0|0:0|0:0,0:0:0:0:
16,240,66175,1,8,0:0:0:0:
400,240,66392,5,8,0:0:0:0:
224,208,66501,1,8,0:0:0:0:
400,176,66610,1,8,0:0:0:0:
64,160,66827,1,2,0:0:0:0:
448,240,67045,1,8,0:0:0:0:
256,208,67154,1,8,0:0:0:0:
448,176,67263,1,8,0:0:0:0:
112,160,67480,1,2,0:0:0:0:
426,234,67697,1,8,0:0:0:0:
168,176,67805,1,8,0:0:0:0:
340,176,67914,1,8,0:0:0:0:
82,234,68022,1,8,0:0:0:0:
368,352,68132,6,0,L|240:352,1,97.50000371933,10|0,0:0|0:0,0:0:0:0:
496,240,68349,2,0,L|384:240,1,97.50000371933,10|0,0:0|0:0,0:0:0:0:
144,352,68566,2,0,L|272:352,1,97.50000371933,10|0,0:0|0:0,0:0:0:0:
16,240,68783,2,0,L|128:240,1,97.50000371933,10|0,0:0|0:0,0:0:0:0:
368,352,69001,2,0,L|240:352,1,97.50000371933,10|0,0:0|0:0,0:0:0:0:
496,240,69218,2,0,L|384:240,1,97.50000371933,10|0,0:0|0:0,0:0:0:0:
149,287,69436,1,10,0:0:0:0:
399,238,69545,1,10,0:0:0:0:
82,238,69653,1,10,0:0:0:0:
428,299,69762,1,10,0:0:0:0:
110,268,69871,6,0,L|352:216,1,208,14|8,0:0|0:0,0:0:0:0:
111,147,70197,1,0,0:0:0:0:
335,330,70305,2,0,P|324:214|205:151,1,208,2|8,0:0|0:0,0:0:0:0:
454,104,70632,1,8,0:0:0:0:
178,290,70740,6,0,L|346:272,1,104,0|8,0:0|0:0,0:0:0:0:
36,157,70958,2,0,L|55:290,1,104,8|8,0:0|0:0,0:0:0:0:
352,339,71175,2,0,L|107:330,1,208,2|2,0:0|0:0,0:0:0:0:
405,250,71501,1,0,0:0:0:0:
124,330,71610,6,0,P|61:271|199:195,1,208,8|2,0:0|0:0,0:0:0:0:
362,190,71936,2,0,L|211:174,1,104,0|2,0:0|0:0,0:0:0:0:
448,96,72262,1,8,0:0:0:0:
113,274,72479,5,2,0:0:0:0:
319,222,72588,1,2,0:0:0:0:
102,277,72697,1,2,0:0:0:0:
127,176,72805,1,0,0:0:0:0:
388,299,72914,2,0,L|197:285,1,104,8|0,0:0|0:0,0:0:0:0:
34,222,73132,2,0,L|60:369,1,104,8|0,0:0|0:0,0:0:0:0:
273,346,73349,6,0,P|335:260|207:270,1,208,8|8,0:0|0:0,0:0:0:0:
394,99,73675,1,0,0:0:0:0:
143,254,73784,2,0,L|375:243,1,208,2|8,0:0|0:0,0:0:0:0:
106,157,74110,1,8,0:0:0:0:
334,334,74219,6,0,L|175:291,1,104,2|0,0:0|0:0,0:0:0:0:
444,245,74436,1,2,0:0:0:0:
205,290,74545,1,2,0:0:0:0:
444,245,74653,2,0,L|414:111,1,104,8|0,0:0|0:0,0:0:0:0:
175,170,74871,2,0,L|-22:193,1,104,8|0,0:0|0:0,0:0:0:0:
340,314,75088,6,0,L|93:314,2,208,10|2|8,0:0|0:0|0:0,0:0:0:0:
16,128,75740,1,8,0:0:0:0:
352,240,75958,5,2,0:0:0:0:
144,192,76066,2,0,L|320:192,1,104,2|2,0:0|0:0,0:0:0:0:
48,304,76284,1,2,0:0:0:0:
256,256,76392,2,0,L|80:256,1,104,8|0,0:0|0:0,0:0:0:0:
400,176,76610,2,0,L|368:320,1,104,8|0,0:0|0:0,0:0:0:0:
160,352,76827,6,0,P|94:286|179:189,1,208,8|8,0:0|0:0,0:0:0:0:
218,165,77153,1,0,0:0:0:0:
411,274,77262,2,0,L|148:258,1,208,2|8,0:0|0:0,0:0:0:0:
417,180,77588,1,8,0:0:0:0:
177,286,77697,6,0,P|181:230|318:130,1,208,8|8,0:0|0:0,0:0:0:0:
383,126,78023,1,0,0:0:0:0:
208,270,78132,2,0,L|64:274,1,104,2|0,0:0|0:0,0:0:0:0:
323,197,78349,1,8,0:0:0:0:
81,252,78458,1,8,0:0:0:0:
334,226,78566,6,0,P|415:287|324:343,1,208,2|2,0:0|0:0,0:0:0:0:
258,344,78892,1,0,0:0:0:0:
16,160,79001,2,0,L|107:234,1,104,8|0,0:0|0:0,0:0:0:0:
338,165,79219,2,0,L|219:101,1,104,8|0,0:0|0:0,0:0:0:0:
462,300,79436,6,0,L|202:280,2,208,10|10|8,0:0|0:0|0:0,0:0:0:0:
100,333,80088,1,8,0:0:0:0:
464,192,80305,5,6,0:0:0:0:
256,192,80414,1,2,0:0:0:0:
464,192,80523,1,2,0:0:0:0:
64,192,80740,1,10,0:0:0:0:
480,192,80958,1,6,0:0:0:0:
272,192,81067,1,2,0:0:0:0:
480,192,81176,1,2,0:0:0:0:
80,192,81393,1,10,0:0:0:0:
496,192,81610,1,10,0:0:0:0:
256,192,81719,1,10,0:0:0:0:
16,192,81827,1,10,0:0:0:0:
352,192,81936,1,10,0:0:0:0:
48,352,82045,6,0,L|176:352,1,104,12|2,0:0|0:0,0:0:0:0:
464,32,82262,2,0,L|336:32,1,104,12|2,0:0|0:0,0:0:0:0:
32,304,82479,2,0,L|160:304,1,104,12|2,0:0|0:0,0:0:0:0:
480,80,82696,2,0,L|352:80,1,104,12|2,0:0|0:0,0:0:0:0:
16,256,82914,2,0,L|144:256,1,104,10|0,0:0|0:0,0:0:0:0:
496,144,83131,2,0,L|368:144,1,104,10|0,0:0|0:0,0:0:0:0:
26,150,83349,1,10,0:0:0:0:
455,212,83458,1,10,0:0:0:0:
96,224,83566,1,14,0:0:0:0:
496,192,83675,1,14,0:0:0:0:
245,195,83784,5,6,0:1:0:0:
