osu file format v14

[General]
AudioFilename: audio.mp3
AudioLeadIn: 0
PreviewTime: 0
Countdown: 0
SampleSet: Soft
StackLeniency: 0.7
Mode: 0
LetterboxInBreaks: 0
WidescreenStoryboard: 0

[Editor]
Bookmarks: 39580,83493
DistanceSpacing: 1.2
BeatDivisor: 4
GridSize: 16
TimelineZoom: 2.4

[Metadata]
Title:Odoru Mizushibuki
TitleUnicode:踊る水飛沫
Artist:Akiyama Uni
ArtistUnicode:あきやま うに
Creator:Arastelia
Version:Fallen Dance
Source:東方Project
Tags:Touhou th10.5 fxt Twilight Frontier Tasofro 黄昏フロンティア zun Scarlet Weather Rhapsody jun Dancing Water Spray 小野冢小町 おのづか こまち Onozuka Komachi Hollow Wings
BeatmapID:2093459
BeatmapSetID:1000232

[Difficulty]
HPDrainRate:6
CircleSize:2.9
OverallDifficulty:8
ApproachRate:10
SliderMultiplier:3.29999990463257
SliderTickRate:1

[Events]
//Background and Video events
0,0,"Wallpaper of The Week Gothic Girl 5 Randomness Thing.jpg",0,0
//Break Periods
//Storyboard Layer 0 (Background)
//Storyboard Layer 1 (Fail)
//Storyboard Layer 2 (Pass)
//Storyboard Layer 3 (Foreground)
//Storyboard Sound Samples

[TimingPoints]
15,434.782608695652,4,2,1,75,1,0
6319,-76.9230769230769,4,2,1,75,0,0
6536,-55.5555555555556,4,2,1,75,0,0
6754,-43.4782608695652,4,2,1,75,0,0
6971,-66.6666666666667,4,2,1,75,0,0
7841,-83.3333333333333,4,2,1,75,0,0
8493,-66.6666666666667,4,2,1,75,0,0
9580,-83.3333333333333,4,2,1,75,0,0
10377,-83.3333333333333,4,2,1,5,0,0
10449,-66.6666666666667,4,2,1,75,0,0
12297,-66.6666666666667,4,2,1,5,0,0
12406,-66.6666666666667,4,2,1,75,0,0
14797,-83.3333333333333,4,2,1,75,0,0
15449,-66.6666666666667,4,2,1,75,0,0
16536,-83.3333333333333,4,2,1,75,0,0
17188,-66.6666666666667,4,2,1,75,0,0
17333,-66.6666666666667,4,2,1,5,0,0
17406,-66.6666666666667,4,2,1,75,0,0
20449,-57.1428571428571,4,2,1,75,0,0
20884,-50,4,2,1,75,0,0
24290,-50,4,2,1,5,0,0
24362,-50,4,2,1,75,0,0
26210,-50,4,2,1,5,0,0
26319,-50,4,2,1,75,0,0
31246,-50,4,2,1,5,0,0
31319,-50,4,2,1,75,0,0
34797,-76.9230769230769,4,2,1,75,0,0
38167,-76.9230769230769,4,2,1,5,0,0
38275,-76.9230769230769,4,2,1,75,0,0
41645,-76.9230769230769,4,2,1,5,0,0
41754,-76.9230769230769,4,2,1,75,0,0
45123,-76.9230769230769,4,2,1,5,0,0
45232,-76.9230769230769,4,2,1,75,0,0
49145,-76.9230769230769,4,2,1,5,0,0
49362,-125,4,2,1,75,0,0
51971,-76.9230769230769,4,2,1,75,0,0
55667,-76.9230769230769,4,2,1,75,0,1
58275,-40,4,2,1,75,0,1
67841,-45.4545454545455,4,2,1,75,0,1
69145,-45.4545454545455,4,2,1,75,0,0
69580,-45.4545454545455,4,2,1,75,0,1
83493,-45.4545454545455,4,2,1,75,0,0

[HitObjects]
60,71,15,5,8,0:0:0:0:
226,71,341,1,8,0:0:0:0:
315,107,449,1,8,0:0:0:0:
97,181,667,5,8,0:0:0:0:
333,219,884,1,8,0:0:0:0:
206,314,993,2,8,P|154:298|5:324,1,164.999995231628
97,181,1319,2,8,L|244:164,1,82.4999976158142
333,219,1536,2,8,L|480:236,1,82.4999976158142
44,306,1754,1,8,0:0:0:0:
260,28,2080,5,8,0:0:0:0:
406,67,2188,1,8,0:0:0:0:
470,129,2406,5,8,0:0:0:0:
127,87,2623,5,8,0:0:0:0:
308,149,2732,2,8,P|425:129|543:138,1,164.999995231628
377,241,3058,1,8,0:0:0:0:
473,293,3167,1,8,0:0:0:0:
358,346,3275,1,8,0:0:0:0:
483,275,3384,1,8,0:0:0:0:
271,268,3493,1,8,0:0:0:0:
143,343,3819,5,8,0:0:0:0:
45,284,3928,1,8,0:0:0:0:
22,190,4145,5,8,0:0:0:0:
370,149,4362,5,8,0:0:0:0:
198,115,4471,2,8,P|106:109|-23:54,1,164.999995231629
205,32,4797,2,8,L|196:129,1,82.4999976158143
143,343,5014,2,8,L|135:260,1,82.4999976158143
434,319,5232,1,8,0:0:0:0:
376,234,5558,5,8,0:0:0:0:
257,289,5667,1,8,0:0:0:0:
135,260,5775,2,8,P|75:246|13:255,1,82.4999976158143
257,289,5993,5,8,0:0:0:0:
376,234,6101,2,8,P|436:220|498:229,1,82.4999976158143
410,76,6319,2,8,P|350:62|268:76,1,107.249991991044
139,153,6536,2,8,P|54:135|-48:39,1,148.499991176606
304,64,6754,2,8,P|328:131|308:306,1,189.749998135567
143,343,6971,6,8,P|57:341|-41:270,1,123.750001144409,8|0,0:0|0:0,0:0:0:0:
139,153,7188,2,8,P|203:127|269:134,1,123.750001144409,8|0,0:0|0:0,0:0:0:0:
327,248,7406,2,8,P|404:263|437:126,1,247.500002288819
304,64,7732,1,8,0:0:0:0:
256,130,7841,2,8,B|174:167|114:161|114:161|15:103,2,197.999988235474
427,9,8493,6,8,P|447:66|428:150,1,123.750001144409,8|0,0:0|0:0,0:0:0:0:
327,248,8710,2,8,P|199:243|143:256,1,123.750001144409,8|0,0:0|0:0,0:0:0:0:
0,304,8928,2,8,P|128:309|184:296,1,123.750001144409,8|0,0:0|0:0,0:0:0:0:
276,300,9145,2,8,P|299:235|130:203,1,247.500002288819
49,119,9471,1,8,0:0:0:0:
128,57,9580,2,8,B|210:20|270:26|270:26|369:84,2,197.999988235474
169,161,10232,6,8,P|265:193|330:158,1,131.999992156983,8|8,0:0|0:0,0:0:0:0:
329,155,10449,2,8,P|383:143|455:205,1,123.750001144409,8|0,0:0|0:0,0:0:0:0:
409,347,10667,2,8,P|371:306|389:212,1,123.750001144409,8|0,0:0|0:0,0:0:0:0:
477,50,10884,2,8,B|375:40|375:40|328:52|328:52|197:47,1,247.500002288819
93,194,11210,1,8,0:0:0:0:
0,78,11319,2,8,P|43:32|148:154,1,247.500002288819
338,335,11754,2,8,P|447:360|483:253,1,247.500002288819
264,31,12188,6,8,P|173:37|119:73,1,123.750001144409,8|0,0:0|0:0,0:0:0:0:
45,129,12406,2,8,P|26:180|39:262,1,123.750001144409
61,277,12569,1,8,0:0:0:0:
61,277,12623,2,8,P|179:236|321:290,1,247.500002288819
264,31,13058,6,8,P|350:53|396:102,1,123.750001144409,8|0,0:0|0:0,0:0:0:0:
453,196,13275,2,8,P|437:275|383:348,1,123.750001144409,8|0,0:0|0:0,0:0:0:0:
274,364,13493,2,8,P|158:358|42:235,1,247.500002288819
372,155,13928,6,8,P|464:163|515:123,1,123.750001144409,8|0,0:0|0:0,0:0:0:0:
271,119,14145,2,8,P|270:180|303:232,1,123.750001144409,8|0,0:0|0:0,0:0:0:0:
350,52,14362,2,8,B|274:22|274:22|159:21|94:54,1,247.500002288819
135,233,14688,1,8,0:0:0:0:
60,276,14797,6,8,P|149:281|210:368,2,197.999988235474
0,168,15449,2,8,P|55:138|135:149,1,123.750001144409,8|0,0:0|0:0,0:0:0:0:
257,205,15667,6,8,P|340:215|475:170,1,123.750001144409,8|0,0:0|0:0,0:0:0:0:
136,23,15884,2,8,B|114:55|114:55|114:175,1,123.750001144409,8|0,0:0|0:0,0:0:0:0:
408,302,16101,2,8,P|466:199|373:120,1,247.500002288819
236,109,16428,1,8,0:0:0:0:
244,318,16536,6,8,P|154:323|25:234,2,197.999988235474
386,121,17188,2,8,P|309:41|249:70,1,165.000001525879
236,109,17406,6,8,P|174:112|115:96,1,123.750001144409,8|0,0:0|0:0,0:0:0:0:
11,255,17623,2,8,P|72:251|132:268,1,123.750001144409,8|0,0:0|0:0,0:0:0:0:
385,303,17841,2,8,P|448:248|361:117,1,247.500002288819
260,230,18167,1,8,0:0:0:0:
384,302,18275,6,8,B|357:221|394:137|394:137|365:63,1,247.500002288819
0,144,18710,2,8,B|27:226|-10:310|-10:310|19:384,1,247.500002288819
435,334,19145,6,8,P|406:254|257:231,1,247.500002288819
226,264,19435,2,8,P|154:273|108:244,1,82.5000007629395
75,214,19580,2,8,P|62:132|203:62,1,247.500002288819
421,204,20014,6,8,P|469:148|446:54,1,123.750001144409,8|0,0:0|0:0,0:0:0:0:
75,214,20232,2,8,P|82:274|125:317,1,123.750001144409,8|0,0:0|0:0,0:0:0:0:
187,56,20449,2,8,B|85:42|85:42|25:68,1,144.374997204542,8|0,0:0|0:0,0:0:0:0:
440,342,20667,2,8,B|441:239|441:239|408:182,1,144.374997204542,8|0,0:0|0:0,0:0:0:0:
187,56,20884,6,8,P|139:85|221:152,1,164.999995231629,8|0,0:0|0:0,0:0:0:0:
293,150,21101,1,8,0:0:0:0:
340,52,21210,1,8,0:0:0:0:
444,42,21319,2,8,P|444:110|397:248,1,164.999995231629,8|0,0:0|0:0,0:0:0:0:
307,267,21536,5,8,0:0:0:0:
186,264,21645,1,8,0:0:0:0:
90,183,21754,2,8,P|39:193|75:297,1,164.999995231629,8|0,0:0|0:0,0:0:0:0:
186,264,21971,2,8,P|214:307|115:355,1,164.999995231629,8|0,0:0|0:0,0:0:0:0:
90,183,22188,2,8,P|164:145|314:182,1,164.999995231629,8|0,0:0|0:0,0:0:0:0:
373,225,22406,1,8,0:0:0:0:
380,91,22514,1,8,0:0:0:0:
263,17,22623,6,8,P|224:43|259:152,1,164.999995231629,8|0,0:0|0:0,0:0:0:0:
373,225,22841,5,8,0:0:0:0:
487,162,22949,1,8,0:0:0:0:
380,91,23058,2,0,P|397:192|454:244,1,164.999995231629,8|0,0:0|0:0,0:0:0:0:
463,327,23275,1,8,0:0:0:0:
334,300,23384,1,8,0:0:0:0:
206,368,23493,2,8,P|110:348|97:255,1,164.999995231629
263,17,23710,2,8,P|348:65|331:158,1,164.999995231629
7,171,23928,2,8,B|-19:131|-19:131|95:99,1,164.999995231629
88,293,24145,2,0,P|28:351|86:283,1,219.999993642171,8|0,0:0|0:0,0:0:0:0:
88,293,24362,6,8,P|177:322|254:288,1,164.999995231629,8|0,0:0|0:0,0:0:0:0:
302,204,24580,1,8,0:0:0:0:
471,221,24688,1,8,0:0:0:0:
389,328,24797,2,8,P|298:338|233:287,1,164.999995231629,8|0,0:0|0:0,0:0:0:0:
208,179,25014,1,8,0:0:0:0:
351,124,25123,1,8,0:0:0:0:
471,221,25232,6,8,P|532:153|508:89,1,164.999995231629,8|0,0:0|0:0,0:0:0:0:
413,11,25449,2,8,P|345:44|375:142,1,164.999995231629,8|0,0:0|0:0,0:0:0:0:
413,11,25667,2,8,P|347:0|251:44,1,164.999995231629,8|0,0:0|0:0,0:0:0:0:
317,247,25884,2,8,P|383:258|479:214,1,164.999995231629,8|0,0:0|0:0,0:0:0:0:
351,124,26101,6,8,L|147:134,1,164.999995231629,8|0,0:0|0:0,0:0:0:0:
47,99,26319,2,8,P|108:149|185:131,1,164.999995231629
193,90,26482,1,8,0:0:0:0:
193,90,26536,2,8,P|134:37|133:88,1,164.999995231629,8|0,0:0|0:0,0:0:0:0:
160,225,26754,2,8,P|145:288|42:327,1,164.999995231629
24,202,26971,6,8,P|5:141|54:50,1,164.999995231629,8|0,0:0|0:0,0:0:0:0:
248,35,27188,2,8,P|267:96|192:58,1,164.999995231629,8|0,0:0|0:0,0:0:0:0:
248,35,27406,2,8,P|362:30|434:88,1,164.999995231629,8|0,0:0|0:0,0:0:0:0:
331,281,27623,2,0,P|300:171|340:87,1,164.999995231629,8|0,0:0|0:0,0:0:0:0:
444,132,27841,6,0,P|475:70|398:58,1,164.999995231629,8|0,0:0|0:0,0:0:0:0:
313,125,28058,1,8,0:0:0:0:
192,89,28167,1,8,0:0:0:0:
79,155,28275,2,0,P|86:228|189:249,1,164.999995231629,8|0,0:0|0:0,0:0:0:0:
310,240,28493,5,8,0:0:0:0:
313,125,28601,1,8,0:0:0:0:
402,53,28710,2,0,P|480:66|423:119,1,164.999995231629,8|0,0:0|0:0,0:0:0:0:
313,125,28928,2,0,P|222:83|236:18,1,164.999995231629,8|0,0:0|0:0,0:0:0:0:
313,125,29145,2,0,L|330:303,1,164.999995231629,8|0,0:0|0:0,0:0:0:0:
432,310,29362,5,8,0:0:0:0:
507,249,29471,1,8,0:0:0:0:
328,289,29580,2,0,P|246:324|164:305,1,164.999995231629,8|0,0:0|0:0,0:0:0:0:
72,170,29797,1,8,0:0:0:0:
191,163,29906,1,8,0:0:0:0:
251,69,30014,6,0,P|176:23|135:135,1,164.999995231629,8|0,0:0|0:0,0:0:0:0:
191,163,30232,1,8,0:0:0:0:
328,162,30341,1,8,0:0:0:0:
430,63,30449,2,0,P|504:93|445:154,1,164.999995231629,8|8,0:0|0:0,0:0:0:0:
191,163,30667,2,0,P|117:193|176:254,1,164.999995231629,8|8,0:0|0:0,0:0:0:0:
511,222,30884,2,0,P|548:174|464:170,1,164.999995231629,8|8,0:0|0:0,0:0:0:0:
206,353,31101,6,0,P|91:349|44:215,1,219.999993642171,8|0,0:0|0:0,0:0:0:0:
147,251,31319,2,0,P|279:252|374:280,1,164.999995231629,8|0,0:0|0:0,0:0:0:0:
487,259,31536,1,8,0:0:0:0:
395,201,31645,1,8,0:0:0:0:
397,94,31754,2,0,P|454:71|470:154,1,164.999995231629,8|0,0:0|0:0,0:0:0:0:
395,201,31971,1,8,0:0:0:0:
282,148,32080,1,8,0:0:0:0:
155,177,32188,6,0,P|42:169|23:74,1,164.999995231629,8|0,0:0|0:0,0:0:0:0:
210,97,32406,2,0,P|259:198|186:262,1,164.999995231629,8|0,0:0|0:0,0:0:0:0:
107,95,32623,2,0,P|170:1|262:32,1,164.999995231629,8|0,0:0|0:0,0:0:0:0:
163,292,32841,2,0,P|81:291|0:303,1,164.999995231629,8|0,0:0|0:0,0:0:0:0:
163,292,33058,6,0,P|182:342|329:285,1,164.999995231629,8|0,0:0|0:0,0:0:0:0:
449,316,33275,1,8,0:0:0:0:
403,220,33348,2,8,B|393:133|393:133|415:90,1,109.999996821086
363,135,33493,2,0,B|293:167|280:41|145:123,1,164.999995231629,8|0,0:0|0:0,0:0:0:0:
34,150,33710,5,8,0:0:0:0:
106,10,33819,1,8,0:0:0:0:
209,96,33928,2,0,P|224:198|134:255,1,164.999995231629,8|0,0:0|0:0,0:0:0:0:
118,66,34145,2,0,P|198:2|293:51,1,164.999995231629,8|0,0:0|0:0,0:0:0:0:
133,159,34362,2,0,P|37:120|32:14,1,164.999995231629,8|0,0:0|0:0,0:0:0:0:
187,239,34580,2,0,P|278:269|398:213,1,164.999995231629,8|0,0:0|0:0,0:0:0:0:
335,108,34797,6,0,P|433:79|580:158,2,214.499983982087
187,239,35449,1,0,0:0:0:0:
333,220,35558,1,0,0:0:0:0:
166,238,35667,2,0,P|103:209|15:303,1,214.499983982087
358,322,36101,2,0,P|421:351|509:257,1,214.499983982087
442,23,36536,6,0,P|324:15|239:22,1,142.999989321391
208,72,36754,2,0,P|212:107|228:68,1,71.4999946606957
201,53,36899,2,0,P|146:53|114:70,1,71.4999946606957
33,185,37188,6,0,P|112:157|192:235,1,107.249991991044
248,202,37406,1,8,0:0:0:0:
33,185,37623,1,8,0:0:0:0:
363,60,37841,6,0,P|397:22|397:152,1,321.749975973131
393,177,38275,2,0,P|375:273|530:331,2,214.499983982087
282,136,38928,5,0,0:0:0:0:
363,60,39036,1,0,0:0:0:0:
208,57,39145,2,0,P|96:51|-13:92,1,214.499983982087
247,371,39580,2,0,P|359:377|468:336,1,214.499983982087
109,150,40014,5,0,0:0:0:0:
361,177,40232,1,0,0:0:0:0:
25,191,40449,2,0,P|78:114|225:141,1,214.499983982087
250,202,40775,2,0,L|398:207,1,107.249991991044
403,130,40993,2,0,L|551:135,1,107.249991991044
394,361,41319,6,0,L|376:32,1,321.749975973131
403,130,41754,5,0,0:0:0:0:
242,125,41972,1,0,0:0:0:0:
93,206,42188,1,0,0:0:0:0:
312,199,42406,5,0,0:0:0:0:
165,197,42514,1,0,0:0:0:0:
342,203,42623,5,0,0:0:0:0:
127,200,42841,1,0,0:0:0:0:
383,211,43058,1,0,0:0:0:0:
93,206,43276,1,0,0:0:0:0:
271,332,43493,6,0,P|376:365|463:260,1,214.499983982087
383,211,43783,2,0,L|371:96,1,71.4999946606957
441,50,43928,2,0,B|394:80|394:80|210:60,1,214.499983982087
73,36,44254,1,0,0:0:0:0:
103,319,44362,5,0,0:0:0:0:
103,75,44580,1,0,0:0:0:0:
375,139,44797,2,0,P|449:101|320:63,1,321.749975973131
293,93,45232,6,0,B|226:133|150:119|150:119|86:59,2,214.499983982087
375,139,45884,1,0,0:0:0:0:
424,231,45993,1,0,0:0:0:0:
427,335,46101,6,0,P|326:311|263:403,3,214.499983982087
45,332,46971,6,0,B|26:275|26:275|70:217|21:73,1,214.499983982087
79,17,47406,2,0,B|134:47|134:47|225:-5|328:60,1,214.499983982087
237,225,47732,2,0,P|194:255|144:241,1,107.249991991044
36,125,47949,2,0,P|86:111|129:142,1,107.249991991044
219,309,48275,5,0,0:3:0:0:
222,288,48383,1,0,0:3:0:0:
228,267,48492,1,0,0:3:0:0:
232,246,48601,1,0,0:3:0:0:
237,225,48710,2,0,B|268:182|268:182|244:158|244:158|275:145|275:145|236:112|324:43|516:54|406:318,1,428.999967964174,14|0,0:0|0:0,0:0:0:0:
387,342,49362,6,0,P|429:365|493:359,2,65.9999980926514,2|0|0,0:0|0:0|0:0,0:0:0:0:
129,142,49797,2,0,P|130:94|167:41,2,65.9999980926514,2|0|0,0:0|0:0|0:0,0:0:0:0:
479,64,50232,2,0,P|477:16|440:-36,2,65.9999980926514,2|0|0,0:0|0:0|0:0,0:0:0:0:
140,248,50667,2,0,P|107:246|61:220,3,43.9999987284343,2|0|0|2,0:0|0:0|0:0|0:0,0:0:0:0:
319,202,51101,1,0,0:0:0:0:
400,63,51319,5,2,0:0:0:0:
268,70,51536,1,2,0:0:0:0:
136,77,51754,1,2,0:0:0:0:
144,272,51971,5,2,0:0:0:0:
160,256,52080,1,2,0:0:0:0:
176,240,52188,1,2,0:0:0:0:
87,183,52297,1,0,0:0:0:0:
337,273,52514,5,12,0:0:0:0:
316,18,52732,5,2,0:0:0:0:
327,51,52841,1,2,0:0:0:0:
339,85,52949,1,2,0:0:0:0:
351,119,53058,1,2,0:0:0:0:
476,64,53167,1,0,0:0:0:0:
162,93,53384,5,12,0:0:0:0:
372,347,53601,5,2,0:0:0:0:
351,312,53709,1,2,0:0:0:0:
331,277,53818,1,2,0:0:0:0:
311,242,53927,1,2,0:0:0:0:
469,251,54035,1,2,0:0:0:0:
51,305,54254,5,12,0:0:0:0:
144,272,54471,5,2,0:0:0:0:
160,256,54580,1,2,0:0:0:0:
176,240,54688,1,2,0:0:0:0:
96,208,54797,5,2,0:0:0:0:
272,264,54906,1,0,0:0:0:0:
51,305,55014,1,2,0:0:0:0:
214,353,55123,1,0,0:0:0:0:
70,218,55232,1,2,0:0:0:0:
277,171,55341,1,0,0:0:0:0:
51,305,55449,1,2,0:0:0:0:
318,256,55558,1,0,0:0:0:0:
9,144,55667,5,14,0:0:0:0:
446,75,55884,1,8,0:0:0:0:
73,28,56101,1,8,0:0:0:0:
197,14,56319,5,8,0:0:0:0:
446,75,56428,1,8,0:0:0:0:
512,157,56645,5,8,0:0:0:0:
254,181,56754,1,8,0:0:0:0:
318,352,56971,5,8,0:0:0:0:
197,14,57188,1,8,0:0:0:0:
32,227,57406,5,12,0:0:0:0:
246,215,57514,1,8,0:0:0:0:
460,203,57623,1,8,0:0:0:0:
130,121,57841,5,8,0:0:0:0:
446,17,58058,1,8,0:0:0:0:
152,344,58275,2,0,B|88:321|37:386|-55:302|-55:302|67:293|32:186|188:259,1,412.499988079071,2|2,0:0|0:0,0:0:0:0:
455,334,58710,1,8,0:0:0:0:
231,38,58928,5,8,0:0:0:0:
402,93,59036,1,8,0:0:0:0:
328,261,59145,1,12,0:0:0:0:
382,72,59254,1,8,0:0:0:0:
503,219,59362,1,8,0:0:0:0:
71,142,59580,1,8,0:0:0:0:
165,86,59797,5,8,0:0:0:0:
382,72,59906,1,8,0:0:0:0:
481,130,60123,5,8,0:0:0:0:
232,233,60232,1,8,0:0:0:0:
10,232,60449,5,8,0:0:0:0:
440,328,60667,1,8,0:0:0:0:
73,37,60884,5,12,0:0:0:0:
262,91,60993,1,8,0:0:0:0:
29,147,61101,1,8,0:0:0:0:
309,203,61210,1,8,0:0:0:0:
82,298,61319,1,8,0:0:0:0:
407,28,61536,1,8,0:0:0:0:
357,332,61754,6,0,B|443:397|467:298|524:388|524:388|592:328|367:361|534:118,1,412.499988079071,2|2,0:0|0:0,0:0:0:0:
407,28,62188,1,8,0:0:0:0:
43,384,62406,5,8,0:0:0:0:
74,206,62514,1,8,0:0:0:0:
105,28,62623,1,8,0:0:0:0:
43,384,62841,5,10,0:0:0:0:
105,28,63058,1,10,0:0:0:0:
407,28,63275,5,8,0:0:0:0:
438,206,63384,1,8,0:0:0:0:
469,384,63492,1,8,0:0:0:0:
407,28,63710,5,10,0:0:0:0:
469,384,63928,1,10,0:0:0:0:
8,195,64145,5,8,0:0:0:0:
229,193,64253,1,8,0:0:0:0:
451,191,64362,1,8,0:0:0:0:
8,195,64580,1,10,0:0:0:0:
260,172,64797,1,10,0:0:0:0:
0,218,65014,1,8,0:0:0:0:
490,318,65232,5,14,0:0:0:0:
357,198,65340,1,10,0:0:0:0:
320,371,65449,1,10,0:0:0:0:
497,30,65667,5,8,0:0:0:0:
122,75,65884,1,8,0:0:0:0:
497,30,66101,5,8,0:0:0:0:
262,128,66210,1,8,0:0:0:0:
499,128,66319,1,8,0:0:0:0:
65,301,66536,5,10,0:0:0:0:
497,30,66754,5,8,0:0:0:0:
262,128,66863,1,8,0:0:0:0:
499,128,66972,1,8,0:0:0:0:
65,301,67189,5,10,0:0:0:0:
497,30,67406,5,8,0:0:0:0:
262,128,67515,1,8,0:0:0:0:
512,159,67624,1,8,0:0:0:0:
257,270,67732,1,8,0:0:0:0:
457,368,67841,6,0,P|463:287|450:185,1,181.500000293732,10|0,0:0|0:0,0:0:0:0:
323,0,68058,2,0,P|317:81|330:183,1,181.500000293732,10|0,0:0|0:0,0:0:0:0:
162,384,68275,2,0,P|168:303|155:201,1,181.500000293732,10|0,0:0|0:0,0:0:0:0:
28,16,68493,2,0,P|22:97|35:199,1,181.500000293732,10|0,0:0|0:0,0:0:0:0:
256,254,68710,5,10,0:0:0:0:
155,203,68819,1,2,0:0:0:0:
316,181,68928,1,10,0:0:0:0:
170,163,69037,1,2,0:0:0:0:
349,94,69145,1,10,0:0:0:0:
174,119,69254,1,2,0:0:0:0:
357,1,69362,1,10,0:0:0:0:
164,76,69471,1,2,0:0:0:0:
453,28,69580,5,14,0:0:0:0:
457,344,69797,1,8,0:0:0:0:
239,0,70014,1,8,0:0:0:0:
192,323,70232,5,8,0:0:0:0:
296,88,70341,1,8,0:0:0:0:
149,51,70558,5,8,0:0:0:0:
117,260,70667,1,8,0:0:0:0:
448,190,70884,5,8,0:0:0:0:
17,238,71101,1,8,0:0:0:0:
354,5,71319,5,8,0:0:0:0:
351,186,71427,1,8,0:0:0:0:
349,367,71536,1,8,0:0:0:0:
354,5,71754,5,8,0:0:0:0:
349,367,71971,1,8,0:0:0:0:
132,7,72188,2,0,B|17:-29|-46:82|-46:82|38:70|123:127,1,363.000000587464,2|2,0:0|0:0,0:0:0:0:
451,105,72623,1,8,0:0:0:0:
102,324,72841,5,8,0:0:0:0:
41,223,72949,1,8,0:0:0:0:
190,247,73057,1,12,0:0:0:0:
339,272,73166,1,8,0:0:0:0:
279,181,73275,1,8,0:0:0:0:
501,373,73493,5,8,0:0:0:0:
448,203,73710,5,8,0:0:0:0:
190,247,73819,1,8,0:0:0:0:
83,166,74037,5,8,0:0:0:0:
328,76,74145,1,8,0:0:0:0:
262,369,74362,5,8,0:0:0:0:
111,11,74580,1,8,0:0:0:0:
512,48,74797,5,14,0:0:0:0:
328,76,74906,1,8,0:0:0:0:
512,154,75014,1,8,0:0:0:0:
320,179,75123,1,8,0:0:0:0:
510,260,75232,1,8,0:0:0:0:
92,292,75449,1,8,0:0:0:0:
465,68,75667,6,0,B|525:78|568:42|568:42|480:-8|312:84,1,363.000000587464,2|2,0:0|0:0,0:0:0:0:
373,356,76101,1,10,0:0:0:0:
13,29,76319,5,8,0:0:0:0:
239,48,76427,1,8,0:0:0:0:
465,68,76536,1,8,0:0:0:0:
13,29,76754,5,10,0:0:0:0:
465,68,76971,1,10,0:0:0:0:
469,310,77188,5,8,0:0:0:0:
243,329,77296,1,8,0:0:0:0:
17,349,77405,1,8,0:0:0:0:
469,310,77623,5,10,0:0:0:0:
17,349,77840,1,10,0:0:0:0:
315,192,78058,5,8,0:0:0:0:
453,168,78167,1,8,0:0:0:0:
365,62,78275,1,8,0:0:0:0:
362,370,78493,1,10,0:0:0:0:
204,54,78710,1,10,0:0:0:0:
162,367,78928,1,8,0:0:0:0:
25,109,79145,5,10,0:0:0:0:
197,150,79254,1,10,0:0:0:0:
58,24,79362,1,10,0:0:0:0:
438,61,79580,1,10,0:0:0:0:
197,150,79797,1,8,0:0:0:0:
483,336,80014,5,10,0:0:0:0:
298,256,80123,1,8,0:0:0:0:
483,256,80232,1,8,0:0:0:0:
26,340,80449,1,10,0:0:0:0:
483,336,80667,5,10,0:0:0:0:
298,256,80776,1,8,0:0:0:0:
483,256,80885,1,8,0:0:0:0:
26,340,81102,1,10,0:0:0:0:
483,336,81319,5,10,0:0:0:0:
298,256,81428,1,8,0:0:0:0:
485,220,81537,1,10,0:0:0:0:
300,139,81645,1,8,0:0:0:0:
482,98,81754,2,0,P|409:69|290:75,1,181.500000293732,10|0,0:0|0:0,0:0:0:0:
21,130,81971,2,0,P|94:159|213:153,1,181.500000293732,10|0,0:0|0:0,0:0:0:0:
472,283,82188,2,0,P|399:254|280:260,1,181.500000293732,10|0,0:0|0:0,0:0:0:0:
11,315,82406,2,0,P|84:344|203:338,1,181.500000293732,10|0,0:0|0:0,0:0:0:0:
417,177,82623,5,10,0:0:0:0:
195,157,82732,1,8,0:0:0:0:
441,86,82841,5,10,0:0:0:0:
160,139,82950,1,8,0:0:0:0:
391,4,83058,5,10,0:0:0:0:
297,255,83167,1,8,0:0:0:0:
206,43,83275,1,10,0:0:0:0:
417,177,83384,1,8,0:0:0:0:
111,253,83493,1,14,0:0:0:0:
