osu file format v14

[General]
AudioFilename: audio.mp3
AudioLeadIn: 2000
PreviewTime: 52735
Countdown: 0
SampleSet: Normal
StackLeniency: 0.4
Mode: 0
LetterboxInBreaks: 0
WidescreenStoryboard: 0

[Editor]
DistanceSpacing: 1.8
BeatDivisor: 4
GridSize: 16
TimelineZoom: 1.7

[Metadata]
Title:Niiru Renka Chou ~ Ancients
TitleUnicode:二色蓮花蝶 ~ Ancients
Artist:Akiyama Uni
ArtistUnicode:あきやまうに
Creator:My Angel Azusa
Version:Dance
Source:西方Project
Tags:sahuang lunasaika SnowNiNo_ frey doormat pata-mon 東方 Touhou Seihou zun u2 Dichromatic Lotus Butterfly あきやまうに 上海アリス幻樂団 西方秋霜玉 Shuugou Gyoku twilight frontier 黄昏フロンティア th12.3 核熱造神ヒソウテンソク c77 fxtz 博丽霊梦 はくれい れいむ Hakurei Reimu
BeatmapID:1155515
BeatmapSetID:545404

[Difficulty]
HPDrainRate:6
CircleSize:4.3
OverallDifficulty:8.5
ApproachRate:9.4
SliderMultiplier:1.55
SliderTickRate:1

[Events]
//Background and Video events
0,0,"sahuangbaka.jpg",0,0
//Break Periods
//Storyboard Layer 0 (Background)
//Storyboard Layer 1 (Fail)
//Storyboard Layer 2 (Pass)
//Storyboard Layer 3 (Foreground)
//Storyboard Sound Samples

[TimingPoints]
10,300,4,1,1,50,1,0
4510,-50,4,1,1,70,0,0
4810,-100,4,1,1,55,0,0
13060,-71.4285714285714,4,1,1,60,0,0
14410,-90.9090909090909,4,1,1,60,0,0
22660,-66.6666666666667,4,1,1,60,0,0
24010,-83.3333333333333,4,3,1,60,0,0
33610,-105.263157894737,4,1,1,50,0,0
43060,-95.2380952380954,4,1,1,50,0,0
51460,-80,4,1,1,50,0,0
52810,-83.3333333333333,4,1,1,75,0,1
62110,-83.3333333333333,4,1,1,75,0,0
62410,-83.3333333333333,4,1,1,75,0,1
72010,-133.333333333333,4,2,1,45,0,0
81610,-100,4,1,1,60,0,0
89860,-83.3333333333333,4,1,1,60,0,0
91210,-100,4,1,1,60,0,0
95410,-100,4,1,1,40,0,0
95710,-66.6666666666667,4,1,1,30,0,0
96010,-66.6666666666667,4,1,1,15,0,0

[Colours]
Combo1 : 124,0,236
Combo2 : 0,200,0
Combo3 : 34,134,255
Combo4 : 255,142,30

[HitObjects]
131,157,10,6,0,L|229:147,1,77.4999999999999,4|2,3:0|0:2,0:0:0:0:
338,141,310,1,8,0:0:0:0:
338,141,460,1,8,0:0:0:0:
172,42,610,2,0,L|270:32,1,77.4999999999999,8|8,0:2|0:2,0:0:0:0:
379,26,910,1,0,0:0:0:0:
258,41,1060,6,0,L|180:48,1,77.4999999999999,2|0,0:0|0:0,0:0:0:0:
217,156,1360,2,0,L|139:163,1,77.4999999999999,2|8,0:0|0:0,0:0:0:0:
296,109,1660,2,0,P|303:183|246:243,1,155,10|2,0:0|0:2,0:0:0:0:
252,240,2110,1,8,0:0:0:0:
410,157,2260,1,2,0:2:0:0:
410,157,2335,1,2,0:2:0:0:
410,157,2410,5,14,0:2:0:0:
363,342,2560,1,8,0:2:0:0:
345,332,2860,1,8,0:2:0:0:
327,322,3160,1,0,3:0:0:0:
187,310,3310,1,8,0:0:0:0:
47,298,3460,6,0,P|40:255|49:212,1,77.4999999999999,0|0,3:0|3:0,0:0:0:0:
151,87,3760,1,0,3:0:0:0:
152,222,3910,1,8,0:0:0:0:
41,69,4060,1,0,3:0:0:0:
236,139,4210,1,12,0:2:0:0:
255,140,4285,1,2,0:2:0:0:
274,140,4360,1,2,0:2:0:0:
293,139,4435,1,2,0:2:0:0:
313,136,4510,6,0,P|351:78|364:179,1,232.5,14|0,0:2|2:0,0:0:0:0:
359,198,4810,6,0,P|332:239|361:332,1,116.25,12|0,3:0|0:0,0:0:0:0:
355,329,5110,1,10,0:0:0:0:
444,231,5260,1,8,0:0:0:0:
252,249,5410,2,0,L|154:243,1,77.5,8|2,0:2|0:2,0:0:0:0:
79,332,5710,1,8,0:0:0:0:
252,249,5860,6,0,P|251:154|215:108,1,155,0|0,3:0|3:0,0:0:0:0:
78,86,6310,1,10,0:0:0:0:
174,244,6460,1,8,0:0:0:0:
299,57,6610,2,0,P|336:50|403:57,1,77.5,8|2,0:2|0:2,0:0:0:0:
328,243,6910,2,0,P|291:250|224:243,1,77.5,8|0,0:0|3:0,0:0:0:0:
416,204,7210,6,0,L|420:285,1,77.5,0|0,0:0|3:0,0:0:0:0:
323,378,7510,1,10,0:0:0:0:
323,378,7660,1,8,0:0:0:0:
247,171,7810,2,0,L|251:252,1,77.5,8|2,0:2|0:2,0:0:0:0:
154,345,8110,1,8,0:0:0:0:
157,151,8260,6,0,B|199:141|199:141|264:149|264:149|315:138,1,155,4|2,3:2|3:2,0:0:0:0:
143,51,8710,1,10,0:0:0:0:
143,51,8860,1,8,3:1:0:0:
250,248,9010,1,8,0:2:0:0:
260,57,9160,1,2,0:2:0:0:
368,204,9310,1,10,0:0:0:0:
157,151,9460,1,8,0:2:0:0:
368,204,9610,6,0,P|406:206|457:205,1,77.5,4|2,3:0|0:2,0:0:0:0:
332,312,9910,1,10,0:0:0:0:
332,312,10060,1,8,0:0:0:0:
163,174,10210,2,0,P|201:176|252:175,1,77.5,8|2,0:2|0:2,0:0:0:0:
127,282,10510,1,0,0:0:0:0:
121,80,10660,6,0,P|197:84|299:82,1,155,0|0,3:0|3:0,0:0:0:0:
443,20,11110,1,10,0:0:0:0:
443,20,11260,1,8,0:0:0:0:
352,199,11410,1,8,0:2:0:0:
317,14,11560,1,2,0:2:0:0:
456,150,11710,2,0,P|463:192|464:236,1,77.5,8|2,0:0|0:2,0:0:0:0:
256,352,12010,5,6,3:2:0:0:
256,352,12160,1,6,3:2:0:0:
86,55,12460,1,8,0:2:0:0:
426,55,12760,1,8,0:2:0:0:
187,350,13060,6,0,P|257:281|325:352,1,216.999993377686,12|2,3:2|0:2,0:0:0:0:
256,192,13510,1,10,0:0:0:0:
256,192,13660,1,0,0:0:0:0:
99,274,13810,1,10,0:2:0:0:
165,72,13960,1,2,3:2:0:0:
165,72,14035,1,0,3:0:0:0:
165,72,14110,1,4,3:2:0:0:
341,235,14260,1,2,3:2:0:0:
341,235,14335,1,0,3:0:0:0:
341,235,14410,6,0,L|238:237,1,85.2500026016236,12|0,3:0|0:0,0:0:0:0:
384,125,14710,1,10,0:0:0:0:
384,125,14860,1,8,0:0:0:0:
306,332,15010,2,0,L|203:334,1,85.2500026016236,8|2,0:2|0:2,0:0:0:0:
341,235,15310,1,8,0:0:0:0:
139,257,15460,6,0,B|123:222|132:150|132:150|104:189|49:184,1,170.500005203247,0|0,3:0|3:0,0:0:0:0:
208,43,15910,1,10,0:0:0:0:
208,43,16060,1,8,0:0:0:0:
292,209,16210,2,0,P|300:167|284:120,1,85.2500026016236,8|2,0:2|0:2,0:0:0:0:
139,257,16510,2,0,P|131:299|147:346,1,85.2500026016236,0|0,0:0|3:0,0:0:0:0:
292,209,16810,6,0,L|404:206,1,85.2500026016236,0|0,0:0|3:0,0:0:0:0:
230,295,17110,1,10,0:0:0:0:
230,295,17260,1,8,0:0:0:0:
354,123,17410,2,0,L|466:120,1,85.2500026016236,8|2,0:2|0:2,0:0:0:0:
292,209,17710,1,8,0:0:0:0:
179,38,17860,6,0,P|129:70|199:110,1,170.500005203247,4|2,3:2|3:2,0:0:0:0:
78,12,18310,1,10,0:0:0:0:
271,76,18460,1,8,3:1:0:0:
84,164,18610,1,8,0:2:0:0:
244,9,18760,1,2,0:2:0:0:
191,211,18910,1,10,0:0:0:0:
78,12,19060,1,8,0:2:0:0:
271,76,19210,6,0,L|279:176,1,85.2500026016236,4|2,3:0|0:2,0:0:0:0:
350,325,19510,1,10,0:0:0:0:
350,325,19660,1,8,0:0:0:0:
123,250,19810,2,0,P|164:244|218:250,1,85.2500026016236,8|2,0:2|0:2,0:0:0:0:
350,325,20110,1,8,0:0:0:0:
123,250,20260,6,0,B|109:199|109:199|124:138|124:138|112:83,1,170.500005203247,0|0,3:0|3:0,0:0:0:0:
22,203,20710,1,10,0:0:0:0:
224,111,20860,1,8,0:0:0:0:
22,91,21010,1,8,0:2:0:0:
203,193,21160,1,2,0:2:0:0:
113,1,21310,2,0,P|104:43|112:84,1,85.2500026016236,8|2,0:0|0:2,0:0:0:0:
256,48,21610,5,6,3:2:0:0:
256,48,21760,1,6,3:2:0:0:
102,347,22060,1,8,0:2:0:0:
410,347,22360,1,8,0:2:0:0:
379,33,22660,6,0,P|391:136|386:281,1,232.500008869171,12|2,3:2|0:2,0:0:0:0:
261,103,23110,1,10,0:0:0:0:
261,103,23260,1,0,0:0:0:0:
277,304,23410,1,2,3:2:0:0:
462,146,23560,1,8,0:2:0:0:
399,338,23710,1,10,0:0:0:0:
348,134,23860,1,2,0:2:0:0:
242,330,24010,6,0,L|136:337,1,92.9999971618653,14|0,0:0|0:0,0:0:0:0:
244,176,24310,1,10,0:1:0:0:
18,227,24460,2,0,B|6:204|8:179|8:179|27:189|52:177,1,92.9999971618653,4|0,0:1|0:0,0:0:0:0:
244,176,24760,2,0,B|256:153|254:128|254:128|235:138|210:126,1,92.9999971618653,0|14,0:0|0:1,0:0:0:0:
23,72,25060,6,0,B|11:49|13:24|13:24|32:34|57:22,1,92.9999971618653,0|0,0:0|0:0,0:0:0:0:
212,127,25360,1,4,0:1:0:0:
138,35,25510,1,10,0:1:0:0:
117,195,25660,1,0,0:0:0:0:
339,25,25810,5,4,0:2:0:0:
98,377,26110,1,4,0:2:0:0:
339,25,26410,5,14,0:0:0:0:
421,139,26560,1,0,0:0:0:0:
339,254,26710,1,10,0:1:0:0:
203,68,26860,2,0,B|162:53|162:53|176:100,1,92.9999971618653,4|0,0:1|0:0,0:0:0:0:
421,139,27160,2,0,B|461:124|461:124|447:171,1,92.9999971618653,0|14,0:0|0:1,0:0:0:0:
203,210,27460,6,0,B|162:195|162:195|176:242,1,92.9999971618653,0|0,0:0|0:0,0:0:0:0:
339,254,27760,1,4,0:1:0:0:
264,171,27910,1,10,0:1:0:0:
254,352,28060,1,0,0:0:0:0:
19,187,28210,5,6,0:2:0:0:
500,44,28510,1,6,0:2:0:0:
19,187,28810,6,0,L|115:187,1,92.9999971618653,14|0,3:0|0:0,0:0:0:0:
289,140,29110,1,10,0:1:0:0:
243,309,29260,2,0,P|230:270|242:213,1,92.9999971618653,4|0,0:1|0:0,0:0:0:0:
464,329,29560,2,0,P|436:359|381:377,1,92.9999971618653,0|14,0:0|0:1,0:0:0:0:
370,125,29860,6,0,P|410:133|453:172,1,92.9999971618653,0|0,0:0|0:0,0:0:0:0:
238,219,30160,1,4,0:1:0:0:
245,103,30310,1,10,0:1:0:0:
349,230,30460,1,0,0:0:0:0:
482,14,30610,5,4,0:2:0:0:
24,267,30910,1,4,0:2:0:0:
482,14,31210,5,14,3:0:0:0:
343,33,31360,1,0,0:0:0:0:
204,52,31510,1,10,0:1:0:0:
370,214,31660,2,0,B|372:239|385:258|385:258|362:250|338:250,1,92.9999971618653,4|0,0:1|0:0,0:0:0:0:
146,276,31960,2,0,B|123:265|100:266|100:266|118:251|130:230,1,92.9999971618653,0|14,0:0|0:1,0:0:0:0:
204,52,32260,6,0,B|224:37|234:17|234:17|239:40|251:61,1,92.9999971618653,0|0,0:0|0:0,0:0:0:0:
129,231,32560,1,4,0:1:0:0:
84,125,32710,1,10,0:1:0:0:
244,218,32860,1,0,0:0:0:0:
54,2,33010,5,6,0:2:0:0:
503,284,33310,1,6,3:2:0:0:
54,2,33610,6,0,P|35:87|61:142,1,147.249996068001,12|10,3:0|0:0,0:0:0:0:
58,139,34060,1,8,0:0:0:0:
215,17,34210,1,8,0:2:0:0:
213,179,34360,1,2,0:2:0:0:
136,68,34510,1,8,0:0:0:0:
306,150,34660,6,0,L|469:157,1,147.249996068001,4|2,0:2|0:2,0:0:0:0:
503,20,35110,1,10,0:0:0:0:
385,86,35260,2,0,P|358:158|394:234,1,147.249996068001,8|8,0:0|0:2,0:0:0:0:
297,60,35710,2,0,P|260:57|223:61,1,73.6249980340005,8|2,0:0|0:2,0:0:0:0:
308,223,36010,6,0,P|345:226|381:221,1,73.6249980340005,4|0,3:2|0:0,0:0:0:0:
255,140,36310,1,10,0:0:0:0:
299,304,36460,1,8,0:0:0:0:
167,170,36610,1,8,0:2:0:0:
344,145,36760,1,2,0:2:0:0:
205,294,36910,1,8,0:0:0:0:
205,80,37060,6,0,P|136:76|79:130,1,147.249996068001,4|2,0:2|0:2,0:0:0:0:
205,294,37510,1,10,0:0:0:0:
205,294,37660,1,8,0:0:0:0:
296,134,37810,2,0,P|298:166|296:223,1,73.6249980340005,2|8,0:2|0:2,0:0:0:0:
227,57,38110,1,8,0:0:0:0:
391,98,38260,1,2,0:2:0:0:
184,177,38410,6,0,P|100:181|28:181,1,147.249996068001,4|10,0:2|0:0,0:0:0:0:
366,297,39010,1,8,0:2:0:0:
300,182,39160,1,2,0:2:0:0:
415,116,39310,1,8,0:0:0:0:
480,231,39460,6,0,B|468:265|468:265|483:311|465:380,1,147.249996068001,4|2,0:2|0:2,0:0:0:0:
466,374,39910,1,10,0:0:0:0:
263,322,40060,2,0,P|226:270|237:166,1,147.249996068001,8|8,0:0|0:2,0:0:0:0:
300,182,40510,2,0,L|207:192,1,73.6249980340005,8|2,0:0|0:2,0:0:0:0:
429,98,40810,5,4,0:2:0:0:
248,48,40960,2,0,L|155:58,2,73.6249980340005,0|10|8,0:0|0:0|0:0,0:0:0:0:
110,181,41410,1,8,0:2:0:0:
300,182,41560,1,2,0:2:0:0:
175,56,41710,1,8,0:0:0:0:
133,287,41860,6,0,B|176:301|176:301|289:283,1,147.249996068001,4|2,0:2|0:2,0:0:0:0:
300,182,42310,1,10,0:0:0:0:
133,287,42460,1,8,0:0:0:0:
203,131,42610,1,8,0:2:0:0:
276,284,42760,1,2,3:2:0:0:
276,284,42835,1,0,3:0:0:0:
276,284,42910,1,4,3:2:0:0:
76,177,43060,1,2,3:2:0:0:
76,177,43135,1,0,3:0:0:0:
76,177,43210,6,0,P|57:92|118:86,1,162.749995033264,12|10,3:0|0:0,0:0:0:0:
110,82,43660,1,8,0:0:0:0:
155,244,43810,1,8,0:2:0:0:
212,62,43960,1,2,0:2:0:0:
76,177,44110,1,8,0:0:0:0:
266,243,44260,6,0,L|442:240,1,162.749995033264,4|2,0:2|0:2,0:0:0:0:
336,62,44710,1,10,0:0:0:0:
473,171,44860,2,0,P|510:238|462:319,1,162.749995033264,8|8,0:0|0:2,0:0:0:0:
266,243,45310,2,0,P|308:250|361:242,1,81.3749975166322,8|2,0:0|0:2,0:0:0:0:
233,55,45610,6,0,P|191:48|138:56,1,81.3749975166322,4|0,0:2|0:0,0:0:0:0:
190,191,45910,1,10,0:0:0:0:
291,8,46060,1,8,0:0:0:0:
95,139,46210,1,8,0:2:0:0:
299,147,46360,1,2,0:2:0:0:
152,51,46510,1,8,0:0:0:0:
103,237,46660,6,0,B|122:288|102:339|102:339|138:310|182:314,1,162.749995033264,4|2,0:2|0:2,0:0:0:0:
265,187,47110,1,10,0:0:0:0:
275,355,47260,2,0,P|315:358|355:352,1,81.3749975166322,8|2,0:0|0:2,0:0:0:0:
265,187,47560,1,8,0:2:0:0:
419,263,47710,1,8,0:0:0:0:
275,355,47860,1,2,0:2:0:0:
265,187,48010,6,0,B|236:165|236:165|183:194|95:161,1,162.749995033264,4|10,0:2|0:0,0:0:0:0:
486,34,48610,1,8,0:2:0:0:
505,195,48760,1,2,0:2:0:0:
356,130,48910,1,8,0:0:0:0:
375,291,49060,6,0,P|307:312|203:301,1,162.749995033264,4|2,0:2|0:2,0:0:0:0:
190,161,49510,1,10,0:0:0:0:
72,246,49660,2,0,L|66:327,1,81.3749975166322,8|2,0:0|0:2,0:0:0:0:
213,232,49960,1,8,0:2:0:0:
43,134,50110,1,8,0:0:0:0:
66,327,50260,1,2,0:2:0:0:
302,238,50410,6,0,P|344:158|302:162,1,162.749995033264,4|10,0:2|0:0,0:0:0:0:
332,155,50860,1,8,0:0:0:0:
391,313,51010,2,0,P|423:286|442:250,2,81.3749975166322,8|2|8,0:2|0:2|0:0,0:0:0:0:
283,82,51460,6,0,P|204:84|53:96,1,193.75,4|2,0:2|0:2,0:0:0:0:
208,239,51910,1,10,0:0:0:0:
190,15,52060,1,8,0:0:0:0:
355,204,52210,5,2,0:2:0:0:
87,192,52360,1,8,0:2:0:0:
283,82,52510,1,8,0:0:0:0:
285,337,52660,1,2,0:2:0:0:
52,184,52810,6,0,B|42:143|42:143|53:87,1,92.9999971618653,12|0,3:0|0:0,0:0:0:0:
190,15,53110,1,10,0:0:0:0:
191,238,53260,2,0,B|181:197|181:197|192:141,1,92.9999971618653,8|8,0:2|0:0,0:0:0:0:
329,69,53560,1,8,0:2:0:0:
329,291,53710,1,10,0:0:0:0:
329,69,53860,1,8,0:2:0:0:
487,198,54010,6,0,P|400:201|291:200,1,185.999994323731,6|10,3:2|0:0,0:0:0:0:
143,293,54460,2,0,P|230:290|339:291,1,185.999994323731,2|2,0:2|0:2,0:0:0:0:
148,163,54910,1,10,0:0:0:0:
229,359,55060,1,2,0:2:0:0:
370,202,55210,6,0,P|376:160|362:108,1,92.9999971618653,6|0,3:2|0:0,0:0:0:0:
256,8,55510,1,10,0:0:0:0:
222,253,55660,2,0,P|250:216|262:172,1,92.9999971618653,8|8,0:2|0:0,0:0:0:0:
256,8,55960,1,8,0:2:0:0:
148,163,56110,1,10,0:0:0:0:
363,111,56260,1,8,0:2:0:0:
148,163,56410,6,0,L|35:166,1,92.9999971618653,6|2,3:2|0:2,0:0:0:0:
222,253,56710,1,14,3:2:0:0:
222,253,56860,1,8,0:2:0:0:
363,111,57010,2,0,L|455:108,1,92.9999971618653,4|2,3:2|3:2,0:0:0:0:
289,21,57310,1,14,3:2:0:0:
222,253,57610,6,0,L|232:361,1,92.9999971618653,14|0,3:2|0:0,0:0:0:0:
363,183,57910,1,10,0:0:0:0:
141,128,58060,2,0,L|131:236,1,92.9999971618653,8|8,0:2|0:0,0:0:0:0:
0,58,58360,1,8,0:2:0:0:
212,36,58510,1,10,0:0:0:0:
132,220,58660,1,8,0:2:0:0:
0,58,58810,6,0,L|124:42,1,92.9999971618653,6|0,3:2|0:0,0:0:0:0:
251,144,59110,1,10,0:0:0:0:
510,155,59260,2,0,L|386:139,1,92.9999971618653,2|8,0:2|0:0,0:0:0:0:
259,241,59560,1,2,0:2:0:0:
280,28,59710,1,10,0:0:0:0:
259,241,59860,1,2,0:2:0:0:
82,113,60010,6,0,P|5:146|42:221,1,185.999994323731,6|10,3:2|0:0,0:0:0:0:
219,349,60460,2,0,P|295:315|259:241,1,185.999994323731,8|8,0:2|0:2,0:0:0:0:
123,309,60910,1,10,0:0:0:0:
391,268,61060,1,8,0:2:0:0:
182,113,61210,5,6,3:2:0:0:
219,349,61360,1,8,0:2:0:0:
106,165,61510,1,4,3:2:0:0:
299,305,61660,1,8,0:2:0:0:
101,76,61810,5,4,3:2:0:0:
101,76,61885,1,0,3:0:0:0:
101,76,61960,1,8,3:2:0:0:
263,150,62110,1,6,3:2:0:0:
111,254,62260,1,2,0:2:0:0:
299,305,62410,6,0,L|396:304,1,92.9999971618653,12|0,3:0|0:0,0:0:0:0:
500,164,62710,1,10,0:0:0:0:
263,150,62860,2,0,L|360:149,1,92.9999971618653,8|8,0:2|0:0,0:0:0:0:
464,9,63160,1,8,0:2:0:0:
162,57,63310,1,10,0:0:0:0:
355,149,63460,1,8,0:2:0:0:
162,57,63610,6,0,P|159:144|160:253,1,185.999994323731,6|10,3:2|0:0,0:0:0:0:
47,380,64060,2,0,P|50:293|49:184,1,185.999994323731,2|2,0:2|0:2,0:0:0:0:
238,271,64510,1,10,0:0:0:0:
48,121,64660,1,2,0:2:0:0:
274,48,64810,6,0,P|316:42|368:56,1,92.9999971618653,6|0,3:2|0:0,0:0:0:0:
468,162,65110,1,10,0:0:0:0:
223,196,65260,2,0,P|260:168|304:156,1,92.9999971618653,8|8,0:2|0:0,0:0:0:0:
468,162,65560,1,8,0:2:0:0:
313,270,65710,1,10,0:0:0:0:
365,55,65860,1,8,0:2:0:0:
313,270,66010,6,0,L|310:383,1,92.9999971618653,6|0,3:2|0:0,0:0:0:0:
223,196,66310,1,14,3:2:0:0:
223,196,66460,1,8,0:2:0:0:
405,81,66610,2,0,L|408:194,1,92.9999971618653,4|2,3:2|3:2,0:0:0:0:
495,7,66910,1,14,3:2:0:0:
91,72,67210,6,0,P|92:167|96:275,1,185.999994323731,14|10,3:2|0:0,0:0:0:0:
220,103,67660,2,0,L|223:216,1,92.9999971618653,8|8,0:2|0:0,0:0:0:0:
405,81,67960,1,8,0:2:0:0:
349,244,68110,1,10,0:0:0:0:
349,244,68260,1,8,0:2:0:0:
217,10,68410,6,0,L|223:236,1,185.999994323731,6|10,3:2|0:0,0:0:0:0:
221,195,68860,1,2,0:2:0:0:
327,45,69010,1,8,0:0:0:0:
109,152,69160,1,2,0:2:0:0:
324,187,69310,1,10,0:0:0:0:
144,47,69460,1,2,0:2:0:0:
122,266,69610,6,0,P|154:338|230:282,1,185.999994323731,6|10,3:2|0:0,0:0:0:0:
501,199,70060,2,0,P|469:127|393:183,1,185.999994323731,8|8,0:2|0:2,0:0:0:0:
438,333,70510,1,10,0:0:0:0:
289,130,70660,1,8,0:2:0:0:
306,311,70810,5,6,3:2:0:0:
361,69,70960,1,8,0:2:0:0:
381,265,71110,1,4,3:2:0:0:
276,41,71260,1,8,0:2:0:0:
161,303,71410,5,6,3:2:0:0:
161,303,71485,1,0,3:0:0:0:
161,303,71560,1,0,3:2:0:0:
33,196,71710,1,6,3:2:0:0:
140,68,71860,1,0,0:0:0:0:
268,175,72010,6,0,P|331:148|284:245,1,232.500008869171,6|0,0:2|0:0,0:0:0:0:
314,255,73210,2,0,B|360:231|400:247|400:247|439:263|483:245,2,174.375006651879,2|2|0,0:0|0:0|0:0,0:0:0:0:
214,44,74410,5,2,0:0:0:0:
138,87,74560,1,0,0:0:0:0:
181,163,74710,1,0,0:0:0:0:
256,119,74860,1,2,0:0:0:0:
256,119,75160,5,0,0:0:0:0:
331,77,75310,1,0,0:0:0:0:
375,152,75460,1,0,0:0:0:0:
299,195,75610,1,2,0:0:0:0:
256,119,75760,1,0,0:0:0:0:
299,195,76210,5,2,0:0:0:0:
379,148,76810,6,0,P|406:211|309:164,1,232.500008869171,2|0,0:0|0:0,0:0:0:0:
299,194,78010,2,0,B|323:240|307:280|307:280|291:319|309:363,2,174.375006651879,2|2|0,0:0|0:0|0:0,0:0:0:0:
510,94,79210,5,2,0:0:0:0:
467,18,79360,1,0,0:0:0:0:
391,61,79510,1,0,0:0:0:0:
435,136,79660,1,2,0:0:0:0:
435,136,79960,5,0,0:0:0:0:
391,61,80110,1,0,0:0:0:0:
467,18,80260,1,2,0:0:0:0:
510,94,80410,5,0,0:0:0:0:
315,104,80560,2,0,L|232:105,2,58.1250022172929,0|2|2,0:0|0:0|0:0,0:0:0:0:
403,254,81010,5,10,0:1:0:0:
146,168,81160,1,8,0:1:0:0:
219,254,81310,1,8,0:0:0:0:
476,168,81460,1,10,0:1:0:0:
312,327,81610,5,12,3:0:0:0:
146,168,81760,2,0,L|56:170,1,77.5,2|8,0:2|0:0,0:0:0:0:
219,254,82060,2,0,L|129:256,1,77.5,10|2,0:0|0:2,0:0:0:0:
403,254,82360,2,0,L|480:255,1,77.5,8|8,0:2|0:0,0:0:0:0:
312,327,82660,1,2,0:2:0:0:
283,107,82810,5,6,3:2:0:0:
403,254,82960,1,8,0:2:0:0:
208,211,83110,1,10,0:0:0:0:
413,115,83260,1,8,0:0:0:0:
312,327,83410,1,8,0:2:0:0:
210,117,83560,1,2,0:2:0:0:
384,222,83710,2,0,P|422:221|472:214,1,77.5,8|2,0:0|0:2,0:0:0:0:
210,117,84010,6,0,P|172:118|122:125,1,77.5,4|8,3:2|0:2,0:0:0:0:
52,236,84310,1,10,0:0:0:0:
210,117,84460,2,0,P|282:106|281:181,1,155,8|8,0:0|0:2,0:0:0:0:
145,303,84910,1,10,0:0:0:0:
132,122,85060,1,6,3:2:0:0:
396,251,85210,6,0,P|358:252|308:259,1,77.5,0|2,0:0|0:2,0:0:0:0:
67,297,85510,2,0,P|105:298|155:305,1,77.5,8|10,0:0|0:0,0:0:0:0:
351,360,85810,1,8,0:2:0:0:
284,141,85960,1,2,0:2:0:0:
471,300,86110,2,0,L|480:150,1,116.25,8|0,0:0|2:0,0:0:0:0:
477,145,86410,6,0,P|428:70|388:92,1,155,4|8,3:2|0:0,0:0:0:0:
294,234,86860,2,0,P|255:230|197:233,1,77.5,10|2,0:0|0:2,0:0:0:0:
63,99,87160,2,0,P|102:103|160:100,1,77.5,8|8,0:2|0:0,0:0:0:0:
294,28,87460,1,2,0:2:0:0:
216,230,87610,6,0,B|205:277|205:277|218:337|218:337|209:388,1,155,6|10,3:2|0:0,0:0:0:0:
394,243,88060,2,0,B|386:198|386:198|399:138|399:138|388:91,1,155,8|8,0:0|0:2,0:0:0:0:
140,225,88510,2,0,P|180:234|224:226,1,77.5,8|2,0:0|0:2,0:0:0:0:
72,76,88810,5,6,3:2:0:0:
215,229,88960,1,2,0:2:0:0:
180,50,89110,1,10,0:0:0:0:
51,237,89260,1,8,0:0:0:0:
244,140,89410,1,2,0:2:0:0:
135,313,89560,1,8,0:2:0:0:
9,157,89710,1,10,0:0:0:0:
244,140,89860,6,0,P|332:137|449:140,1,185.999994323731,6|2,3:2|0:2,0:0:0:0:
275,273,90310,1,2,0:2:0:0:
234,53,90460,1,8,0:2:0:0:
429,138,90610,1,8,0:2:0:0:
212,208,90760,1,8,0:0:0:0:
352,59,90910,1,10,0:0:0:0:
169,119,91060,1,2,0:2:0:0:
357,238,91210,6,0,L|259:248,1,77.5,12|2,3:0|0:2,0:0:0:0:
149,269,91510,1,8,0:0:0:0:
149,269,91660,1,8,0:0:0:0:
316,353,91810,2,0,L|218:363,1,77.5,8|8,0:2|0:2,0:0:0:0:
108,384,92110,1,0,0:0:0:0:
229,369,92260,6,0,L|307:362,1,77.5,2|0,0:0|0:0,0:0:0:0:
270,254,92560,2,0,L|348:247,1,77.5,2|8,0:0|0:0,0:0:0:0:
191,301,92860,2,0,P|184:227|241:167,1,155,10|2,0:0|0:2,0:0:0:0:
235,170,93310,1,0,0:0:0:0:
77,253,93460,1,2,0:2:0:0:
77,253,93535,1,2,0:2:0:0:
77,253,93610,5,6,0:2:0:0:
124,68,93760,1,8,0:2:0:0:
142,78,94060,1,8,0:2:0:0:
160,88,94360,1,0,3:0:0:0:
300,100,94510,1,10,0:2:0:0:
440,112,94660,6,0,P|447:155|438:198,1,77.5,0|0,3:0|3:0,0:0:0:0:
336,323,94960,1,0,3:0:0:0:
335,188,95110,1,10,0:2:0:0:
446,341,95260,1,0,3:0:0:0:
251,271,95410,1,8,0:2:0:0:
232,270,95485,1,2,0:2:0:0:
213,270,95560,1,2,0:2:0:0:
194,271,95635,1,2,0:2:0:0:
174,274,95710,6,0,B|120:324|26:290|26:290|66:317|94:355,1,232.500008869171,14|12,0:2|3:2,0:0:0:0:
