osu file format v14

[General]
AudioFilename: audio.mp3
AudioLeadIn: 2000
PreviewTime: 52735
Countdown: 0
SampleSet: Normal
StackLeniency: 0.4
Mode: 0
LetterboxInBreaks: 0
WidescreenStoryboard: 0

[Editor]
Bookmarks: 4810,14410,24010,33610,43210
DistanceSpacing: 1
BeatDivisor: 2
GridSize: 16
TimelineZoom: 1.3

[Metadata]
Title:Niiru Renka Chou ~ Ancients
TitleUnicode:二色蓮花蝶 ~ Ancients
Artist:Akiyama Uni
ArtistUnicode:あきやまうに
Creator:My Angel Azusa
Version:Pata-Mon's Normal
Source:西方Project
Tags:sahuang lunasaika SnowNiNo_ frey doormat pata-mon 東方 Touhou Seihou zun u2 Dichromatic Lotus Butterfly あきやまうに 上海アリス幻樂団 西方秋霜玉 Shuugou Gyoku twilight frontier 黄昏フロンティア th12.3 核熱造神ヒソウテンソク c77 fxtz 博丽霊梦 はくれい れいむ Hakurei Reimu
BeatmapID:1158634
BeatmapSetID:545404

[Difficulty]
HPDrainRate:4
CircleSize:3
OverallDifficulty:3.5
ApproachRate:4
SliderMultiplier:0.9
SliderTickRate:1

[Events]
//Background and Video events
0,0,"sahuangbaka.jpg",0,0
//Break Periods
//Storyboard Layer 0 (Background)
//Storyboard Layer 1 (Fail)
//Storyboard Layer 2 (Pass)
//Storyboard Layer 3 (Foreground)
//Storyboard Sound Samples

[TimingPoints]
10,300,4,1,23,50,1,0
4510,-100,4,1,23,50,0,0
4810,-100,4,1,23,50,0,0
13060,-100,4,1,23,50,0,0
24010,-100,4,3,23,50,0,0
33610,-100,4,1,23,50,0,0
52810,-100,4,1,23,50,0,1
62110,-100,4,1,23,50,0,0
62410,-100,4,1,23,50,0,1
72010,-100,4,2,23,40,0,0
81610,-100,4,1,23,50,0,0
94360,-100,4,1,23,45,0,0
94960,-100,4,1,23,40,0,0
95410,-100,4,1,23,35,0,0
96010,-100,4,1,23,30,0,0

[Colours]
Combo1 : 124,0,236
Combo2 : 0,200,0
Combo3 : 34,134,255
Combo4 : 255,142,30

[HitObjects]
140,179,10,6,0,P|198:194|253:188,1,90,6|8,0:2|0:2,0:2:0:0:
288,126,610,2,0,P|330:108|442:117,2,135,2|2|8,0:2|0:2|0:2,0:2:0:0:
259,91,1660,2,0,L|105:82,1,135,2|8,0:2|0:2,0:2:0:0:
65,151,2410,6,0,P|76:205|79:311,1,135,6|2,0:2|0:2,0:2:0:0:
135,356,3160,2,0,P|187:354|249:335,1,90,2|2,0:2|0:2,0:2:0:0:
290,284,3760,2,0,P|342:286|404:305,1,90,2|2,0:2|0:2,0:2:0:0:
416,319,4210,2,0,L|426:203,1,90,6|2,0:2|0:2,0:2:0:0:
366,159,4810,6,0,L|356:43,1,90,6|8,0:2|0:2,0:2:0:0:
269,83,5410,2,0,P|208:79|117:43,2,135,2|2|10,0:2|0:2|0:2,0:2:0:0:
276,127,6460,2,0,P|275:201|256:273,1,135,2|8,0:2|0:2,0:2:0:0:
182,304,7210,6,0,L|85:302,1,90,2|8,0:2|0:2,0:2:0:0:
26,240,7810,1,2,0:2:0:0:
72,113,8260,2,0,L|217:110,1,135,2|8,0:2|0:2,0:2:0:0:
237,144,8860,2,0,P|306:154|405:120,1,135,2|8,0:2|0:2,0:2:0:0:
436,80,9610,5,2,0:2:0:0:
455,168,9910,1,8,0:2:0:0:
474,256,10210,2,0,L|418:394,2,135,2|2|8,0:2|0:2|0:2,0:2:0:0:
450,217,11260,2,0,P|405:201|288:218,1,135,2|8,0:2|0:2,0:2:0:0:
271,281,12010,6,0,P|226:296|109:280,1,135,2|2,0:2|0:2,0:2:0:0:
56,258,12760,1,8,0:2:0:0:
98,178,13060,2,0,P|105:119|95:57,1,90,2|8,0:2|0:2,0:2:0:0:
39,24,13660,2,0,L|202:36,1,135,2|8,0:2|0:2,0:2:0:0:
241,93,14410,6,0,L|404:81,1,90,6|8,0:2|0:2,0:2:0:0:
418,111,15010,2,0,P|481:90|513:16,2,135,2|2|8,0:2|0:2|0:2,0:2:0:0:
405,154,16060,2,0,P|403:228|435:315,1,135,2|8,0:2|0:2,0:2:0:0:
360,353,16810,6,0,L|235:345,1,90,2|8,0:2|0:2,0:2:0:0:
180,341,17410,1,2,0:2:0:0:
79,250,17860,2,0,P|95:190|70:80,1,135,2|8,0:2|0:2,0:2:0:0:
63,79,18460,2,0,P|121:105|206:84,1,135,2|8,0:2|0:2,0:2:0:0:
263,43,19210,6,0,L|388:51,1,90,2|8,0:2|0:2,0:2:0:0:
443,55,19810,1,2,0:2:0:0:
501,176,20260,2,0,P|494:250|457:335,1,135,2|8,0:2|0:2,0:2:0:0:
429,296,20860,2,0,P|370:290|254:303,1,135,2|8,0:2|0:2,0:2:0:0:
222,349,21610,6,0,P|154:353|87:348,1,135,2|2,0:2|0:2,0:2:0:0:
1,321,22360,1,8,0:2:0:0:
67,260,22660,2,0,P|74:217|58:150,1,90,2|8,0:2|0:2,0:2:0:0:
1,110,23260,2,0,P|70:122|162:96,1,135,2|8,0:2|0:2,0:2:0:0:
202,51,24010,6,0,L|354:59,1,135,6|2,0:2|0:2,0:2:0:0:
421,26,24760,2,0,P|425:77|383:135,1,90,2|2,0:2|0:2,0:2:0:0:
340,170,25360,2,0,P|336:221|378:279,1,90,2|2,0:2|0:2,0:2:0:0:
387,282,25810,2,0,L|277:291,1,90,4|4,0:2|0:2,0:2:0:0:
226,345,26410,6,0,L|60:331,1,135,2|2,0:2|0:2,0:2:0:0:
34,264,27160,1,2,0:2:0:0:
92,195,27460,1,2,0:2:0:0:
34,126,27760,2,0,P|37:79|63:35,1,90,2|2,0:2|0:2,0:2:0:0:
96,63,28210,2,0,P|144:65|200:43,1,90,4|4,0:2|0:2,0:2:0:0:
262,9,28810,6,0,L|406:27,1,135,2|2,0:2|0:2,0:2:0:0:
475,67,29560,2,0,P|481:118|454:183,1,90,2|2,0:2|0:2,0:2:0:0:
397,206,30160,2,0,P|390:257|418:322,1,90,2|2,0:2|0:2,0:2:0:0:
361,316,30610,2,0,L|248:302,1,90,4|4,0:2|0:2,0:2:0:0:
226,226,31210,6,0,P|214:149|235:74,1,135,2|2,0:2|0:2,0:2:0:0:
289,30,31960,1,2,0:2:0:0:
379,30,32260,1,2,0:2:0:0:
443,94,32560,2,0,P|448:138|437:203,1,90,2|2,0:2|0:2,0:2:0:0:
405,208,33010,2,0,P|400:252|411:317,1,90,4|4,0:2|0:2,0:2:0:0:
351,369,33610,6,0,P|300:367|239:344,1,90,6|8,0:2|0:2,0:2:0:0:
192,299,34210,2,0,L|24:314,2,135,2|2|8,0:2|0:2|0:2,0:2:0:0:
221,264,35260,2,0,P|224:189|198:107,1,135,2|0,0:2|0:2,0:2:0:0:
148,65,36010,6,0,P|229:43|283:79,1,90,2|8,0:2|0:2,0:2:0:0:
316,75,36610,1,2,0:2:0:0:
448,44,37060,2,0,P|478:91|487:197,1,135,2|8,0:2|0:2,0:2:0:0:
463,202,37660,2,0,L|482:303,2,90,2|2|4,0:2|0:2|0:2,0:2:0:0:
418,202,38410,6,0,P|374:207|325:231,1,90,6|8,0:2|0:2,0:2:0:0:
282,300,39010,1,2,0:2:0:0:
150,327,39460,2,0,P|89:303|34:214,1,135,2|8,0:2|0:2,0:2:0:0:
66,209,40060,2,0,P|67:140|52:72,1,135,2|8,0:2|0:2,0:2:0:0:
122,16,40810,6,0,L|233:22,1,90,2|8,0:2|0:2,0:2:0:0:
301,31,41410,1,2,0:2:0:0:
389,133,41860,2,0,P|393:201|438:269,1,135,2|8,0:2|0:2,0:2:0:0:
464,283,42460,2,0,P|403:280|325:316,1,135,2|8,0:2|0:2,0:2:0:0:
274,374,43210,6,0,L|169:363,1,90,6|8,0:2|0:2,0:2:0:0:
119,303,43810,2,0,P|53:300|0:340,2,135,2|2|8,0:2|0:2|0:2,0:2:0:0:
143,264,44860,2,0,P|153:190|141:113,1,135,2|8,0:2|0:2,0:2:0:0:
92,58,45610,6,0,P|180:47|221:80,1,90,2|8,0:2|0:2,0:2:0:0:
259,84,46210,1,2,0:2:0:0:
261,218,46660,2,0,P|318:262|402:244,1,135,2|8,0:2|0:2,0:2:0:0:
410,226,47260,2,0,L|414:331,2,90,2|2|4,0:2|0:2|0:2,0:2:0:0:
443,193,48010,6,0,L|447:88,1,90,6|10,0:2|0:2,0:2:0:0:
370,55,48610,2,0,P|431:14|508:37,2,135,2|2|8,0:2|0:2|0:2,0:2:0:0:
334,80,49660,2,0,P|257:80|175:57,1,135,2|8,0:2|0:2,0:2:0:0:
120,105,50410,6,0,P|109:141|120:228,1,90,2|8,0:2|0:2,0:2:0:0:
147,275,51010,1,2,0:2:0:0:
279,246,51460,2,0,P|342:248|439:289,1,135,2|8,0:2|0:2,0:2:0:0:
484,219,52210,2,0,L|493:119,1,90,2|8,0:2|0:2,0:2:0:0:
444,53,52810,6,0,P|398:63|340:49,1,90,2|8,0:2|0:2,0:2:0:0:
319,31,53260,2,0,P|273:46|167:15,1,135,2|8,0:2|0:2,0:2:0:0:
129,97,54010,2,0,P|83:112|-23:81,2,135,2|2|8,0:2|0:2|0:2,0:2:0:0:
176,174,55210,6,0,P|187:220|186:273,1,90,2|8,0:2|0:2,0:2:0:0:
164,301,55660,2,0,P|229:286|298:290,1,135,2|8,0:2|0:2,0:2:0:0:
378,329,56410,2,0,L|496:323,1,90,2|8,0:2|0:2,0:2:0:0:
461,235,57010,2,0,L|343:241,1,90,2|8,0:2|0:2,0:2:0:0:
297,290,57610,6,0,P|283:221|318:167,1,90,2|8,0:2|0:2,0:2:0:0:
314,167,58060,2,0,P|285:101|195:76,1,135,2|8,0:2|0:2,0:2:0:0:
141,80,58810,1,2,0:2:0:0:
131,169,59110,2,0,P|52:88|99:0,1,180,8|8,0:2|0:2,0:2:0:0:
141,80,60010,6,0,L|256:72,1,90,2|8,0:2|0:2,0:2:0:0:
262,106,60460,2,0,P|321:124|418:120,1,135,2|8,0:2|0:2,0:2:0:0:
460,185,61210,2,0,L|451:286,1,90,2|8,0:2|0:2,0:2:0:0:
387,336,61810,1,2,0:2:0:0:
307,296,62110,1,8,0:2:0:0:
241,357,62410,6,0,P|180:362|118:344,1,90,6|8,0:2|0:2,0:2:0:0:
118,327,62860,2,0,P|127:260|108:180,1,135,2|8,0:2|0:2,0:2:0:0:
93,107,63610,2,0,P|136:54|235:61,2,135,2|2|8,0:2|0:2|0:2,0:2:0:0:
179,132,64810,6,0,P|226:142|298:136,1,90,2|8,0:2|0:2,0:2:0:0:
300,109,65260,2,0,P|368:110|423:179,1,135,2|8,0:2|0:2,0:2:0:0:
409,243,66010,2,0,P|362:253|290:247,1,90,2|8,0:2|0:2,0:2:0:0:
246,302,66610,2,0,P|199:312|127:306,1,90,2|8,0:2|0:2,0:2:0:0:
78,270,67210,6,0,L|84:160,1,90,2|8,0:2|0:2,0:2:0:0:
45,156,67660,2,0,P|33:106|75:31,1,135,2|8,0:2|0:2,0:2:0:0:
158,13,68410,1,2,0:2:0:0:
232,64,68710,2,0,P|309:77|412:50,1,180,8|8,0:2|0:2,0:2:0:0:
487,94,69610,6,0,P|485:144|471:191,1,90,2|8,0:2|0:2,0:2:0:0:
447,218,70060,2,0,P|366:226|309:296,1,135,2|8,0:2|0:2,0:2:0:0:
287,340,70810,2,0,L|198:337,1,90,2|8,0:2|0:2,0:2:0:0:
107,334,71410,1,2,0:2:0:0:
17,331,71710,1,8,0:2:0:0:
64,254,72010,6,0,B|82:178|46:152|64:76,1,180,2|2,0:2|0:2,0:2:0:0:
240,117,73210,2,0,P|300:118|377:94,1,135,2|0,0:2|0:2,0:2:0:0:
411,74,73810,2,0,P|402:128|404:193,1,90,2|0,0:2|0:2,0:2:0:0:
333,221,74410,6,0,B|257:239|231:203|155:221,2,180,2|2|2,0:2|0:2|0:2,0:2:0:0:
292,45,76210,1,2,0:2:0:0:
464,98,76810,6,0,P|512:222|485:318,1,180,2|2,0:2|0:2,0:2:0:0:
333,221,78010,2,0,P|273:220|196:244,1,135,2|0,0:2|0:2,0:2:0:0:
162,264,78610,2,0,P|171:210|169:145,1,90,2|0,0:2|0:2,0:2:0:0:
240,117,79210,6,0,B|316:99|342:135|418:117,2,180,2|2|2,0:2|0:2|0:2,0:2:0:0:
281,293,81010,2,0,P|329:303|375:304,1,90,2|0,1:2|1:2,1:2:0:0:
445,253,81610,6,0,L|436:154,1,90,6|8,0:2|0:2,0:2:0:0:
382,92,82210,2,0,P|394:51|476:9,2,135,2|2|8,0:2|0:2|0:2,0:2:0:0:
350,122,83260,2,0,P|277:139|191:129,1,135,2|8,0:2|0:2,0:2:0:0:
140,90,84010,6,0,L|51:103,1,90,2|8,0:2|0:2,0:2:0:0:
7,182,84610,2,0,P|5:249|35:340,2,135,2|2|8,0:2|0:2|0:2,0:2:0:0:
51,103,85810,2,0,L|140:90,1,90,2|8,0:2|0:2,0:2:0:0:
210,146,86410,6,0,P|251:152|322:138,1,90,2|8,0:2|0:2,0:2:0:0:
369,90,87010,2,0,P|424:81|525:130,2,135,2|2|8,0:2|0:2|0:2,0:2:0:0:
383,132,88060,2,0,P|386:201|368:280,1,135,2|8,0:2|0:2,0:2:0:0:
285,247,88810,6,0,P|239:247|176:265,2,90,2|2|2,0:2|0:2|0:2,0:2:0:0:
366,355,89860,2,0,P|438:352|508:319,1,135,6|2,0:2|0:2,0:2:0:0:
458,245,90610,2,0,P|451:195|455:148,1,90,4|0,0:2|0:2,0:2:0:0:
387,95,91210,6,0,L|297:89,1,90,2|8,0:2|0:2,0:2:0:0:
231,27,91810,2,0,L|96:36,2,135,2|2|8,0:2|0:2|0:2,0:2:0:0:
210,67,92860,2,0,P|234:154|297:179,1,135,2|8,0:2|0:2,0:2:0:0:
297,89,93610,6,0,P|353:78|452:90,1,135,6|2,0:2|0:2,0:2:0:0:
493,149,94360,2,0,P|492:193|460:272,1,90,2|2,0:2|0:2,0:2:0:0:
397,273,94960,2,0,P|399:317|430:396,1,90,2|2,0:2|0:2,0:2:0:0:
369,378,95410,2,0,P|333:369|279:368,1,90,6|0,0:2|0:2,0:2:0:0:
191,383,96010,5,2,0:2:0:0:
