osu file format v14

[General]
AudioFilename: audio.mp3
AudioLeadIn: 2000
PreviewTime: 52735
Countdown: 0
SampleSet: Normal
StackLeniency: 0.4
Mode: 0
LetterboxInBreaks: 0
WidescreenStoryboard: 0

[Editor]
DistanceSpacing: 1.9
BeatDivisor: 4
GridSize: 16
TimelineZoom: 2.999999

[Metadata]
Title:Niiru Renka Chou ~ Ancients
TitleUnicode:二色蓮花蝶 ~ Ancients
Artist:Akiyama Uni
ArtistUnicode:あきやまうに
Creator:My Angel Azusa
Version:NiNo's Lunatic
Source:西方Project
Tags:sahuang lunasaika SnowNiNo_ frey doormat pata-mon 東方 Touhou Seihou zun u2 Dichromatic Lotus Butterfly あきやまうに 上海アリス幻樂団 西方秋霜玉 Shuugou Gyoku twilight frontier 黄昏フロンティア th12.3 核熱造神ヒソウテンソク c77 fxtz 博丽霊梦 はくれい れいむ Hakurei Reimu
BeatmapID:1160889
BeatmapSetID:545404

[Difficulty]
HPDrainRate:6
CircleSize:4
OverallDifficulty:8
ApproachRate:9.3
SliderMultiplier:1.8
SliderTickRate:1

[Events]
//Background and Video events
0,0,"sahuangbaka.jpg",0,0
//Break Periods
2,72210,80006
//Storyboard Layer 0 (Background)
//Storyboard Layer 1 (Fail)
//Storyboard Layer 2 (Pass)
//Storyboard Layer 3 (Foreground)
//Storyboard Sound Samples

[TimingPoints]
10,300,4,1,1,50,1,0
4810,-100,4,1,1,55,0,0
14410,-90.9090909090909,4,1,1,60,0,0
22660,-66.6666666666667,4,1,1,60,0,0
23260,-90.9090909090909,4,1,1,60,0,0
24010,-83.3333333333333,4,3,1,60,0,1
33610,-105.263157894737,4,1,1,50,0,0
43060,-95.2380952380954,4,1,1,50,0,0
52810,-83.3333333333333,4,1,1,75,0,1
62110,-83.3333333333333,4,1,1,75,0,0
62410,-83.3333333333333,4,1,1,75,0,0
72010,-133.333333333333,4,2,1,45,0,0
81610,-100,4,1,1,60,0,0
89860,-83.3333333333333,4,1,1,60,0,0
91210,-100,4,1,1,60,0,0
95410,-100,4,1,1,30,0,0
96010,-66.6666666666667,4,2,1,15,0,0

[Colours]
Combo1 : 124,0,236
Combo2 : 0,200,0
Combo3 : 34,134,255
Combo4 : 255,142,30

[HitObjects]
393,190,10,5,4,3:0:0:0:
223,130,160,1,2,0:2:0:0:
332,101,310,1,8,0:0:0:0:
332,101,460,1,8,0:0:0:0:
276,275,610,5,8,0:2:0:0:
223,130,760,1,8,0:2:0:0:
319,190,910,1,0,0:0:0:0:
144,292,1060,6,0,L|136:195,1,90,2|0,0:0|0:0,0:0:0:0:
269,365,1360,2,0,L|277:268,1,90,2|8,0:0|0:0,0:0:0:0:
240,170,1660,2,0,P|294:165|349:60,1,180,10|2,0:0|0:2,0:0:0:0:
161,94,2110,1,8,0:0:0:0:
136,202,2260,1,2,0:2:0:0:
82,18,2410,5,14,0:2:0:0:
240,170,2560,1,8,0:2:0:0:
240,170,2860,2,0,P|181:166|145:151,1,90,8|0,0:2|0:0,0:0:0:0:
306,56,3160,2,0,P|247:60|211:75,1,90,0|8,3:0|0:0,0:0:0:0:
351,161,3460,2,0,P|374:202|372:254,1,90,0|0,3:0|3:0,0:0:0:0:
211,160,3760,2,0,L|219:58,1,90,0|8,3:0|0:0,0:0:0:0:
288,225,4060,1,0,3:0:0:0:
194,259,4210,5,12,0:2:0:0:
182,257,4285,1,2,0:2:0:0:
171,256,4360,1,2,0:2:0:0:
160,255,4435,1,2,0:2:0:0:
149,254,4510,1,14,0:2:0:0:
138,253,4585,1,0,0:0:0:0:
126,252,4660,1,0,0:0:0:0:
115,251,4735,1,0,2:0:0:0:
104,250,4810,6,0,L|1:240,1,90,12|0,3:0|0:0,0:0:0:0:
158,167,5110,2,0,P|194:203|208:260,1,90,10|8,0:0|0:0,0:0:0:0:
60,159,5410,1,8,0:2:0:0:
114,76,5560,2,0,P|165:66|208:79,1,90,2|8,0:2|0:0,0:0:0:0:
306,152,5860,6,0,L|322:58,1,90,0|0,3:0|0:0,0:0:0:0:
206,239,6160,2,0,L|190:145,1,90,0|10,3:0|0:0,0:0:0:0:
383,180,6460,2,0,L|401:291,1,90,8|8,0:0|0:2,0:0:0:0:
278,353,6760,1,2,0:2:0:0:
278,353,6910,1,8,0:0:0:0:
206,239,7060,1,0,3:0:0:0:
133,352,7210,5,0,0:0:0:0:
99,157,7360,1,0,3:0:0:0:
206,239,7510,1,10,0:0:0:0:
206,239,7660,1,8,0:0:0:0:
26,270,7810,2,0,L|138:275,1,90,8|2,0:2|0:2,0:0:0:0:
278,353,8110,1,8,0:0:0:0:
206,239,8260,6,0,B|225:175|225:175|174:57,1,180,4|2,3:2|3:2,0:0:0:0:
116,274,8710,1,10,0:0:0:0:
299,262,8860,2,0,B|325:170|327:173,1,90,8|8,3:1|0:2,0:0:0:0:
180,71,9160,1,2,0:2:0:0:
180,71,9310,1,10,0:0:0:0:
133,176,9460,1,8,0:2:0:0:
290,92,9610,6,0,L|385:85,1,90,4|2,3:0|0:2,0:0:0:0:
359,206,9910,1,10,0:0:0:0:
359,206,10060,1,8,0:0:0:0:
200,98,10210,2,0,L|295:91,1,90,8|2,0:2|0:2,0:0:0:0:
359,206,10510,1,0,0:0:0:0:
137,185,10660,6,0,P|99:137|124:22,1,180,0|0,3:0|3:0,0:0:0:0:
289,91,11110,1,10,0:0:0:0:
257,211,11260,2,0,L|254:313,1,90,8|8,0:0|0:2,0:0:0:0:
137,185,11560,1,2,0:2:0:0:
52,363,11710,2,0,L|49:261,1,90,8|2,0:0|0:2,0:0:0:0:
254,300,12010,5,6,3:2:0:0:
52,363,12160,1,6,3:2:0:0:
52,363,12460,2,0,P|104:333|142:333,1,90,8|0,0:2|0:0,0:0:0:0:
276,214,12760,2,0,P|231:208|195:182,1,90,8|0,0:2|0:0,0:0:0:0:
379,91,13060,6,0,L|393:189,1,90,12|0,3:2|0:0,0:0:0:0:
133,91,13360,2,0,L|119:189,1,90,2|10,0:2|0:0,0:0:0:0:
256,334,13660,2,0,P|231:299|190:274,1,90,0|10,0:0|0:2,0:0:0:0:
41,284,13960,1,2,3:2:0:0:
41,284,14035,1,0,3:0:0:0:
41,284,14110,1,4,3:2:0:0:
164,382,14260,1,2,3:2:0:0:
164,382,14335,1,0,3:0:0:0:
164,382,14410,5,12,3:0:0:0:
98,151,14560,1,0,0:0:0:0:
41,284,14710,1,10,0:0:0:0:
41,284,14860,1,8,0:0:0:0:
218,228,15010,2,0,L|106:237,1,99.0000030212403,8|2,0:2|0:2,0:0:0:0:
24,121,15310,1,8,0:0:0:0:
199,132,15460,6,0,P|219:193|215:241,1,99.0000030212403,0|0,3:0|0:0,0:0:0:0:
43,26,15760,2,0,P|23:87|27:135,1,99.0000030212403,0|10,3:0|0:0,0:0:0:0:
119,235,16060,2,0,B|234:224,1,99.0000030212403,8|8,0:0|0:2,0:0:0:0:
24,121,16360,1,2,0:2:0:0:
24,121,16510,1,0,0:0:0:0:
62,314,16660,1,0,3:0:0:0:
135,110,16810,5,0,0:0:0:0:
24,226,16960,1,0,3:0:0:0:
181,257,17110,1,10,0:0:0:0:
181,257,17260,1,8,0:0:0:0:
79,71,17410,2,0,L|84:196,1,99.0000030212403,8|2,0:2|0:2,0:0:0:0:
28,327,17710,1,8,0:0:0:0:
181,257,17860,6,0,L|72:248,1,99.0000030212403,4|0,3:2|0:0,0:0:0:0:
306,345,18160,2,0,L|197:354,1,99.0000030212403,2|10,3:2|0:0,0:0:0:0:
414,261,18460,2,0,P|362:245|321:192,1,99.0000030212403,8|8,3:1|0:2,0:0:0:0:
306,345,18760,1,2,0:2:0:0:
306,345,18910,1,10,0:0:0:0:
414,152,19060,1,8,0:2:0:0:
491,361,19210,6,0,L|505:255,1,99.0000030212403,4|2,3:0|0:2,0:0:0:0:
414,152,19510,1,10,0:0:0:0:
414,152,19660,1,8,0:0:0:0:
337,361,19810,2,0,L|352:252,1,99.0000030212403,8|2,0:2|0:2,0:0:0:0:
413,112,20110,1,8,0:0:0:0:
241,234,20260,6,0,L|226:125,1,99.0000030212403,0|0,3:0|0:0,0:0:0:0:
119,360,20560,2,0,L|134:251,1,99.0000030212403,0|10,3:0|0:0,0:0:0:0:
323,66,20860,2,0,L|339:187,1,99.0000030212403,8|8,0:0|0:2,0:0:0:0:
260,371,21160,1,2,0:2:0:0:
260,371,21310,1,8,0:0:0:0:
241,234,21460,1,2,0:2:0:0:
375,349,21610,5,6,3:2:0:0:
171,314,21760,1,6,3:2:0:0:
171,314,22060,2,0,P|119:297|66:302,1,99.0000030212403,8|0,0:2|0:0,0:0:0:0:
337,220,22360,2,0,P|285:237|232:232,1,99.0000030212403,8|0,0:2|0:0,0:0:0:0:
96,171,22660,6,0,B|70:233|70:233|77:316,1,135.000005149842,12|0,3:2|0:0,0:0:0:0:
259,27,22960,2,0,B|285:89|285:89|278:172,1,135.000005149842,2|10,0:2|0:0,0:0:0:0:
189,276,23260,6,0,B|242:234|242:234|405:279,1,198.000006042481,0|8,0:0|0:2,0:0:0:0:
262,337,23710,1,10,0:0:0:0:
279,156,23860,1,2,0:2:0:0:
133,350,24010,6,0,L|118:163,1,161.999995056153,14|0,0:0|0:0,0:0:0:0:
115,134,24310,1,10,0:1:0:0:
379,350,24460,6,0,L|389:219,1,107.999996704102,4|0,0:1|0:0,0:0:0:0:
133,350,24760,2,0,L|122:219,1,107.999996704102,0|14,0:0|0:1,0:0:0:0:
409,360,25060,2,0,L|428:234,1,107.999996704102,0|0,0:0|0:0,0:0:0:0:
103,360,25360,2,0,L|86:241,1,107.999996704102,4|10,0:1|0:1,0:0:0:0:
256,128,25660,1,0,0:0:0:0:
42,270,25810,6,0,P|104:260|143:225,1,107.999996704102,4|0,0:2|0:0,0:0:0:0:
469,270,26110,2,0,P|407:260|368:225,1,107.999996704102,4|0,0:2|0:0,0:0:0:0:
256,64,26410,6,0,L|256:256,1,161.999995056153,14|0,0:0|0:0,0:0:0:0:
256,280,26710,1,10,0:1:0:0:
121,60,26860,6,0,L|104:179,1,107.999996704102,4|0,0:1|0:0,0:0:0:0:
391,60,27160,2,0,L|408:179,1,107.999996704102,0|14,0:0|0:1,0:0:0:0:
92,40,27460,2,0,L|64:157,1,107.999996704102,0|0,0:0|0:0,0:0:0:0:
420,40,27760,2,0,L|449:156,1,107.999996704102,4|10,0:1|0:1,0:0:0:0:
256,272,28060,1,0,0:0:0:0:
25,124,28210,6,0,L|145:112,1,107.999996704102,6|0,0:2|0:0,0:0:0:0:
487,124,28510,2,0,L|367:112,1,107.999996704102,6|0,0:2|0:0,0:0:0:0:
115,290,28810,6,0,P|170:228|159:134,1,161.999995056153,14|0,3:0|0:0,0:0:0:0:
132,113,29110,1,10,0:1:0:0:
397,290,29260,6,0,P|353:250|337:203,1,107.999996704102,4|0,0:1|0:0,0:0:0:0:
115,290,29560,2,0,P|159:250|175:203,1,107.999996704102,0|14,0:0|0:1,0:0:0:0:
433,296,29860,2,0,P|414:239|424:190,1,107.999996704102,0|0,0:0|0:0,0:0:0:0:
79,296,30160,2,0,P|97:239|87:190,1,107.999996704102,4|10,0:1|0:1,0:0:0:0:
256,112,30460,1,0,0:0:0:0:
88,192,30610,6,0,L|98:80,1,107.999996704102,4|0,0:2|0:0,0:0:0:0:
424,192,30910,2,0,L|414:80,1,107.999996704102,4|0,0:2|0:0,0:0:0:0:
256,160,31210,6,0,L|256:336,1,161.999995056153,14|0,3:0|0:0,0:0:0:0:
256,376,31510,1,10,0:1:0:0:
145,165,31660,6,0,P|105:124|46:106,1,107.999996704102,4|0,0:1|0:0,0:0:0:0:
367,165,31960,2,0,P|407:124|466:106,1,107.999996704102,0|14,0:0|0:1,0:0:0:0:
117,198,32260,2,0,P|61:182|1:196,1,107.999996704102,0|0,0:0|0:0,0:0:0:0:
395,198,32560,2,0,P|450:182|510:196,1,107.999996704102,4|10,0:1|0:1,0:0:0:0:
256,322,32860,1,0,0:0:0:0:
127,90,33010,6,0,L|115:212,1,107.999996704102,6|0,0:2|0:0,0:0:0:0:
385,90,33310,2,0,L|397:212,1,107.999996704102,6|0,3:2|0:0,0:0:0:0:
323,355,33610,6,0,B|280:295|280:295|169:329,1,170.999995433807,12|10,3:0|0:0,0:0:0:0:
84,353,34060,1,8,0:0:0:0:
180,238,34210,2,0,L|281:208,1,85.4999977169037,8|2,0:2|0:2,0:0:0:0:
125,151,34510,1,8,0:0:0:0:
84,353,34660,6,0,L|69:256,1,85.4999977169037,4|0,0:2|0:0,0:0:0:0:
275,129,34960,2,0,L|260:226,1,85.4999977169037,2|10,0:2|0:0,0:0:0:0:
195,365,35260,2,0,P|220:311|331:297,1,170.999995433807,8|8,0:0|0:2,0:0:0:0:
186,204,35710,1,8,0:0:0:0:
282,371,35860,1,2,0:2:0:0:
347,206,36010,6,0,L|237:215,1,85.4999977169037,4|0,3:2|0:0,0:0:0:0:
195,365,36310,1,10,0:0:0:0:
186,204,36460,1,8,0:0:0:0:
367,377,36610,2,0,L|257:368,1,85.4999977169037,8|2,0:2|0:2,0:0:0:0:
186,204,36910,1,8,0:0:0:0:
321,292,37060,6,0,P|334:249|321:191,1,85.4999977169037,4|0,0:2|0:0,0:0:0:0:
195,365,37360,2,0,P|182:322|195:264,1,85.4999977169037,2|10,0:2|0:0,0:0:0:0:
243,178,37660,2,0,L|138:188,1,85.4999977169037,8|2,0:0|0:2,0:0:0:0:
187,98,37960,1,8,0:2:0:0:
187,98,38110,1,8,0:0:0:0:
186,282,38260,1,2,0:2:0:0:
313,216,38410,6,0,P|320:170|306:130,1,85.4999977169037,4|0,0:2|0:0,0:0:0:0:
165,20,38710,2,0,L|158:120,1,85.4999977169037,10|0,0:0|0:0,0:0:0:0:
186,282,39010,1,8,0:2:0:0:
308,133,39160,1,2,0:2:0:0:
114,195,39310,1,8,0:0:0:0:
305,304,39460,6,0,L|309:121,1,170.999995433807,4|2,0:2|0:2,0:0:0:0:
250,33,39910,1,10,0:0:0:0:
159,105,40060,2,0,B|33:125|33:125|67:74,1,170.999995433807,8|8,0:0|0:2,0:0:0:0:
165,19,40510,1,8,0:0:0:0:
244,119,40660,1,2,0:2:0:0:
57,88,40810,6,0,L|49:264,1,170.999995433807,4|10,0:2|0:0,0:0:0:0:
12,365,41260,1,8,0:0:0:0:
161,258,41410,2,0,L|155:146,1,85.4999977169037,8|2,0:2|0:2,0:0:0:0:
57,88,41710,1,8,0:0:0:0:
49,258,41860,6,0,L|52:172,1,85.4999977169037,4|0,0:2|0:0,0:0:0:0:
130,46,42160,1,2,0:2:0:0:
13,12,42310,1,10,0:0:0:0:
157,172,42460,2,0,P|190:194|267:199,1,85.4999977169037,8|8,0:0|0:2,0:0:0:0:
311,110,42760,1,2,3:2:0:0:
215,40,42910,5,4,3:2:0:0:
193,41,42985,1,0,0:0:0:0:
172,42,43060,1,2,3:2:0:0:
151,44,43135,1,0,3:0:0:0:
129,45,43210,6,0,L|32:50,1,94.499997116089,12|0,3:0|0:0,0:0:0:0:
157,172,43510,1,10,0:0:0:0:
157,172,43660,1,8,0:0:0:0:
287,36,43810,2,0,L|190:41,1,94.499997116089,8|2,0:2|0:2,0:0:0:0:
34,49,44110,1,8,0:0:0:0:
157,172,44260,6,0,B|192:41|192:41|208:97,1,188.999994232178,4|2,0:2|0:2,0:0:0:0:
243,192,44710,1,10,0:0:0:0:
70,181,44860,2,0,L|99:72,1,94.499997116089,8|0,0:0|0:0,0:0:0:0:
206,92,45160,1,8,0:2:0:0:
243,192,45310,1,8,0:0:0:0:
222,70,45460,1,2,0:2:0:0:
152,228,45610,6,0,P|186:274|240:290,1,94.499997116089,4|0,0:2|0:0,0:0:0:0:
334,156,45910,2,0,P|300:110|246:94,1,94.499997116089,10|8,0:0|0:0,0:0:0:0:
220,289,46210,1,8,0:2:0:0:
220,289,46360,1,2,0:2:0:0:
322,262,46510,1,8,0:0:0:0:
258,177,46660,6,0,L|44:166,1,188.999994232178,4|2,0:2|0:2,0:0:0:0:
124,97,47110,1,10,0:0:0:0:
50,255,47260,2,0,L|170:248,1,94.499997116089,8|2,0:0|0:2,0:0:0:0:
258,177,47560,1,8,0:2:0:0:
124,97,47710,1,8,0:0:0:0:
241,275,47860,1,2,0:2:0:0:
289,104,48010,6,0,P|384:102|429:199,1,188.999994232178,4|10,0:2|0:0,0:0:0:0:
338,182,48460,1,0,0:0:0:0:
364,21,48610,2,0,P|417:38|452:64,1,94.499997116089,8|2,0:2|0:2,0:0:0:0:
430,174,48910,1,8,0:0:0:0:
289,104,49060,6,0,L|492:92,1,188.999994232178,4|2,0:2|0:2,0:0:0:0:
505,15,49510,1,10,0:0:0:0:
430,174,49660,2,0,L|321:170,1,94.499997116089,8|2,0:0|0:2,0:0:0:0:
228,163,49960,1,8,0:2:0:0:
334,81,50110,1,8,0:0:0:0:
313,258,50260,1,2,0:2:0:0:
156,104,50410,6,0,B|26:119|26:119|98:142,1,188.999994232178,4|10,0:2|0:0,0:0:0:0:
222,190,50860,1,8,0:0:0:0:
159,9,51010,2,0,L|155:120,1,94.499997116089,8|2,0:2|0:2,0:0:0:0:
148,223,51310,1,8,0:0:0:0:
273,91,51460,6,0,P|348:64|432:126,1,188.999994232178,4|2,0:2|0:2,0:0:0:0:
450,28,51910,1,10,0:0:0:0:
341,163,52060,1,8,0:0:0:0:
464,24,52210,1,2,0:2:0:0:
419,218,52360,1,8,0:2:0:0:
478,20,52510,1,8,0:0:0:0:
512,239,52660,1,2,0:2:0:0:
341,163,52810,6,0,P|277:164|214:35,1,215.999993408203,12|10,3:0|0:0,0:0:0:0:
307,68,53260,1,8,0:2:0:0:
292,251,53410,1,8,0:0:0:0:
292,251,53560,1,8,0:2:0:0:
211,44,53710,1,10,0:0:0:0:
341,163,53860,1,8,0:2:0:0:
126,266,54010,6,0,L|140:46,1,215.999993408203,6|10,3:2|0:0,0:0:0:0:
292,251,54460,2,0,L|299:360,1,107.999996704102,2|0,0:2|0:0,0:0:0:0:
126,266,54760,1,2,0:2:0:0:
204,152,54910,1,10,0:0:0:0:
181,352,55060,1,2,0:2:0:0:
355,258,55210,6,0,B|385:191|385:191|332:51,1,215.999993408203,6|10,3:2|0:0,0:0:0:0:
204,152,55660,2,0,L|184:280,1,107.999996704102,8|8,0:2|0:0,0:0:0:0:
255,362,55960,1,8,0:2:0:0:
105,275,56110,1,10,0:0:0:0:
282,210,56260,1,8,0:2:0:0:
130,369,56410,6,0,L|19:359,1,107.999996704102,6|2,3:2|0:2,0:0:0:0:
187,258,56710,1,14,3:2:0:0:
255,362,56860,1,8,0:2:0:0:
282,210,57010,1,4,3:2:0:0:
282,210,57160,1,2,3:2:0:0:
130,369,57310,2,0,L|137:245,1,107.999996704102,14|0,3:2|0:0,0:0:0:0:
174,142,57610,6,0,P|134:167|57:161,1,107.999996704102,14|0,3:2|0:0,0:0:0:0:
282,210,57910,2,0,L|287:332,1,107.999996704102,10|8,0:0|0:2,0:0:0:0:
284,83,58210,1,8,0:0:0:0:
284,83,58360,1,8,0:2:0:0:
392,151,58510,2,0,L|397:273,1,107.999996704102,10|8,0:0|0:2,0:0:0:0:
282,210,58810,6,0,P|227:234|168:233,1,107.999996704102,6|0,3:2|0:0,0:0:0:0:
284,83,59110,1,10,0:0:0:0:
396,258,59260,2,0,L|392:151,1,107.999996704102,2|8,0:2|0:0,0:0:0:0:
282,210,59560,1,2,0:2:0:0:
300,328,59710,1,10,0:0:0:0:
392,151,59860,1,2,0:2:0:0:
217,282,60010,6,0,L|-3:269,1,215.999993408203,6|10,3:2|0:0,0:0:0:0:
346,160,60460,1,8,0:2:0:0:
346,160,60610,2,0,L|475:152,1,107.999996704102,0|8,0:0|0:2,0:0:0:0:
504,305,60910,1,10,0:0:0:0:
396,258,61060,1,8,0:2:0:0:
453,153,61210,5,6,3:2:0:0:
421,350,61360,1,8,0:2:0:0:
346,160,61510,1,4,3:2:0:0:
504,305,61660,1,8,0:2:0:0:
311,288,61810,1,4,3:2:0:0:
311,288,61885,1,0,3:0:0:0:
311,288,61960,1,8,3:2:0:0:
461,133,62110,1,6,3:2:0:0:
462,368,62260,1,2,0:2:0:0:
277,179,62410,6,0,B|215:147|215:147|66:205,1,215.999993408203,12|10,3:0|0:0,0:0:0:0:
198,343,62860,2,0,L|209:234,1,107.999996704102,8|8,0:2|0:0,0:0:0:0:
78,200,63160,1,8,0:2:0:0:
119,364,63310,1,10,0:0:0:0:
20,290,63460,1,8,0:2:0:0:
209,236,63610,6,0,P|277:232|341:353,1,215.999993408203,6|10,3:2|0:0,0:0:0:0:
119,364,64060,2,0,L|133:126,1,215.999993408203,2|2,0:2|0:2,0:0:0:0:
306,180,64510,1,10,0:0:0:0:
250,320,64660,1,2,0:2:0:0:
131,148,64810,6,0,L|361:138,1,215.999993408203,6|10,3:2|0:0,0:0:0:0:
384,268,65260,2,0,B|338:218|347:138|347:138|310:212,1,215.999993408203,8|8,0:2|0:2,0:0:0:0:
306,326,65710,1,10,0:0:0:0:
438,184,65860,1,8,0:2:0:0:
312,206,66010,6,0,B|231:201|231:201|186:230|186:230|84:223,1,215.999993408203,6|14,3:2|3:2,0:0:0:0:
104,224,66460,1,8,0:2:0:0:
306,326,66610,1,4,3:2:0:0:
306,326,66760,1,2,3:2:0:0:
319,133,66910,2,0,L|198:126,1,107.999996704102,14|0,3:2|0:0,0:0:0:0:
378,207,67210,6,0,B|464:120|351:88|443:1,1,215.999993408203,14|10,3:2|0:0,0:0:0:0:
492,76,67660,1,8,0:2:0:0:
319,133,67810,1,8,0:0:0:0:
319,133,67960,1,8,0:2:0:0:
483,262,68110,2,0,L|478:148,1,107.999996704102,10|8,0:0|0:2,0:0:0:0:
403,37,68410,6,0,P|387:91|236:100,1,215.999993408203,6|10,3:2|0:0,0:0:0:0:
308,38,68860,2,0,L|335:253,1,215.999993408203,2|2,0:2|0:2,0:0:0:0:
169,22,69310,1,10,0:0:0:0:
243,197,69460,1,2,0:2:0:0:
79,105,69610,6,0,L|52:319,1,215.999993408203,6|10,3:2|0:0,0:0:0:0:
247,290,70060,2,0,B|140:308|140:308|156:181,1,215.999993408203,8|8,0:2|0:2,0:0:0:0:
243,197,70510,1,10,0:0:0:0:
332,332,70660,1,8,0:2:0:0:
153,201,70810,5,6,3:2:0:0:
328,221,70960,1,8,0:2:0:0:
152,180,71110,1,4,3:2:0:0:
342,128,71260,1,8,0:2:0:0:
159,168,71410,1,6,3:2:0:0:
159,168,71485,1,0,3:0:0:0:
159,168,71560,1,0,3:2:0:0:
327,34,71710,1,6,3:2:0:0:
152,144,71860,1,0,0:0:0:0:
397,183,72010,5,6,0:2:0:0:
335,100,80560,6,0,L|249:88,2,67.5000025749208,0|2|2,0:0|0:0|0:0,0:0:0:0:
404,192,81010,1,10,0:1:0:0:
429,66,81160,1,8,0:1:0:0:
500,202,81310,1,8,0:0:0:0:
359,18,81460,1,10,0:1:0:0:
284,234,81610,5,12,3:0:0:0:
404,192,81760,2,0,L|420:308,1,90,2|8,0:2|0:0,0:0:0:0:
348,126,82060,2,0,P|387:105|441:113,1,90,10|2,0:0|0:2,0:0:0:0:
473,340,82360,2,0,P|434:361|380:353,1,90,8|8,0:2|0:0,0:0:0:0:
284,234,82660,5,2,0:2:0:0:
284,234,82810,2,0,B|274:367,1,90,6|8,3:2|0:2,0:0:0:0:
227,162,83110,2,0,P|270:139|326:151,1,90,10|8,0:0|0:0,0:0:0:0:
173,249,83410,1,8,0:2:0:0:
127,158,83560,1,2,0:2:0:0:
73,245,83710,1,8,0:0:0:0:
27,154,83860,1,2,0:2:0:0:
173,249,84010,6,0,B|261:205|267:298|361:241,1,180,4|10,3:2|0:0,0:0:0:0:
304,174,84460,1,8,0:0:0:0:
217,315,84610,2,0,B|192:365|192:365|64:336,1,180,0|10,0:0|0:0,0:0:0:0:
152,162,85060,6,0,P|169:207|171:264,1,90,6|0,3:2|0:0,0:0:0:0:
68,60,85360,1,2,0:2:0:0:
35,211,85510,2,0,P|18:256|16:313,1,90,8|10,0:0|0:0,0:0:0:0:
172,248,85810,1,8,0:2:0:0:
15,126,85960,1,2,0:2:0:0:
138,132,86110,2,0,L|234:124,1,90,8|0,0:0|0:0,0:0:0:0:
379,147,86410,6,0,P|299:107|292:13,1,180,4|8,3:2|0:0,0:0:0:0:
277,204,86860,1,10,0:0:0:0:
377,51,87010,2,0,L|480:42,1,90,2|8,0:2|0:2,0:0:0:0:
454,234,87310,1,8,0:0:0:0:
277,204,87460,6,0,L|288:17,1,180,2|0,0:2|0:0,0:0:0:0:
193,263,87910,1,10,0:0:0:0:
379,215,88060,2,0,L|390:28,1,180,8|8,0:0|0:2,0:0:0:0:
305,298,88510,2,0,P|358:326|406:324,1,90,8|2,0:0|0:2,0:0:0:0:
379,215,88810,5,6,3:2:0:0:
256,361,88960,1,2,0:2:0:0:
269,191,89110,1,10,0:0:0:0:
387,327,89260,1,8,0:0:0:0:
342,126,89410,1,2,0:2:0:0:
218,270,89560,1,8,0:2:0:0:
416,211,89710,1,10,0:0:0:0:
145,129,89860,6,0,L|131:361,1,215.999993408203,6|2,3:2|0:2,0:0:0:0:
59,294,90310,1,2,0:2:0:0:
218,270,90460,1,8,0:2:0:0:
22,202,90610,1,8,0:2:0:0:
243,175,90760,5,8,0:0:0:0:
145,129,90910,1,10,0:0:0:0:
155,236,91060,1,2,0:2:0:0:
233,68,91210,5,12,3:0:0:0:
53,86,91360,1,2,0:2:0:0:
53,86,91810,5,8,0:2:0:0:
33,264,91960,1,8,0:2:0:0:
33,264,92260,6,0,L|43:371,1,90,2|0,0:0|0:0,0:0:0:0:
138,145,92560,2,0,L|128:267,1,90,2|8,0:0|0:0,0:0:0:0:
53,86,92860,2,0,P|106:49|223:86,1,180,10|2,0:0|0:2,0:0:0:0:
271,180,93310,1,0,0:0:0:0:
297,36,93460,1,2,0:2:0:0:
297,36,93535,1,2,0:2:0:0:
297,36,93610,5,6,0:2:0:0:
138,145,93760,1,8,0:2:0:0:
138,145,94060,2,0,L|249:154,1,90,8|0,0:2|0:0,0:0:0:0:
26,46,94360,2,0,L|137:37,1,90,0|10,3:0|0:2,0:0:0:0:
38,148,94660,2,0,P|22:193|18:244,1,90,0|0,3:0|3:0,0:0:0:0:
227,152,94960,2,0,P|243:107|247:56,1,90,0|10,3:0|0:2,0:0:0:0:
131,219,95260,1,0,3:0:0:0:
238,269,95410,5,8,0:2:0:0:
249,268,95485,1,2,0:2:0:0:
260,267,95560,1,2,0:2:0:0:
271,267,95635,1,2,0:2:0:0:
282,266,95710,2,0,L|338:260,4,45,2|2|2|2|12,0:2|0:2|0:2|0:2|3:2,3:2:0:0:
