osu file format v14

[General]
AudioFilename: audio.mp3
AudioLeadIn: 2000
PreviewTime: 52735
Countdown: 0
SampleSet: Soft
StackLeniency: 0.4
Mode: 0
LetterboxInBreaks: 0
WidescreenStoryboard: 0

[Editor]
DistanceSpacing: 1.3
BeatDivisor: 4
GridSize: 4
TimelineZoom: 1.7

[Metadata]
Title:Niiru Renka Chou ~ Ancients
TitleUnicode:二色蓮花蝶 ~ Ancients
Artist:Akiyama Uni
ArtistUnicode:あきやまうに
Creator:My Angel Azusa
Version:Frey's Insane
Source:西方Project
Tags:sahuang lunasaika SnowNiNo_ frey doormat pata-mon 東方 Touhou Seihou zun u2 Dichromatic Lotus Butterfly あきやまうに 上海アリス幻樂団 西方秋霜玉 Shuugou Gyoku twilight frontier 黄昏フロンティア th12.3 核熱造神ヒソウテンソク c77 fxtz 博丽霊梦 はくれい れいむ Hakurei Reimu
BeatmapID:1166050
BeatmapSetID:545404

[Difficulty]
HPDrainRate:6
CircleSize:4
OverallDifficulty:7
ApproachRate:9
SliderMultiplier:1.8
SliderTickRate:1

[Events]
//Background and Video events
0,0,"sahuangbaka.jpg",0,0
//Break Periods
//Storyboard Layer 0 (Background)
//Storyboard Layer 1 (Fail)
//Storyboard Layer 2 (Pass)
//Storyboard Layer 3 (Foreground)
//Storyboard Sound Samples

[TimingPoints]
10,300,4,2,0,60,1,0
4210,-100,4,2,0,50,0,0
4510,-100,4,2,0,60,0,0
26410,-100,4,2,0,65,0,0
26485,-100,4,2,0,60,0,0
28810,-100,4,2,0,65,0,0
28885,-100,4,2,0,60,0,0
31210,-100,4,2,0,65,0,0
31285,-100,4,2,0,60,0,0
52810,-100,4,3,0,60,0,1
62110,-100,4,2,0,60,0,0
62410,-100,4,3,0,60,0,1
72010,-133.333333333333,4,2,0,60,0,0
80410,-100,4,2,0,50,0,0
81010,-100,4,2,0,60,0,0
90760,-100,4,2,0,70,0,0
91210,-100,4,2,0,60,0,0
94810,-100,4,2,0,45,0,0
96010,-100,4,2,0,15,0,0

[Colours]
Combo1 : 124,0,236
Combo2 : 0,200,0
Combo3 : 34,134,255
Combo4 : 255,142,30

[HitObjects]
480,92,10,5,2,0:0:0:0:
480,92,160,2,0,L|300:72,1,180
164,116,610,1,2,0:0:0:0:
148,260,760,2,0,B|176:204|256:184|303:213,2,180,0|2|0,0:0|0:0|0:0,0:0:0:0:
256,340,1510,5,0,0:0:0:0:
400,264,1660,2,0,L|417:84,1,180,2|0,0:0|0:0,0:0:0:0:
352,20,2110,1,2,0:0:0:0:
264,136,2260,2,0,L|252:60,1,45
188,32,2410,5,6,0:0:0:0:
188,32,2560,2,0,B|124:12|64:20|16:68,2,180,0|2|0,0:0|0:0|0:0,0:0:0:0:
168,124,3310,5,2,3:2:0:0:
44,224,3460,1,0,0:0:0:0:
20,64,3610,2,0,P|100:56|140:48,1,90,0|0,3:0|0:0,0:0:0:0:
308,196,3910,2,0,P|228:204|188:212,1,90,2|0,3:2|0:0,0:0:0:0:
44,224,4210,6,0,L|52:180,1,45,0|0,3:0|3:0,0:0:0:0:
136,88,4360,2,0,L|152:152,1,45,0|0,3:0|3:0,0:0:0:0:
136,272,4510,2,0,L|148:204,1,45,2|0,3:2|3:0,0:0:0:0:
236,60,4660,2,0,L|252:124,1,45,0|0,3:0|3:0,0:0:0:0:
308,196,4810,6,0,L|468:212,1,135,4|0,3:2|0:0,0:0:0:0:
476,180,5110,2,0,P|468:132|468:56,1,90,2|0,3:2|0:0,0:0:0:0:
464,0,5410,1,0,3:0:0:0:
312,112,5560,1,0,3:0:0:0:
476,180,5710,1,2,0:0:0:0:
384,48,5860,6,0,B|328:16|268:12|200:36,1,180,0|0,3:0|3:0,0:0:0:0:
115,139,6310,2,0,P|72:148|27:155,1,90,2|0,3:2|0:0,0:0:0:0:
256,167,6610,2,0,P|299:158|344:151,1,90,0|0,3:0|3:0,0:0:0:0:
160,276,6910,1,2,3:2:0:0:
256,168,7060,6,0,P|280:232|280:344,1,180
32,252,7510,2,0,P|16:196|16:144,1,90,2|0,3:2|0:0,0:0:0:0:
136,104,7810,1,0,3:0:0:0:
256,168,7960,1,0,3:0:0:0:
140,240,8110,1,2,3:2:0:0:
256,76,8260,6,0,P|328:72|468:44,1,180,0|0,3:0|3:0,0:0:0:0:
388,240,8710,2,0,P|380:196|388:152,1,90,2|0,3:2|0:0,0:0:0:0:
434,53,9010,1,0,3:0:0:0:
508,136,9160,1,0,3:0:0:0:
508,248,9310,1,2,3:2:0:0:
434,330,9460,6,0,P|345:314|256:308,1,180
112,204,9910,2,0,P|148:144|164:104,1,90,2|0,3:2|0:0,0:0:0:0:
196,40,10210,1,0,3:0:0:0:
108,8,10360,1,0,3:0:0:0:
68,92,10510,1,2,3:2:0:0:
231,215,10660,6,0,P|318:222|384:165,1,180,0|0,3:0|3:0,0:0:0:0:
295,16,11110,2,0,P|282:58|281:103,1,90,2|0,3:2|0:0,0:0:0:0:
472,196,11410,2,0,P|471:151|457:108,1,90,0|0,3:0|3:0,0:0:0:0:
400,36,11710,1,2,3:2:0:0:
281,103,11860,1,0,0:0:0:0:
296,236,12010,6,0,P|344:220|400:212,1,90,0|0,3:0|0:0,0:0:0:0:
472,196,12310,1,2,3:2:0:0:
416,320,12460,1,0,0:0:0:0:
284,348,12610,2,0,P|236:332|180:324,1,90,0|0,3:0|3:0,0:0:0:0:
60,232,12910,1,2,3:2:0:0:
197,99,13060,6,0,P|112:82|46:139,1,180,0|0,3:0|3:0,0:0:0:0:
150,256,13510,2,0,P|145:211|136:168,1,90,2|0,3:2|0:0,0:0:0:0:
361,127,13810,2,0,P|366:172|376:216,1,90,0|0,3:0|3:0,0:0:0:0:
392,272,14035,1,0,3:0:0:0:
392,272,14110,2,0,P|433:255|478:256,1,90,2|0,3:2|0:0,0:0:0:0:
440,80,14410,6,0,P|387:39|321:43,1,135,4|0,3:2|0:0,0:0:0:0:
280,64,14710,2,0,P|260:124|256:184,1,90,2|0,3:2|0:0,0:0:0:0:
248,280,15010,1,0,3:0:0:0:
361,127,15160,1,0,3:0:0:0:
196,28,15310,1,2,3:2:0:0:
72,44,15460,6,0,B|28:76|12:152|44:208,1,180,0|0,3:0|3:0,0:0:0:0:
96,280,15910,2,0,L|200:264,1,90,2|0,3:2|0:0,0:0:0:0:
256,204,16210,1,0,3:0:0:0:
264,80,16360,1,0,3:0:0:0:
148,132,16510,1,2,3:2:0:0:
184,266,16660,6,0,P|288:284|368:308,1,180
504,368,17110,1,2,3:2:0:0:
464,268,17260,1,0,0:0:0:0:
359,304,17410,1,0,3:0:0:0:
254,340,17560,2,0,P|230:264|222:216,1,90,0|2,3:0|3:2,0:0:0:0:
443,67,17860,6,0,P|450:154|387:214,1,180,0|0,3:0|3:0,0:0:0:0:
186,155,18310,2,0,L|202:27,1,90,2|0,3:2|0:0,0:0:0:0:
302,11,18610,1,0,3:0:0:0:
356,116,18760,1,0,3:0:0:0:
268,200,18910,1,2,3:2:0:0:
186,155,19060,6,0,B|136:128|68:124|8:144,1,180
108,276,19510,2,0,P|164:264|212:216,1,90,2|0,3:2|0:0,0:0:0:0:
264,112,19810,1,0,3:0:0:0:
184,12,19960,1,0,3:0:0:0:
60,28,20110,1,2,3:2:0:0:
10,143,20260,6,0,B|-8:204|0:264|36:316,1,180,0|0,3:0|3:0,0:0:0:0:
184,364,20710,2,0,P|260:352|304:352,1,90,2|0,3:2|0:0,0:0:0:0:
356,284,21010,1,0,3:0:0:0:
343,179,21160,2,0,P|298:187|254:190,1,90,0|2,3:0|3:2,0:0:0:0:
460,268,21460,1,0,0:0:0:0:
496,112,21610,6,0,P|486:67|483:23,1,90,0|0,3:0|0:0,0:0:0:0:
343,179,21910,2,0,P|352:223|355:267,1,90,2|0,3:2|0:0,0:0:0:0:
256,152,22210,1,0,3:0:0:0:
320,88,22360,1,0,3:0:0:0:
343,179,22510,1,2,3:2:0:0:
256,328,22660,6,0,P|168:348|88:284,1,180,0|0,3:0|3:0,0:0:0:0:
35,201,23110,2,0,P|41:156|44:112,1,90,2|0,3:2|0:0,0:0:0:0:
280,24,23410,1,0,3:0:0:0:
164,52,23560,1,0,3:0:0:0:
120,160,23710,1,2,3:2:0:0:
188,256,23860,1,0,3:0:0:0:
256,128,24010,6,0,P|344:148|424:84,1,180,4|2,3:2|3:2,0:0:0:0:
497,197,24460,2,0,L|485:297,1,90,0|0,0:0|3:0,0:0:0:0:
297,361,24760,2,0,L|307:271,1,90,0|2,0:0|3:2,0:0:0:0:
415,101,25060,2,0,L|404:190,1,90,0|0,0:0|3:0,0:0:0:0:
213,265,25360,2,0,L|223:175,1,90,0|2,0:0|3:2,0:0:0:0:
132,308,25660,1,0,0:0:0:0:
0,192,25810,5,4,3:2:0:0:
306,271,26110,1,4,3:2:0:0:
306,271,26410,6,0,B|332:208|328:144|296:96,1,180,4|2,3:2|3:2,0:0:0:0:
112,32,26860,2,0,L|201:41,1,90,0|0,0:0|3:0,0:0:0:0:
148,136,27160,2,0,L|58:126,1,90,0|2,0:0|3:2,0:0:0:0:
38,322,27460,2,0,L|127:331,1,90,0|0,0:0|3:0,0:0:0:0:
181,237,27760,2,0,L|91:227,1,90,0|2,0:0|3:2,0:0:0:0:
219,343,28060,1,0,0:0:0:0:
0,216,28210,5,4,3:2:0:0:
272,248,28510,1,4,3:2:0:0:
272,248,28810,6,0,P|248:162|264:74,1,180,4|2,3:2|3:2,0:0:0:0:
447,54,29260,2,0,P|454:99|456:144,1,90,0|0,0:0|3:0,0:0:0:0:
280,337,29560,2,0,P|273:292|272:247,1,90,0|2,0:0|3:2,0:0:0:0:
356,64,29860,2,0,P|362:108|364:153,1,90,0|0,0:0|3:0,0:0:0:0:
188,346,30160,2,0,P|181:301|180:257,1,90,0|2,0:0|3:2,0:0:0:0:
216,128,30460,1,0,0:0:0:0:
432,236,30610,5,4,3:2:0:0:
80,148,30910,1,4,3:2:0:0:
80,148,31210,6,0,P|24:214|54:294,1,180,4|2,3:2|3:2,0:0:0:0:
140,76,31660,2,0,L|51:62,1,90,0|0,0:0|3:0,0:0:0:0:
208,214,31960,2,0,L|119:227,1,90,0|2,0:0|3:2,0:0:0:0:
316,104,32260,2,0,L|227:90,1,90,0|0,0:0|3:0,0:0:0:0:
384,184,32560,2,0,L|295:197,1,90,0|2,0:0|3:2,0:0:0:0:
472,168,32860,1,0,0:0:0:0:
344,328,33010,5,4,3:2:0:0:
168,56,33310,1,4,3:2:0:0:
168,56,33610,6,0,P|256:76|344:56,1,180,4|2,3:2|3:2,0:0:0:0:
424,12,34060,1,0,0:0:0:0:
456,216,34210,2,0,L|468:100,1,90,0|0,3:0|3:0,0:0:0:0:
342,56,34510,1,2,3:2:0:0:
264,176,34660,6,0,B|232:232|248:308|296:336,1,180,0|0,3:0|3:0,0:0:0:0:
352,148,35110,1,2,3:2:0:0:
254,84,35260,2,0,B|176:92|176:92|136:80|136:80|36:92,2,180,0|0|0,0:0|3:0|0:0,0:0:0:0:
342,56,36010,6,0,P|416:96|520:72,1,180,0|2,3:0|0:0,0:0:0:0:
452,192,36460,1,0,0:0:0:0:
339,251,36610,2,0,P|326:209|327:164,1,90,0|0,3:0|3:0,0:0:0:0:
428,284,36910,1,2,3:2:0:0:
356,344,37060,6,0,P|267:326|178:313,2,180,0|2|0,3:0|3:2|3:0,0:0:0:0:
232,188,37810,1,0,0:0:0:0:
152,228,37960,1,0,3:0:0:0:
178,313,38110,1,2,3:2:0:0:
258,273,38260,1,0,3:0:0:0:
151,135,38410,6,0,P|75:177|68:264,1,180,0|2,3:0|3:2,0:0:0:0:
92,352,38860,1,0,0:0:0:0:
258,273,39010,2,0,P|264:196|272:152,1,90,0|0,3:0|3:0,0:0:0:0:
204,36,39310,1,2,3:2:0:0:
44,15,39460,6,0,P|26:102|74:176,2,180,0|2|0,3:0|3:2|3:0,0:0:0:0:
169,151,40210,2,0,P|162:196|152:240,1,90,0|0,3:2|0:0,0:0:0:0:
296,60,40510,2,0,P|372:76|420:80,1,90,2|0,3:2|0:0,0:0:0:0:
439,208,40810,6,0,P|487:134|470:47,1,180,0|2,3:0|3:2,0:0:0:0:
352,176,41260,1,0,0:0:0:0:
368,268,41410,2,0,L|388:380,1,90,0|0,3:0|3:0,0:0:0:0:
439,208,41710,1,2,3:2:0:0:
281,236,41860,6,0,B|224:244|160:232|104:196,1,180,0|0,3:0|3:0,0:0:0:0:
12,116,42310,1,2,3:2:0:0:
132,72,42460,1,0,3:0:0:0:
108,198,42610,2,0,P|96:282|96:314,1,90,0|0,3:0|3:0,0:0:0:0:
104,332,42835,1,0,3:0:0:0:
104,332,42910,1,2,3:2:0:0:
256,376,43060,1,0,3:0:0:0:
344,248,43210,6,0,P|360:176|300:60,1,180,4|2,3:2|3:2,0:0:0:0:
256,16,43660,1,0,0:0:0:0:
168,136,43810,2,0,P|174:188|176:236,1,90,0|0,3:0|3:0,0:0:0:0:
280,316,44110,1,2,3:2:0:0:
344,248,44260,6,0,P|336:160|336:64,1,180,0|0,3:0|3:0,0:0:0:0:
420,108,44710,1,2,3:2:0:0:
256,156,44860,2,0,B|192:172|136:160|88:112,2,180,0|0|0,0:0|3:0|0:0,0:0:0:0:
335,68,45610,6,0,P|407:18|490:44,1,180,0|2,3:0|3:2,0:0:0:0:
484,180,46060,1,0,0:0:0:0:
376,264,46210,2,0,P|300:256|260:256,1,90,0|0,3:0|3:0,0:0:0:0:
140,212,46510,1,2,3:2:0:0:
75,148,46660,6,0,P|53:231|109:298,2,180,0|2|0,3:0|3:2|3:0,0:0:0:0:
166,59,47410,2,0,P|211:66|256:68,1,90,0|0,0:0|3:0,0:0:0:0:
345,308,47710,2,0,P|300:309|255:316,1,90,2|0,3:2|3:0,0:0:0:0:
256,192,48010,6,0,B|320:220|384:196|408:132,1,180,0|2,3:0|3:2,0:0:0:0:
312,16,48460,1,0,0:0:0:0:
166,59,48610,2,0,P|174:131|182:171,1,90,0|0,3:0|3:0,0:0:0:0:
204,304,48910,1,2,3:2:0:0:
80,212,49060,6,0,B|64:152|56:92|56:32,2,180,0|2|0,3:0|3:2|3:0,0:0:0:0:
116,296,49810,1,0,0:0:0:0:
168,220,49960,1,0,3:0:0:0:
204,304,50110,2,0,P|252:292|308:288,1,90,2|0,3:2|0:0,0:0:0:0:
480,156,50410,6,0,B|420:180|356:168|316:116,1,180,0|2,3:0|3:2,0:0:0:0:
300,28,50860,1,0,0:0:0:0:
176,48,51010,1,0,3:0:0:0:
132,168,51160,1,0,0:0:0:0:
220,260,51310,1,2,3:2:0:0:
389,121,51460,6,0,P|304:107|247:172,1,180,4|0,3:2|3:0,0:0:0:0:
280,332,51910,2,0,L|369:339,1,90,2|0,3:2|3:0,0:0:0:0:
460,196,52210,2,0,L|370:203,1,90,0|0,3:0|3:0,0:0:0:0:
227,259,52510,2,0,L|246:171,1,90,2|0,3:2|3:0,0:0:0:0:
296,52,52810,6,0,P|384:44|508:28,1,180,4|2,0:2|3:2,0:0:0:0:
247,172,53260,2,0,P|199:73|219:1,1,180
352,143,53710,2,0,P|343:188|339:232,1,90,2|0,0:2|0:0,0:0:0:0:
80,312,54010,6,0,B|112:260|192:248|240:285,1,180,0|2,0:0|0:2,0:0:0:0:
432,72,54460,2,0,B|400:124|320:136|271:98,1,180
32,112,54910,1,2,0:2:0:0:
120,24,55060,1,0,0:0:0:0:
152,144,55210,6,0,P|136:320|136:332,1,180,0|2,0:2|0:2,0:0:0:0:
305,243,55660,2,0,P|331:161|272:98,1,180,0|0,0:2|0:0,0:0:0:0:
152,144,56110,2,0,P|110:160|67:174,1,90,2|0,0:2|0:0,0:0:0:0:
40,12,56410,6,0,P|116:40|156:52,1,90
286,187,56710,2,0,P|274:119|270:75,1,90,2|0,0:2|0:0,0:0:0:0:
166,232,57010,2,0,P|154:164|150:120,1,90
256,8,57310,1,2,0:2:0:0:
424,44,57460,1,0,0:0:0:0:
322,86,57610,6,0,P|237:116|151:142,1,180,0|2,0:0|0:2,0:0:0:0:
59,55,58060,2,0,P|11:128|43:208,1,180
256,252,58510,1,2,0:2:0:0:
172,212,58660,1,0,0:0:0:0:
180,304,58810,6,0,P|256:344|332:300,1,180,0|2,0:0|0:2,0:0:0:0:
332,80,59260,2,0,P|256:40|180:84,1,180
256,192,59710,2,0,L|360:204,1,90,2|0,0:2|0:0,0:0:0:0:
483,38,60010,6,0,B|455:99|391:119|321:73,1,180,0|2,0:0|0:2,0:0:0:0:
296,288,60460,2,0,L|474:266,1,180
512,148,60910,1,2,0:2:0:0:
396,12,61060,1,0,0:0:0:0:
331,79,61210,6,0,P|316:120|320:188,1,90
391,342,61510,2,0,P|407:300|408:256,1,90,2|0,0:2|0:0,0:0:0:0:
197,218,61810,1,2,0:2:0:0:
181,260,61885,1,0,0:0:0:0:
180,304,61960,1,0,0:0:0:0:
102,126,62110,2,0,P|117:83|118:38,1,90,2|0,3:2|3:0,0:0:0:0:
12,64,62410,6,0,P|20:156|24:252,1,180,4|2,0:2|0:2,0:0:0:0:
255,101,62860,2,0,P|173:74|103:126,1,180
116,309,63310,2,0,P|116:264|111:220,1,90,2|0,0:2|0:0,0:0:0:0:
256,280,63610,6,0,P|338:307|408:257,1,180,0|2,0:0|0:2,0:0:0:0:
476,124,64060,2,0,P|387:137|299:160,1,180
136,312,64510,1,2,0:2:0:0:
48,292,64660,1,0,0:0:0:0:
107,220,64810,6,0,P|195:233|283:256,1,180,0|2,0:0|0:2,0:0:0:0:
192,44,65260,2,0,P|157:122|71:135,1,180
100,48,65710,1,2,0:2:0:0:
256,116,65860,1,0,0:0:0:0:
228,240,66010,6,0,P|216:296|208:340,1,90
300,304,66310,1,2,0:2:0:0:
136,268,66460,1,0,0:0:0:0:
288,88,66610,6,0,P|296:132|305:176,1,90
377,112,66910,1,2,0:2:0:0:
213,148,67060,1,0,0:0:0:0:
300,304,67210,6,0,B|344:352|428:336|452:280,1,180,0|2,0:0|0:2,0:0:0:0:
484,196,67660,2,0,P|476:108|464:16,1,180
220,44,68110,1,2,0:2:0:0:
340,0,68260,1,0,0:0:0:0:
319,125,68410,6,0,P|307:214|299:303,1,180,0|2,0:0|0:2,0:0:0:0:
64,360,68860,2,0,P|75:270|83:181,1,180
92,88,69310,1,2,0:2:0:0:
8,128,69460,1,0,0:0:0:0:
160,272,69610,6,0,P|248:248|360:228,1,180,0|2,0:0|0:2,0:0:0:0:
250,46,70060,2,0,P|162:36|92:88,1,180
52,208,70510,1,2,0:2:0:0:
160,272,70660,1,0,0:0:0:0:
208,155,70810,6,0,P|246:132|290:123,1,90
366,256,71110,2,0,P|327:233|284:224,1,90,2|0,0:2|0:0,0:0:0:0:
212,356,71410,1,2,0:2:0:0:
250,332,71485,1,0,0:0:0:0:
294,323,71560,1,0,0:0:0:0:
452,264,71710,1,2,3:2:0:0:
404,100,71860,1,0,0:2:0:0:
284,224,72010,5,4,0:0:0:0:
284,224,73210,2,0,B|240:224|196:236|196:236|156:196|88:208,2,202.500007724762,2|0|0,0:0|0:0|0:0,0:0:0:0:
128,292,74410,2,0,P|32:272|52:124,1,270.000010299683,2|0,0:0|0:0,0:0:0:0:
164,52,75310,6,0,P|133:42|92:24,1,67.5000025749208,0|2,0:0|0:0,0:0:0:0:
45,127,75610,1,0,0:0:0:0:
172,188,75760,2,0,B|240:184|304:172|376:148,1,202.500007724762
456,104,76510,1,0,0:0:0:0:
392,240,76810,5,2,0:0:0:0:
252,292,77410,1,0,0:0:0:0:
104,280,78010,2,0,P|96:172|116:80,2,202.500007724762,2|0|0,0:0|0:0|0:0,0:0:0:0:
204,368,79210,2,0,B|304:288|372:392|468:312,1,270.000010299683,2|0,0:0|0:0,0:0:0:0:
408,108,80110,2,0,P|416:156|432:192,1,67.5000025749208,0|2,0:0|0:0,0:0:0:0:
492,124,80410,5,0,3:0:0:0:
464,40,80560,1,0,3:0:0:0:
376,24,80710,1,0,3:0:0:0:
320,92,80860,1,0,3:0:0:0:
279,203,81010,5,0,3:0:0:0:
368,188,81160,1,0,3:0:0:0:
408,108,81310,1,0,3:0:0:0:
376,24,81460,1,0,3:0:0:0:
204,44,81610,6,0,P|224:120|284:208,1,180,4|2,3:2|3:2,0:0:0:0:
356,256,82060,1,0,0:0:0:0:
364,164,82210,1,0,3:0:0:0:
200,256,82360,1,0,0:0:0:0:
107,92,82510,2,0,P|66:75|21:71,1,90,2|0,3:2|0:0,0:0:0:0:
21,280,82810,6,0,L|200:256,1,180,0|2,3:0|3:2,0:0:0:0:
304,168,83260,1,0,0:0:0:0:
176,124,83410,1,0,3:0:0:0:
200,256,83560,1,0,0:0:0:0:
264,72,83710,2,0,P|208:52|168:24,1,90,2|0,3:2|0:0,0:0:0:0:
304,168,84010,6,0,B|344:120|412:104|472:128,1,180,0|2,3:0|3:2,0:0:0:0:
444,216,84460,1,0,0:0:0:0:
280,256,84610,2,0,P|204:236|168:224,1,90,0|0,3:0|0:0,0:0:0:0:
256,56,84910,2,0,P|299:43|342:32,1,90,2|0,3:2|0:0,0:0:0:0:
444,216,85210,5,0,3:0:0:0:
380,152,85360,1,0,0:0:0:0:
467,126,85510,1,2,3:2:0:0:
364,336,85660,1,0,0:0:0:0:
280,296,85810,1,0,3:0:0:0:
356,244,85960,1,0,0:0:0:0:
440,284,86110,2,0,P|448:356|456:388,1,90,2|0,3:2|0:0,0:0:0:0:
272,204,86410,6,0,P|316:160|300:32,1,180,0|2,3:0|3:2,0:0:0:0:
136,4,86860,1,0,0:0:0:0:
76,76,87010,2,0,P|84:148|84:188,1,90,0|0,3:0|0:0,0:0:0:0:
88,296,87310,1,2,3:2:0:0:
4,204,87460,1,0,0:0:0:0:
168,116,87610,6,0,B|224:88|292:104|336:152,1,180,0|2,3:0|3:2,0:0:0:0:
252,328,88060,2,0,B|196:356|128:340|88:296,1,180,0|0,0:0|3:0,0:0:0:0:
76,168,88510,2,0,P|80:112|88:68,1,90,2|0,3:2|0:0,0:0:0:0:
160,24,88810,5,0,3:0:0:0:
256,116,88960,1,2,3:2:0:0:
158,205,89110,2,0,P|160:160|167:115,1,90,0|0,3:0|3:0,0:0:0:0:
345,268,89410,2,0,P|352:223|354:179,1,90,2|0,3:2|3:0,0:0:0:0:
420,324,89710,1,0,3:0:0:0:
435,143,89860,6,0,P|364:92|283:121,1,180,6|0,3:2|0:0,0:0:0:0:
128,256,90310,1,2,3:2:0:0:
272,308,90460,1,2,3:2:0:0:
354,179,90610,1,2,3:2:0:0:
284,122,90760,5,0,3:0:0:0:
208,256,90910,1,0,3:0:0:0:
352,308,91060,1,0,3:0:0:0:
200,160,91210,5,6,0:0:0:0:
200,160,91360,2,0,P|88:176|20:180,1,180,0|0,3:0|0:0,0:0:0:0:
32,304,91810,1,2,3:2:0:0:
148,348,91960,2,0,B|212:372|280:340|288:276,2,180,0|2|0,3:0|3:2|3:0,0:0:0:0:
112,264,92710,5,0,0:0:0:0:
200,160,92860,2,0,L|400:176,1,180,2|0,3:2|3:0,0:0:0:0:
412,8,93310,1,2,3:2:0:0:
463,83,93460,2,0,L|456:136,1,45
379,174,93610,5,6,0:0:0:0:
312,68,93760,2,0,B|256:32|184:44|144:96,2,180,0|2|0,0:0|0:0|0:0,0:0:0:0:
296,216,94510,6,0,P|288:288|288:336,1,90,2|0,3:2|0:0,0:0:0:0:
80,208,94810,1,0,3:0:0:0:
152,148,94960,1,0,0:0:0:0:
164,240,95110,2,0,P|170:284|174:329,1,90,2|0,3:2|0:0,0:0:0:0:
331,124,95410,6,0,P|287:130|242:134,1,90,0|0,3:0|0:0,0:0:0:0:
300,24,95710,2,0,P|344:30|389:34,1,90,2|0,3:2|0:0,0:0:0:0:
152,148,96010,1,4,0:0:0:0:
