osu file format v14

[General]
AudioFilename: audio.mp3
AudioLeadIn: 0
PreviewTime: 30580
Countdown: 0
SampleSet: Normal
StackLeniency: 0.7
Mode: 1
LetterboxInBreaks: 0
WidescreenStoryboard: 1

[Editor]
Bookmarks: 30559,60559,75570,90559
DistanceSpacing: 0.8
BeatDivisor: 4
GridSize: 16
TimelineZoom: 1.9

[Metadata]
Title:Magus Night
TitleUnicode:メイガスナイト
Artist:Akiyama Uni
ArtistUnicode:あきやまうに
Creator:CallMeLyra
Version:Muzukashii
Source:東方心綺楼 ~ Hopeless Masquerade.
Tags:instrumental jazz ragtime violin marisa kirisame 霧雨 魔理沙 th13.5 Twilight Frontier Tasofro 黄昏フロンティア U2 jun ZUN 東方project touhou shinkirou team shanghai alice human village 人間の里 ningen no sato video game
BeatmapID:2678037
BeatmapSetID:1263550

[Difficulty]
HPDrainRate:6
CircleSize:5
OverallDifficulty:5
ApproachRate:5
SliderMultiplier:2.8
SliderTickRate:1

[Events]
//Background and Video events
0,0,"Marisa Night.jpg",0,120
//Break Periods
//Storyboard Layer 0 (Background)
//Storyboard Layer 1 (Fail)
//Storyboard Layer 2 (Pass)
//Storyboard Layer 3 (Foreground)
//Storyboard Layer 4 (Overlay)
//Storyboard Sound Samples

[TimingPoints]
578,468.75,4,1,0,60,1,0
578,-200,4,1,0,60,0,0
90578,-200,4,1,0,70,0,1
119640,-200,4,1,0,70,0,0

[HitObjects]
256,192,578,5,12,0:0:0:0:
256,192,1515,1,8,0:0:0:0:
256,192,2453,1,0,0:0:0:0:
256,192,3390,1,0,0:0:0:0:
256,192,4562,1,8,0:0:0:0:
256,192,5265,1,0,0:0:0:0:
256,192,6203,1,12,0:0:0:0:
256,192,6554,1,4,0:0:0:0:
256,192,6906,1,4,0:0:0:0:
256,192,7140,1,4,0:0:0:0:
256,192,8078,1,4,0:0:0:0:
256,192,8312,1,8,0:0:0:0:
256,192,9249,1,8,0:0:0:0:
256,192,9953,1,0,0:0:0:0:
256,192,10890,1,0,0:0:0:0:
256,192,12062,1,8,0:0:0:0:
256,192,12999,1,0,0:0:0:0:
256,192,13703,1,12,0:0:0:0:
256,192,14054,1,4,0:0:0:0:
256,192,14406,1,4,0:0:0:0:
256,192,14640,1,4,0:0:0:0:
256,192,15343,1,0,0:0:0:0:
256,192,15578,5,12,0:0:0:0:
256,192,15812,1,8,0:0:0:0:
256,192,15929,1,8,0:0:0:0:
256,192,16046,1,8,0:0:0:0:
256,192,16281,1,0,0:0:0:0:
256,192,16515,1,0,0:0:0:0:
256,192,16749,1,0,0:0:0:0:
256,192,16867,1,0,0:0:0:0:
256,192,16984,1,0,0:0:0:0:
256,192,17218,1,0,0:0:0:0:
256,192,17453,1,8,0:0:0:0:
256,192,17804,1,0,0:0:0:0:
256,192,18038,1,8,0:0:0:0:
256,192,18273,1,0,0:0:0:0:
256,192,18390,1,8,0:0:0:0:
256,192,18624,1,8,0:0:0:0:
256,192,18859,1,0,0:0:0:0:
256,192,19328,1,8,0:0:0:0:
256,192,19679,1,8,0:0:0:0:
256,192,19913,1,8,0:0:0:0:
256,192,20148,1,0,0:0:0:0:
256,192,20265,1,8,0:0:0:0:
256,192,20499,1,8,0:0:0:0:
256,192,20734,1,0,0:0:0:0:
256,192,20968,1,0,0:0:0:0:
256,192,21203,1,0,0:0:0:0:
256,192,21671,1,0,0:0:0:0:
256,192,22140,1,8,0:0:0:0:
256,192,22374,1,0,0:0:0:0:
256,192,22609,1,0,0:0:0:0:
256,192,22843,1,0,0:0:0:0:
256,192,23078,1,8,0:0:0:0:
256,192,23312,1,8,0:0:0:0:
256,192,23429,1,8,0:0:0:0:
256,192,23546,1,8,0:0:0:0:
256,192,23781,1,0,0:0:0:0:
256,192,24015,1,8,0:0:0:0:
256,192,24249,1,0,0:0:0:0:
256,192,24367,1,0,0:0:0:0:
256,192,24484,1,0,0:0:0:0:
256,192,24718,1,8,0:0:0:0:
256,192,24953,1,8,0:0:0:0:
256,192,25187,1,8,0:0:0:0:
256,192,25421,1,0,0:0:0:0:
256,192,25890,1,0,0:0:0:0:
256,192,26124,1,8,0:0:0:0:
256,192,26359,1,0,0:0:0:0:
256,192,26593,1,0,0:0:0:0:
256,192,26828,1,8,0:0:0:0:
256,192,27062,1,8,0:0:0:0:
256,192,27179,1,8,0:0:0:0:
256,192,27296,1,8,0:0:0:0:
256,192,27531,1,8,0:0:0:0:
256,192,27765,1,0,0:0:0:0:
256,192,27999,1,0,0:0:0:0:
256,192,28117,1,0,0:0:0:0:
256,192,28234,1,0,0:0:0:0:
256,192,28468,1,8,0:0:0:0:
256,192,28703,1,0,0:0:0:0:
256,192,29171,1,0,0:0:0:0:
256,192,29406,1,0,0:0:0:0:
256,192,29640,1,12,0:0:0:0:
256,192,29874,1,0,0:0:0:0:
256,192,30109,1,0,0:0:0:0:
256,192,30578,5,12,0:0:0:0:
256,192,30812,1,8,0:0:0:0:
256,192,30929,1,8,0:0:0:0:
256,192,31046,1,8,0:0:0:0:
256,192,31281,1,0,0:0:0:0:
256,192,31515,1,0,0:0:0:0:
256,192,31749,1,0,0:0:0:0:
256,192,31867,1,0,0:0:0:0:
256,192,31984,1,0,0:0:0:0:
256,192,32218,1,0,0:0:0:0:
256,192,32453,1,8,0:0:0:0:
256,192,32804,1,0,0:0:0:0:
256,192,33038,1,8,0:0:0:0:
256,192,33273,1,0,0:0:0:0:
256,192,33390,1,8,0:0:0:0:
256,192,33624,1,8,0:0:0:0:
256,192,33859,1,0,0:0:0:0:
256,192,34328,1,8,0:0:0:0:
256,192,34679,1,8,0:0:0:0:
256,192,34913,1,8,0:0:0:0:
256,192,35148,1,0,0:0:0:0:
256,192,35265,1,8,0:0:0:0:
256,192,35499,1,8,0:0:0:0:
256,192,35734,1,0,0:0:0:0:
256,192,35851,1,0,0:0:0:0:
256,192,35968,1,0,0:0:0:0:
256,192,36203,1,0,0:0:0:0:
256,192,36671,1,0,0:0:0:0:
256,192,36906,1,0,0:0:0:0:
256,192,37140,1,8,0:0:0:0:
256,192,37374,1,0,0:0:0:0:
256,192,37609,1,0,0:0:0:0:
256,192,37843,1,0,0:0:0:0:
256,192,38078,1,8,0:0:0:0:
256,192,38312,1,8,0:0:0:0:
256,192,38429,1,8,0:0:0:0:
256,192,38546,1,8,0:0:0:0:
256,192,38781,1,0,0:0:0:0:
256,192,39015,1,8,0:0:0:0:
256,192,39249,1,0,0:0:0:0:
256,192,39367,1,0,0:0:0:0:
256,192,39484,1,0,0:0:0:0:
256,192,39718,1,8,0:0:0:0:
256,192,39953,1,8,0:0:0:0:
256,192,40187,1,8,0:0:0:0:
256,192,40421,1,0,0:0:0:0:
256,192,40890,1,0,0:0:0:0:
256,192,41124,1,8,0:0:0:0:
256,192,41359,1,0,0:0:0:0:
256,192,41593,1,0,0:0:0:0:
256,192,41828,1,8,0:0:0:0:
256,192,42062,1,8,0:0:0:0:
256,192,42179,1,8,0:0:0:0:
256,192,42296,1,8,0:0:0:0:
256,192,42531,1,8,0:0:0:0:
256,192,42765,1,0,0:0:0:0:
256,192,42999,1,0,0:0:0:0:
256,192,43117,1,0,0:0:0:0:
256,192,43234,1,0,0:0:0:0:
256,192,43468,1,8,0:0:0:0:
256,192,43703,1,0,0:0:0:0:
256,192,44171,1,0,0:0:0:0:
256,192,44406,1,0,0:0:0:0:
256,192,44640,1,12,0:0:0:0:
256,192,44874,1,0,0:0:0:0:
256,192,45109,1,8,0:0:0:0:
256,192,45226,1,8,0:0:0:0:
256,192,45343,1,8,0:0:0:0:
256,192,45578,5,12,0:0:0:0:
256,192,46515,1,0,0:0:0:0:
256,192,47453,1,8,0:0:0:0:
256,192,48390,1,8,0:0:0:0:
256,192,49093,1,8,0:0:0:0:
256,192,50265,1,0,0:0:0:0:
256,192,50968,1,0,0:0:0:0:
256,192,51320,1,0,0:0:0:0:
256,192,51437,1,0,0:0:0:0:
256,192,51554,1,0,0:0:0:0:
256,192,51788,1,8,0:0:0:0:
256,192,51906,1,0,0:0:0:0:
256,192,52140,1,12,0:0:0:0:
256,192,52843,1,8,0:0:0:0:
256,192,53078,1,4,0:0:0:0:
256,192,53781,1,0,0:0:0:0:
256,192,53898,1,0,0:0:0:0:
256,192,54249,1,8,0:0:0:0:
256,192,54953,1,8,0:0:0:0:
256,192,55890,1,8,0:0:0:0:
256,192,56593,1,8,0:0:0:0:
256,192,57531,1,0,0:0:0:0:
256,192,57648,1,0,0:0:0:0:
256,192,57999,1,8,0:0:0:0:
256,192,58468,1,0,0:0:0:0:
256,192,58820,1,0,0:0:0:0:
256,192,58937,1,0,0:0:0:0:
256,192,59054,1,0,0:0:0:0:
256,192,59288,1,8,0:0:0:0:
256,192,59406,1,0,0:0:0:0:
256,192,59640,1,12,0:0:0:0:
256,192,60343,1,8,0:0:0:0:
256,192,60578,5,4,0:0:0:0:
256,192,60812,1,8,0:0:0:0:
256,192,61046,1,0,0:0:0:0:
256,192,61281,1,8,0:0:0:0:
256,192,61398,1,0,0:0:0:0:
256,192,61632,1,8,0:0:0:0:
256,192,61867,1,0,0:0:0:0:
256,192,62101,1,8,0:0:0:0:
256,192,62335,1,0,0:0:0:0:
256,192,62453,1,0,0:0:0:0:
256,192,62687,1,8,0:0:0:0:
256,192,62921,1,0,0:0:0:0:
256,192,63156,1,0,0:0:0:0:
256,192,63273,1,0,0:0:0:0:
256,192,63742,1,0,0:0:0:0:
256,192,63976,1,8,0:0:0:0:
256,192,64210,1,0,0:0:0:0:
256,192,64328,1,8,0:0:0:0:
256,192,64562,1,8,0:0:0:0:
256,192,64796,1,0,0:0:0:0:
256,192,65031,1,8,0:0:0:0:
256,192,65148,1,0,0:0:0:0:
256,192,65382,1,8,0:0:0:0:
256,192,65617,1,0,0:0:0:0:
256,192,65851,1,8,0:0:0:0:
256,192,66085,1,0,0:0:0:0:
256,192,66203,1,0,0:0:0:0:
256,192,66437,1,8,0:0:0:0:
256,192,66671,1,0,0:0:0:0:
256,192,66906,1,0,0:0:0:0:
256,192,67023,1,0,0:0:0:0:
256,192,67492,1,0,0:0:0:0:
256,192,67726,1,8,0:0:0:0:
256,192,67960,1,0,0:0:0:0:
256,192,68078,1,8,0:0:0:0:
256,192,68312,1,8,0:0:0:0:
256,192,68546,1,0,0:0:0:0:
256,192,68781,1,8,0:0:0:0:
256,192,68898,1,0,0:0:0:0:
256,192,69132,1,8,0:0:0:0:
256,192,69367,1,0,0:0:0:0:
256,192,69601,1,8,0:0:0:0:
256,192,69835,1,8,0:0:0:0:
256,192,69953,1,8,0:0:0:0:
256,192,70187,1,8,0:0:0:0:
256,192,70421,1,0,0:0:0:0:
256,192,70656,1,0,0:0:0:0:
256,192,70773,1,0,0:0:0:0:
256,192,71242,1,0,0:0:0:0:
256,192,71476,1,8,0:0:0:0:
256,192,71710,1,0,0:0:0:0:
256,192,71828,1,8,0:0:0:0:
256,192,72062,1,8,0:0:0:0:
256,192,72296,1,0,0:0:0:0:
256,192,72531,1,8,0:0:0:0:
256,192,72648,1,0,0:0:0:0:
256,192,72882,1,8,0:0:0:0:
256,192,73117,1,0,0:0:0:0:
256,192,73351,1,8,0:0:0:0:
256,192,73585,1,0,0:0:0:0:
256,192,73703,1,0,0:0:0:0:
256,192,73937,1,0,0:0:0:0:
256,192,74171,1,0,0:0:0:0:
256,192,74406,1,8,0:0:0:0:
256,192,74523,1,0,0:0:0:0:
256,192,74992,1,0,0:0:0:0:
256,192,75226,1,8,0:0:0:0:
256,192,75343,1,0,0:0:0:0:
256,192,75578,5,12,0:0:0:0:
256,192,75812,1,8,0:0:0:0:
256,192,75929,1,8,0:0:0:0:
256,192,76046,1,8,0:0:0:0:
256,192,76281,1,0,0:0:0:0:
256,192,76515,1,0,0:0:0:0:
256,192,76749,1,0,0:0:0:0:
256,192,76867,1,0,0:0:0:0:
256,192,76984,1,0,0:0:0:0:
256,192,77218,1,0,0:0:0:0:
256,192,77453,1,8,0:0:0:0:
256,192,77804,1,0,0:0:0:0:
256,192,78038,1,8,0:0:0:0:
256,192,78273,1,0,0:0:0:0:
256,192,78390,1,8,0:0:0:0:
256,192,78624,1,8,0:0:0:0:
256,192,78859,1,0,0:0:0:0:
256,192,79328,1,8,0:0:0:0:
256,192,79679,1,8,0:0:0:0:
256,192,79913,1,8,0:0:0:0:
256,192,80148,1,0,0:0:0:0:
256,192,80265,1,8,0:0:0:0:
256,192,80499,1,8,0:0:0:0:
256,192,80734,1,0,0:0:0:0:
256,192,80851,1,0,0:0:0:0:
256,192,80968,1,0,0:0:0:0:
256,192,81203,1,0,0:0:0:0:
256,192,81671,1,0,0:0:0:0:
256,192,81906,1,0,0:0:0:0:
256,192,82140,1,8,0:0:0:0:
256,192,82257,1,0,0:0:0:0:
256,192,82492,1,0,0:0:0:0:
256,192,82726,1,0,0:0:0:0:
256,192,82843,1,0,0:0:0:0:
256,192,83078,1,8,0:0:0:0:
256,192,83312,1,8,0:0:0:0:
256,192,83429,1,8,0:0:0:0:
256,192,83546,1,8,0:0:0:0:
256,192,83781,1,0,0:0:0:0:
256,192,84015,1,8,0:0:0:0:
256,192,84249,1,0,0:0:0:0:
256,192,84367,1,0,0:0:0:0:
256,192,84484,1,0,0:0:0:0:
256,192,84718,1,8,0:0:0:0:
256,192,84953,1,8,0:0:0:0:
256,192,85187,1,8,0:0:0:0:
256,192,85421,1,0,0:0:0:0:
256,192,85890,1,0,0:0:0:0:
256,192,86124,1,8,0:0:0:0:
256,192,86359,1,0,0:0:0:0:
256,192,86593,1,0,0:0:0:0:
256,192,86828,1,8,0:0:0:0:
256,192,87062,1,8,0:0:0:0:
256,192,87179,1,8,0:0:0:0:
256,192,87296,1,8,0:0:0:0:
256,192,87531,1,8,0:0:0:0:
256,192,87765,1,0,0:0:0:0:
256,192,87882,1,8,0:0:0:0:
256,192,88117,1,8,0:0:0:0:
256,192,88351,1,0,0:0:0:0:
256,192,88468,1,8,0:0:0:0:
256,192,88703,1,0,0:0:0:0:
256,192,88937,1,8,0:0:0:0:
256,192,89171,1,0,0:0:0:0:
256,192,89406,1,8,0:0:0:0:
256,192,89523,1,0,0:0:0:0:
256,192,89874,1,0,0:0:0:0:
256,192,89992,1,0,0:0:0:0:
256,192,90109,1,0,0:0:0:0:
256,192,90343,1,8,0:0:0:0:
256,192,90578,5,4,0:0:0:0:
256,192,91046,1,0,0:0:0:0:
256,192,91163,1,0,0:0:0:0:
256,192,91398,1,0,0:0:0:0:
256,192,91632,1,0,0:0:0:0:
256,192,91867,1,0,0:0:0:0:
256,192,91984,1,0,0:0:0:0:
256,192,92218,1,0,0:0:0:0:
256,192,92453,1,8,0:0:0:0:
256,192,92921,1,8,0:0:0:0:
256,192,93038,1,8,0:0:0:0:
256,192,93273,1,8,0:0:0:0:
256,192,93507,1,8,0:0:0:0:
256,192,93742,1,8,0:0:0:0:
256,192,93859,1,8,0:0:0:0:
256,192,94093,1,8,0:0:0:0:
256,192,94328,1,0,0:0:0:0:
256,192,94796,1,0,0:0:0:0:
256,192,94913,1,0,0:0:0:0:
256,192,95148,1,0,0:0:0:0:
256,192,95382,1,0,0:0:0:0:
256,192,95617,1,0,0:0:0:0:
256,192,95734,1,0,0:0:0:0:
256,192,95968,1,8,0:0:0:0:
256,192,96203,1,8,0:0:0:0:
256,192,96671,1,8,0:0:0:0:
256,192,96788,1,8,0:0:0:0:
256,192,97023,1,8,0:0:0:0:
256,192,97257,1,8,0:0:0:0:
256,192,97492,1,8,0:0:0:0:
256,192,97609,1,8,0:0:0:0:
256,192,97843,1,0,0:0:0:0:
256,192,98078,1,0,0:0:0:0:
256,192,98546,1,0,0:0:0:0:
256,192,98663,1,0,0:0:0:0:
256,192,98898,1,0,0:0:0:0:
256,192,99132,1,0,0:0:0:0:
256,192,99367,1,0,0:0:0:0:
256,192,99484,1,0,0:0:0:0:
256,192,99718,1,0,0:0:0:0:
256,192,99953,1,8,0:0:0:0:
256,192,100421,1,8,0:0:0:0:
256,192,100538,1,8,0:0:0:0:
256,192,100773,1,8,0:0:0:0:
256,192,101007,1,8,0:0:0:0:
256,192,101242,1,8,0:0:0:0:
256,192,101359,1,8,0:0:0:0:
256,192,101593,1,8,0:0:0:0:
256,192,101828,1,0,0:0:0:0:
256,192,102296,1,0,0:0:0:0:
256,192,102413,1,0,0:0:0:0:
256,192,102648,1,0,0:0:0:0:
256,192,102882,1,0,0:0:0:0:
256,192,103117,1,0,0:0:0:0:
256,192,103234,1,0,0:0:0:0:
256,192,103468,1,0,0:0:0:0:
256,192,103703,1,12,0:0:0:0:
256,192,104171,1,8,0:0:0:0:
256,192,104288,1,8,0:0:0:0:
256,192,104523,1,8,0:0:0:0:
256,192,104757,1,8,0:0:0:0:
256,192,104992,1,8,0:0:0:0:
256,192,105109,1,8,0:0:0:0:
256,192,105343,1,0,0:0:0:0:
256,192,105578,1,12,0:0:0:0:
256,192,106046,1,0,0:0:0:0:
256,192,106281,1,8,0:0:0:0:
256,192,106398,1,8,0:0:0:0:
256,192,106632,1,0,0:0:0:0:
256,192,106867,1,8,0:0:0:0:
256,192,107101,1,0,0:0:0:0:
256,192,107335,1,8,0:0:0:0:
256,192,107453,1,8,0:0:0:0:
256,192,107570,1,8,0:0:0:0:
256,192,107804,1,8,0:0:0:0:
256,192,107921,1,8,0:0:0:0:
256,192,108038,1,8,0:0:0:0:
256,192,108273,1,0,0:0:0:0:
256,192,108507,1,8,0:0:0:0:
256,192,108742,1,0,0:0:0:0:
256,192,108859,1,8,0:0:0:0:
256,192,109093,1,0,0:0:0:0:
256,192,109328,1,0,0:0:0:0:
256,192,109796,1,0,0:0:0:0:
256,192,110031,1,8,0:0:0:0:
256,192,110148,1,8,0:0:0:0:
256,192,110382,1,8,0:0:0:0:
256,192,110617,1,0,0:0:0:0:
256,192,110734,1,8,0:0:0:0:
256,192,110968,1,8,0:0:0:0:
256,192,111203,1,8,0:0:0:0:
256,192,111671,1,8,0:0:0:0:
256,192,111788,1,0,0:0:0:0:
256,192,112023,1,8,0:0:0:0:
256,192,112257,1,8,0:0:0:0:
256,192,112374,1,8,0:0:0:0:
256,192,112609,1,0,0:0:0:0:
256,192,112843,1,8,0:0:0:0:
256,192,113078,1,0,0:0:0:0:
256,192,113546,1,0,0:0:0:0:
256,192,113663,1,8,0:0:0:0:
256,192,113898,1,0,0:0:0:0:
256,192,114132,1,8,0:0:0:0:
256,192,114249,1,0,0:0:0:0:
256,192,114484,1,8,0:0:0:0:
256,192,114601,1,8,0:0:0:0:
256,192,114718,1,8,0:0:0:0:
256,192,114953,1,0,0:0:0:0:
256,192,115187,1,0,0:0:0:0:
256,192,115304,1,0,0:0:0:0:
256,192,115421,1,0,0:0:0:0:
256,192,115656,1,8,0:0:0:0:
256,192,115773,1,0,0:0:0:0:
256,192,116007,1,8,0:0:0:0:
256,192,116242,1,0,0:0:0:0:
256,192,116359,1,8,0:0:0:0:
256,192,116593,1,8,0:0:0:0:
256,192,116710,1,8,0:0:0:0:
256,192,116828,1,8,0:0:0:0:
256,192,117296,1,0,0:0:0:0:
256,192,117531,1,8,0:0:0:0:
256,192,117648,1,0,0:0:0:0:
256,192,117882,1,8,0:0:0:0:
256,192,117999,1,0,0:0:0:0:
256,192,118234,1,0,0:0:0:0:
256,192,118351,1,0,0:0:0:0:
256,192,118468,1,0,0:0:0:0:
256,192,118703,1,12,0:0:0:0:
256,192,118937,1,0,0:0:0:0:
256,192,119054,1,8,0:0:0:0:
256,192,119288,1,0,0:0:0:0:
256,192,119406,1,8,0:0:0:0:
256,192,119640,1,12,0:0:0:0:
256,192,120578,5,12,0:0:0:0:
