osu file format v14

[General]
AudioFilename: audio.mp3
AudioLeadIn: 0
PreviewTime: 30580
Countdown: 0
SampleSet: Normal
StackLeniency: 0.7
Mode: 1
LetterboxInBreaks: 0
WidescreenStoryboard: 0

[Editor]
Bookmarks: 30559,60559,75570,90559
DistanceSpacing: 0.8
BeatDivisor: 12
GridSize: 16
TimelineZoom: 2

[Metadata]
Title:Magus Night
TitleUnicode:メイガスナイト
Artist:Akiyama Uni
ArtistUnicode:あきやまうに
Creator:CallMeLyra
Version:Inner Oni
Source:東方心綺楼 ~ Hopeless Masquerade.
Tags:instrumental jazz ragtime violin marisa kirisame 霧雨 魔理沙 th13.5 Twilight Frontier Tasofro 黄昏フロンティア U2 jun ZUN 東方project touhou shinkirou team shanghai alice human village 人間の里 ningen no sato video game
BeatmapID:2626363
BeatmapSetID:1263550

[Difficulty]
HPDrainRate:6
CircleSize:5
OverallDifficulty:6
ApproachRate:5
SliderMultiplier:2.8
SliderTickRate:1

[Events]
//Background and Video events
0,0,"Marisa Night.jpg",0,120
//Break Periods
//Storyboard Layer 0 (Background)
//Storyboard Layer 1 (Fail)
//Storyboard Layer 2 (Pass)
//Storyboard Layer 3 (Foreground)
//Storyboard Layer 4 (Overlay)
//Storyboard Sound Samples

[TimingPoints]
578,468.75,4,1,0,60,1,0
578,-235.294117647059,4,1,0,60,0,0
6144,-153.846153846154,4,1,0,60,0,0
6495,-172.413793103448,4,1,0,60,0,0
6847,-196.078431372549,4,1,0,60,0,0
7081,-208.333333333333,4,1,0,60,0,0
7316,-222.222222222222,4,1,0,60,0,0
7433,-227.272727272727,4,1,0,60,0,0
7667,-232.558139534884,4,1,0,60,0,0
7785,-238.095238095238,4,1,0,60,0,0
8019,-235.294117647059,4,1,0,60,0,0
13644,-142.857142857143,4,1,0,60,0,0
13995,-161.290322580645,4,1,0,60,0,0
14347,-175.438596491228,4,1,0,60,0,0
14581,-192.307692307692,4,1,0,60,0,0
15050,-188.679245283019,4,1,0,60,0,0
15226,-178.571428571429,4,1,0,60,0,0
15519,-166.666666666667,4,1,0,60,0,0
44699,-169.491525423729,4,1,0,60,0,0
44816,-170.940170940171,4,1,0,60,0,0
44933,-172.413793103448,4,1,0,60,0,0
45050,-173.913043478261,4,1,0,60,0,0
45167,-175.438596491228,4,1,0,60,0,0
45285,-176.991150442478,4,1,0,60,0,0
45519,-185.185185185185,4,1,0,60,0,0
45695,-238.095238095238,4,1,0,60,0,0
50910,-227.272727272727,4,1,0,60,0,0
51203,-222.222222222222,4,1,0,60,0,0
51378,-217.391304347826,4,1,0,60,0,0
51495,-212.765957446809,4,1,0,60,0,0
51730,-200,4,1,0,60,0,0
51847,-196.078431372549,4,1,0,60,0,0
52081,-188.679245283019,4,1,0,60,0,0
52316,-192.307692307692,4,1,0,60,0,0
52433,-196.078431372549,4,1,0,60,0,0
52667,-200,4,1,0,60,0,0
52785,-204.081632653061,4,1,0,60,0,0
53136,-238.095238095238,4,1,0,60,0,0
58410,-227.272727272727,4,1,0,60,0,0
58703,-222.222222222222,4,1,0,60,0,0
58878,-217.391304347826,4,1,0,60,0,0
58995,-212.765957446809,4,1,0,60,0,0
59230,-200,4,1,0,60,0,0
59347,-196.078431372549,4,1,0,60,0,0
59581,-188.679245283019,4,1,0,60,0,0
59816,-192.307692307692,4,1,0,60,0,0
59933,-196.078431372549,4,1,0,60,0,0
60167,-200,4,1,0,60,0,0
60285,-204.081632653061,4,1,0,60,0,0
60519,-166.666666666667,4,1,0,60,0,0
89757,-133.333333333333,4,1,0,60,0,0
89992,-137.931034482759,4,1,0,60,0,0
90226,-142.857142857143,4,1,0,60,0,0
90578,-153.846153846154,4,1,0,70,0,1
118234,-151.515151515152,4,1,0,70,0,1
118312,-150.375939849624,4,1,0,70,0,1
118390,-149.253731343284,4,1,0,70,0,1
118468,-148.148148148148,4,1,0,70,0,1
118546,-147.058823529412,4,1,0,70,0,1
118624,-145.985401459854,4,1,0,70,0,1
118703,-144.927536231884,4,1,0,70,0,1
118937,-156.25,4,1,0,70,0,1
119054,-161.290322580645,4,1,0,70,0,1
119288,-172.413793103448,4,1,0,70,0,1
119406,-178.571428571429,4,1,0,70,0,1
119640,-185.185185185185,4,1,0,70,0,0
120519,-238.095238095238,4,1,0,70,0,0

[HitObjects]
256,192,578,5,12,0:0:0:0:
256,192,1515,1,8,0:0:0:0:
256,192,2453,1,0,0:0:0:0:
256,192,3390,1,0,0:0:0:0:
256,192,4562,1,8,0:0:0:0:
256,192,5265,1,0,0:0:0:0:
256,192,6203,1,12,0:0:0:0:
256,192,6554,1,4,0:0:0:0:
256,192,6906,1,4,0:0:0:0:
256,192,7140,1,4,0:0:0:0:
256,192,7374,1,8,0:0:0:0:
256,192,7492,1,0,0:0:0:0:
256,192,7726,1,0,0:0:0:0:
256,192,7843,1,0,0:0:0:0:
256,192,8078,1,4,0:0:0:0:
256,192,8312,1,8,0:0:0:0:
256,192,9249,1,8,0:0:0:0:
256,192,9953,1,0,0:0:0:0:
256,192,10890,1,0,0:0:0:0:
256,192,12062,1,8,0:0:0:0:
256,192,12999,1,0,0:0:0:0:
256,192,13703,1,12,0:0:0:0:
256,192,14054,1,4,0:0:0:0:
256,192,14406,1,4,0:0:0:0:
256,192,14640,1,4,0:0:0:0:
256,192,15109,1,8,0:0:0:0:
256,192,15245,1,0,0:0:0:0:
256,192,15343,1,0,0:0:0:0:
256,192,15578,5,12,0:0:0:0:
256,192,15812,1,8,0:0:0:0:
256,192,15949,1,0,0:0:0:0:
256,192,16046,1,8,0:0:0:0:
256,192,16183,1,8,0:0:0:0:
256,192,16281,1,0,0:0:0:0:
256,192,16515,1,0,0:0:0:0:
256,192,16749,1,8,0:0:0:0:
256,192,16886,1,8,0:0:0:0:
256,192,16984,1,0,0:0:0:0:
256,192,17120,1,8,0:0:0:0:
256,192,17218,1,0,0:0:0:0:
256,192,17453,1,8,0:0:0:0:
256,192,17687,1,8,0:0:0:0:
256,192,17824,1,0,0:0:0:0:
256,192,17921,1,8,0:0:0:0:
256,192,18058,1,8,0:0:0:0:
256,192,18156,1,0,0:0:0:0:
256,192,18292,1,0,0:0:0:0:
256,192,18390,1,8,0:0:0:0:
256,192,18624,1,8,0:0:0:0:
256,192,18859,1,0,0:0:0:0:
256,192,18995,1,0,0:0:0:0:
256,192,19093,1,8,0:0:0:0:
256,192,19328,1,8,0:0:0:0:
256,192,19562,1,0,0:0:0:0:
256,192,19699,1,8,0:0:0:0:
256,192,19796,1,0,0:0:0:0:
256,192,19933,1,8,0:0:0:0:
256,192,20031,1,0,0:0:0:0:
256,192,20167,1,0,0:0:0:0:
256,192,20265,1,8,0:0:0:0:
256,192,20499,1,8,0:0:0:0:
256,192,20734,1,0,0:0:0:0:
256,192,20870,1,0,0:0:0:0:
256,192,20968,1,0,0:0:0:0:
256,192,21203,1,0,0:0:0:0:
256,192,21437,1,8,0:0:0:0:
256,192,21574,1,8,0:0:0:0:
256,192,21671,1,0,0:0:0:0:
256,192,21906,1,0,0:0:0:0:
256,192,22140,1,8,0:0:0:0:
256,192,22277,1,8,0:0:0:0:
256,192,22374,1,0,0:0:0:0:
256,192,22609,1,0,0:0:0:0:
256,192,22745,1,0,0:0:0:0:
256,192,22843,1,0,0:0:0:0:
256,192,23078,1,8,0:0:0:0:
256,192,23312,1,8,0:0:0:0:
256,192,23449,1,0,0:0:0:0:
256,192,23546,1,8,0:0:0:0:
256,192,23683,1,8,0:0:0:0:
256,192,23781,1,0,0:0:0:0:
256,192,24015,1,8,0:0:0:0:
256,192,24249,1,0,0:0:0:0:
256,192,24386,1,8,0:0:0:0:
256,192,24484,1,0,0:0:0:0:
256,192,24620,1,0,0:0:0:0:
256,192,24718,1,8,0:0:0:0:
256,192,24953,1,8,0:0:0:0:
256,192,25187,1,8,0:0:0:0:
256,192,25324,1,8,0:0:0:0:
256,192,25421,1,0,0:0:0:0:
256,192,25656,1,8,0:0:0:0:
256,192,25890,1,0,0:0:0:0:
256,192,26027,1,0,0:0:0:0:
256,192,26124,1,8,0:0:0:0:
256,192,26359,1,0,0:0:0:0:
256,192,26495,1,0,0:0:0:0:
256,192,26593,1,0,0:0:0:0:
256,192,26828,1,8,0:0:0:0:
256,192,27062,1,8,0:0:0:0:
256,192,27199,1,0,0:0:0:0:
256,192,27296,1,8,0:0:0:0:
256,192,27433,1,0,0:0:0:0:
256,192,27531,1,8,0:0:0:0:
256,192,27765,1,0,0:0:0:0:
256,192,27999,1,0,0:0:0:0:
256,192,28136,1,8,0:0:0:0:
256,192,28234,1,0,0:0:0:0:
256,192,28370,1,0,0:0:0:0:
256,192,28468,1,8,0:0:0:0:
256,192,28703,1,0,0:0:0:0:
256,192,28937,1,8,0:0:0:0:
256,192,29074,1,8,0:0:0:0:
256,192,29171,1,0,0:0:0:0:
256,192,29308,1,0,0:0:0:0:
256,192,29406,1,8,0:0:0:0:
256,192,29640,1,12,0:0:0:0:
256,192,29874,1,0,0:0:0:0:
256,192,30109,1,0,0:0:0:0:
256,192,30245,1,0,0:0:0:0:
256,192,30343,1,8,0:0:0:0:
256,192,30578,5,12,0:0:0:0:
256,192,30812,1,8,0:0:0:0:
256,192,30949,1,0,0:0:0:0:
256,192,31046,1,8,0:0:0:0:
256,192,31183,1,8,0:0:0:0:
256,192,31281,1,0,0:0:0:0:
256,192,31515,1,0,0:0:0:0:
256,192,31749,1,8,0:0:0:0:
256,192,31886,1,8,0:0:0:0:
256,192,31984,1,0,0:0:0:0:
256,192,32120,1,8,0:0:0:0:
256,192,32218,1,0,0:0:0:0:
256,192,32453,1,8,0:0:0:0:
256,192,32687,1,8,0:0:0:0:
256,192,32824,1,0,0:0:0:0:
256,192,32921,1,8,0:0:0:0:
256,192,33058,1,8,0:0:0:0:
256,192,33156,1,0,0:0:0:0:
256,192,33292,1,0,0:0:0:0:
256,192,33390,1,8,0:0:0:0:
256,192,33624,1,8,0:0:0:0:
256,192,33859,1,0,0:0:0:0:
256,192,33995,1,0,0:0:0:0:
256,192,34093,1,8,0:0:0:0:
256,192,34328,1,8,0:0:0:0:
256,192,34562,1,0,0:0:0:0:
256,192,34699,1,8,0:0:0:0:
256,192,34796,1,0,0:0:0:0:
256,192,34933,1,8,0:0:0:0:
256,192,35031,1,0,0:0:0:0:
256,192,35167,1,0,0:0:0:0:
256,192,35265,1,8,0:0:0:0:
256,192,35499,1,8,0:0:0:0:
256,192,35734,1,0,0:0:0:0:
256,192,35870,1,0,0:0:0:0:
256,192,35968,1,0,0:0:0:0:
256,192,36203,1,0,0:0:0:0:
256,192,36437,1,8,0:0:0:0:
256,192,36574,1,8,0:0:0:0:
256,192,36671,1,0,0:0:0:0:
256,192,36808,1,0,0:0:0:0:
256,192,36906,1,0,0:0:0:0:
256,192,37140,1,8,0:0:0:0:
256,192,37277,1,8,0:0:0:0:
256,192,37374,1,0,0:0:0:0:
256,192,37609,1,0,0:0:0:0:
256,192,37745,1,0,0:0:0:0:
256,192,37843,1,0,0:0:0:0:
256,192,38078,1,8,0:0:0:0:
256,192,38312,1,8,0:0:0:0:
256,192,38449,1,0,0:0:0:0:
256,192,38546,1,8,0:0:0:0:
256,192,38683,1,8,0:0:0:0:
256,192,38781,1,0,0:0:0:0:
256,192,39015,1,8,0:0:0:0:
256,192,39249,1,0,0:0:0:0:
256,192,39386,1,8,0:0:0:0:
256,192,39484,1,0,0:0:0:0:
256,192,39620,1,0,0:0:0:0:
256,192,39718,1,8,0:0:0:0:
256,192,39953,1,8,0:0:0:0:
256,192,40187,1,8,0:0:0:0:
256,192,40324,1,8,0:0:0:0:
256,192,40421,1,0,0:0:0:0:
256,192,40558,1,0,0:0:0:0:
256,192,40656,1,8,0:0:0:0:
256,192,40890,1,0,0:0:0:0:
256,192,41027,1,0,0:0:0:0:
256,192,41124,1,8,0:0:0:0:
256,192,41359,1,0,0:0:0:0:
256,192,41495,1,0,0:0:0:0:
256,192,41593,1,0,0:0:0:0:
256,192,41828,1,8,0:0:0:0:
256,192,42062,1,8,0:0:0:0:
256,192,42199,1,0,0:0:0:0:
256,192,42296,1,8,0:0:0:0:
256,192,42433,1,0,0:0:0:0:
256,192,42531,1,8,0:0:0:0:
256,192,42765,1,0,0:0:0:0:
256,192,42999,1,0,0:0:0:0:
256,192,43136,1,8,0:0:0:0:
256,192,43234,1,0,0:0:0:0:
256,192,43370,1,0,0:0:0:0:
256,192,43468,1,8,0:0:0:0:
256,192,43703,1,0,0:0:0:0:
256,192,43937,1,8,0:0:0:0:
256,192,44074,1,8,0:0:0:0:
256,192,44171,1,0,0:0:0:0:
256,192,44308,1,0,0:0:0:0:
256,192,44406,1,8,0:0:0:0:
256,192,44640,1,0,0:0:0:0:
256,192,44777,1,8,0:0:0:0:
256,192,44874,1,0,0:0:0:0:
256,192,45011,1,0,0:0:0:0:
256,192,45109,1,8,0:0:0:0:
256,192,45245,1,0,0:0:0:0:
256,192,45343,1,8,0:0:0:0:
256,192,45578,5,12,0:0:0:0:
256,192,46515,1,0,0:0:0:0:
256,192,47453,1,8,0:0:0:0:
256,192,48331,1,0,0:0:0:0:
256,192,48390,1,8,0:0:0:0:
256,192,49093,1,8,0:0:0:0:
256,192,50265,1,0,0:0:0:0:
256,192,50968,1,0,0:0:0:0:
256,192,51320,1,0,0:0:0:0:
256,192,51437,1,8,0:0:0:0:
256,192,51554,1,0,0:0:0:0:
256,192,51788,1,8,0:0:0:0:
256,192,51906,1,0,0:0:0:0:
256,192,52140,1,12,0:0:0:0:
256,192,52374,1,8,0:0:0:0:
256,192,52492,1,0,0:0:0:0:
256,192,52726,1,0,0:0:0:0:
256,192,52843,1,8,0:0:0:0:
256,192,53078,1,4,0:0:0:0:
256,192,53781,1,0,0:0:0:0:
256,192,53898,1,0,0:0:0:0:
256,192,54249,1,8,0:0:0:0:
256,192,54953,1,8,0:0:0:0:
256,192,55831,1,0,0:0:0:0:
256,192,55890,1,8,0:0:0:0:
256,192,56593,1,8,0:0:0:0:
256,192,57531,1,0,0:0:0:0:
256,192,57648,1,0,0:0:0:0:
256,192,57999,1,8,0:0:0:0:
256,192,58468,1,0,0:0:0:0:
256,192,58820,1,0,0:0:0:0:
256,192,58937,1,8,0:0:0:0:
256,192,59054,1,0,0:0:0:0:
256,192,59288,1,8,0:0:0:0:
256,192,59406,1,0,0:0:0:0:
256,192,59640,1,12,0:0:0:0:
256,192,59874,1,8,0:0:0:0:
256,192,59992,1,0,0:0:0:0:
256,192,60226,1,0,0:0:0:0:
256,192,60343,1,8,0:0:0:0:
256,192,60578,5,4,0:0:0:0:
256,192,60812,1,8,0:0:0:0:
256,192,61046,1,0,0:0:0:0:
256,192,61183,1,0,0:0:0:0:
256,192,61281,1,8,0:0:0:0:
256,192,61417,1,0,0:0:0:0:
256,192,61652,1,8,0:0:0:0:
256,192,61749,1,8,0:0:0:0:
256,192,61886,1,0,0:0:0:0:
256,192,62120,1,8,0:0:0:0:
256,192,62218,1,0,0:0:0:0:
256,192,62355,1,8,0:0:0:0:
256,192,62453,1,0,0:0:0:0:
256,192,62589,1,0,0:0:0:0:
256,192,62687,1,8,0:0:0:0:
256,192,62921,1,0,0:0:0:0:
256,192,63058,1,0,0:0:0:0:
256,192,63156,1,8,0:0:0:0:
256,192,63292,1,0,0:0:0:0:
256,192,63527,1,8,0:0:0:0:
256,192,63624,1,0,0:0:0:0:
256,192,63761,1,0,0:0:0:0:
256,192,63995,1,8,0:0:0:0:
256,192,64093,1,0,0:0:0:0:
256,192,64230,1,0,0:0:0:0:
256,192,64328,1,8,0:0:0:0:
256,192,64464,1,0,0:0:0:0:
256,192,64562,1,8,0:0:0:0:
256,192,64796,1,0,0:0:0:0:
256,192,64933,1,0,0:0:0:0:
256,192,65031,1,8,0:0:0:0:
256,192,65167,1,0,0:0:0:0:
256,192,65402,1,8,0:0:0:0:
256,192,65499,1,8,0:0:0:0:
256,192,65636,1,0,0:0:0:0:
256,192,65870,1,8,0:0:0:0:
256,192,65968,1,0,0:0:0:0:
256,192,66105,1,8,0:0:0:0:
256,192,66203,1,0,0:0:0:0:
256,192,66339,1,0,0:0:0:0:
256,192,66437,1,8,0:0:0:0:
256,192,66671,1,0,0:0:0:0:
256,192,66808,1,0,0:0:0:0:
256,192,66906,1,8,0:0:0:0:
256,192,67042,1,0,0:0:0:0:
256,192,67277,1,8,0:0:0:0:
256,192,67374,1,0,0:0:0:0:
256,192,67511,1,0,0:0:0:0:
256,192,67745,1,8,0:0:0:0:
256,192,67843,1,0,0:0:0:0:
256,192,67980,1,0,0:0:0:0:
256,192,68078,1,8,0:0:0:0:
256,192,68214,1,0,0:0:0:0:
256,192,68312,1,8,0:0:0:0:
256,192,68546,1,0,0:0:0:0:
256,192,68683,1,0,0:0:0:0:
256,192,68781,1,8,0:0:0:0:
256,192,68917,1,0,0:0:0:0:
256,192,69152,1,8,0:0:0:0:
256,192,69249,1,8,0:0:0:0:
256,192,69386,1,0,0:0:0:0:
256,192,69620,1,8,0:0:0:0:
256,192,69718,1,0,0:0:0:0:
256,192,69855,1,8,0:0:0:0:
256,192,69953,1,8,0:0:0:0:
256,192,70089,1,0,0:0:0:0:
256,192,70187,1,8,0:0:0:0:
256,192,70421,1,0,0:0:0:0:
256,192,70558,1,0,0:0:0:0:
256,192,70656,1,8,0:0:0:0:
256,192,70792,1,0,0:0:0:0:
256,192,71027,1,8,0:0:0:0:
256,192,71124,1,0,0:0:0:0:
256,192,71261,1,0,0:0:0:0:
256,192,71495,1,8,0:0:0:0:
256,192,71593,1,0,0:0:0:0:
256,192,71730,1,0,0:0:0:0:
256,192,71828,1,8,0:0:0:0:
256,192,71964,1,0,0:0:0:0:
256,192,72062,1,8,0:0:0:0:
256,192,72296,1,0,0:0:0:0:
256,192,72433,1,0,0:0:0:0:
256,192,72531,1,8,0:0:0:0:
256,192,72667,1,0,0:0:0:0:
256,192,72902,1,8,0:0:0:0:
256,192,72999,1,8,0:0:0:0:
256,192,73136,1,0,0:0:0:0:
256,192,73370,1,8,0:0:0:0:
256,192,73468,1,0,0:0:0:0:
256,192,73605,1,0,0:0:0:0:
256,192,73703,1,8,0:0:0:0:
256,192,73839,1,0,0:0:0:0:
256,192,73937,1,0,0:0:0:0:
256,192,74171,1,0,0:0:0:0:
256,192,74308,1,0,0:0:0:0:
256,192,74406,1,8,0:0:0:0:
256,192,74542,1,0,0:0:0:0:
256,192,74777,1,8,0:0:0:0:
256,192,74874,1,8,0:0:0:0:
256,192,75011,1,0,0:0:0:0:
256,192,75109,1,0,0:0:0:0:
256,192,75245,1,8,0:0:0:0:
256,192,75343,1,0,0:0:0:0:
256,192,75578,5,12,0:0:0:0:
256,192,75812,1,8,0:0:0:0:
256,192,75949,1,0,0:0:0:0:
256,192,76046,1,8,0:0:0:0:
256,192,76183,1,8,0:0:0:0:
256,192,76281,1,0,0:0:0:0:
256,192,76515,1,0,0:0:0:0:
256,192,76749,1,8,0:0:0:0:
256,192,76886,1,8,0:0:0:0:
256,192,76984,1,0,0:0:0:0:
256,192,77120,1,8,0:0:0:0:
256,192,77218,1,0,0:0:0:0:
256,192,77453,1,8,0:0:0:0:
256,192,77687,1,8,0:0:0:0:
256,192,77824,1,0,0:0:0:0:
256,192,77921,1,8,0:0:0:0:
256,192,78058,1,8,0:0:0:0:
256,192,78156,1,0,0:0:0:0:
256,192,78292,1,0,0:0:0:0:
256,192,78390,1,8,0:0:0:0:
256,192,78624,1,8,0:0:0:0:
256,192,78859,1,0,0:0:0:0:
256,192,78995,1,0,0:0:0:0:
256,192,79093,1,8,0:0:0:0:
256,192,79230,1,0,0:0:0:0:
256,192,79328,1,8,0:0:0:0:
256,192,79562,1,0,0:0:0:0:
256,192,79699,1,8,0:0:0:0:
256,192,79796,1,0,0:0:0:0:
256,192,79933,1,8,0:0:0:0:
256,192,80031,1,0,0:0:0:0:
256,192,80167,1,0,0:0:0:0:
256,192,80265,1,8,0:0:0:0:
256,192,80499,1,8,0:0:0:0:
256,192,80734,1,0,0:0:0:0:
256,192,80870,1,0,0:0:0:0:
256,192,80968,1,8,0:0:0:0:
256,192,81105,1,0,0:0:0:0:
256,192,81203,1,8,0:0:0:0:
256,192,81437,1,8,0:0:0:0:
256,192,81574,1,8,0:0:0:0:
256,192,81671,1,0,0:0:0:0:
256,192,81808,1,0,0:0:0:0:
256,192,81906,1,0,0:0:0:0:
256,192,82140,1,0,0:0:0:0:
256,192,82277,1,8,0:0:0:0:
256,192,82374,1,8,0:0:0:0:
256,192,82511,1,0,0:0:0:0:
256,192,82609,1,8,0:0:0:0:
256,192,82745,1,8,0:0:0:0:
256,192,82843,1,0,0:0:0:0:
256,192,83078,1,8,0:0:0:0:
256,192,83312,1,8,0:0:0:0:
256,192,83449,1,0,0:0:0:0:
256,192,83546,1,8,0:0:0:0:
256,192,83683,1,8,0:0:0:0:
256,192,83781,1,0,0:0:0:0:
256,192,84015,1,8,0:0:0:0:
256,192,84249,1,0,0:0:0:0:
256,192,84386,1,8,0:0:0:0:
256,192,84484,1,0,0:0:0:0:
256,192,84620,1,0,0:0:0:0:
256,192,84718,1,8,0:0:0:0:
256,192,84855,1,0,0:0:0:0:
256,192,84953,1,8,0:0:0:0:
256,192,85187,1,8,0:0:0:0:
256,192,85324,1,8,0:0:0:0:
256,192,85421,1,0,0:0:0:0:
256,192,85558,1,0,0:0:0:0:
256,192,85656,1,8,0:0:0:0:
256,192,85890,1,0,0:0:0:0:
256,192,86027,1,0,0:0:0:0:
256,192,86124,1,8,0:0:0:0:
256,192,86359,1,0,0:0:0:0:
256,192,86495,1,0,0:0:0:0:
256,192,86593,1,8,0:0:0:0:
256,192,86730,1,8,0:0:0:0:
256,192,86828,1,0,0:0:0:0:
256,192,87062,1,8,0:0:0:0:
256,192,87199,1,0,0:0:0:0:
256,192,87296,1,8,0:0:0:0:
256,192,87433,1,0,0:0:0:0:
256,192,87531,1,8,0:0:0:0:
256,192,87765,1,0,0:0:0:0:
256,192,87902,1,8,0:0:0:0:
256,192,87999,1,0,0:0:0:0:
256,192,88136,1,8,0:0:0:0:
256,192,88234,1,0,0:0:0:0:
256,192,88370,1,0,0:0:0:0:
256,192,88468,1,8,0:0:0:0:
256,192,88703,1,0,0:0:0:0:
256,192,88937,1,8,0:0:0:0:
256,192,89171,1,0,0:0:0:0:
256,192,89308,1,0,0:0:0:0:
256,192,89406,1,8,0:0:0:0:
256,192,89542,1,0,0:0:0:0:
256,192,89777,1,0,0:0:0:0:
256,192,89874,1,0,0:0:0:0:
256,192,90011,1,0,0:0:0:0:
256,192,90109,1,0,0:0:0:0:
256,192,90245,1,0,0:0:0:0:
256,192,90343,1,8,0:0:0:0:
256,192,90578,5,4,0:0:0:0:
256,192,90812,1,0,0:0:0:0:
256,192,91046,1,0,0:0:0:0:
256,192,91183,1,0,0:0:0:0:
256,192,91281,1,8,0:0:0:0:
256,192,91417,1,0,0:0:0:0:
256,192,91652,1,0,0:0:0:0:
256,192,91749,1,8,0:0:0:0:
256,192,91886,1,0,0:0:0:0:
256,192,91984,1,0,0:0:0:0:
256,192,92120,1,0,0:0:0:0:
256,192,92218,1,8,0:0:0:0:
256,192,92453,1,8,0:0:0:0:
256,192,92687,1,8,0:0:0:0:
256,192,92921,1,8,0:0:0:0:
256,192,93058,1,8,0:0:0:0:
256,192,93156,1,0,0:0:0:0:
256,192,93292,1,8,0:0:0:0:
256,192,93527,1,8,0:0:0:0:
256,192,93624,1,0,0:0:0:0:
256,192,93761,1,8,0:0:0:0:
256,192,93859,1,8,0:0:0:0:
256,192,93995,1,8,0:0:0:0:
256,192,94093,1,0,0:0:0:0:
256,192,94328,1,0,0:0:0:0:
256,192,94562,1,0,0:0:0:0:
256,192,94796,1,0,0:0:0:0:
256,192,94933,1,0,0:0:0:0:
256,192,95031,1,8,0:0:0:0:
256,192,95167,1,0,0:0:0:0:
256,192,95402,1,0,0:0:0:0:
256,192,95499,1,8,0:0:0:0:
256,192,95636,1,0,0:0:0:0:
256,192,95734,1,0,0:0:0:0:
256,192,95870,1,0,0:0:0:0:
256,192,95968,1,8,0:0:0:0:
256,192,96203,1,8,0:0:0:0:
256,192,96437,1,8,0:0:0:0:
256,192,96671,1,8,0:0:0:0:
256,192,96808,1,8,0:0:0:0:
256,192,96906,1,0,0:0:0:0:
256,192,97042,1,8,0:0:0:0:
256,192,97277,1,8,0:0:0:0:
256,192,97374,1,0,0:0:0:0:
256,192,97511,1,8,0:0:0:0:
256,192,97609,1,8,0:0:0:0:
256,192,97745,1,8,0:0:0:0:
256,192,97843,1,0,0:0:0:0:
256,192,98078,1,0,0:0:0:0:
256,192,98312,1,0,0:0:0:0:
256,192,98546,1,0,0:0:0:0:
256,192,98683,1,0,0:0:0:0:
256,192,98781,1,8,0:0:0:0:
256,192,98917,1,0,0:0:0:0:
256,192,99152,1,0,0:0:0:0:
256,192,99249,1,8,0:0:0:0:
256,192,99386,1,0,0:0:0:0:
256,192,99484,1,0,0:0:0:0:
256,192,99620,1,0,0:0:0:0:
256,192,99718,1,8,0:0:0:0:
256,192,99953,1,8,0:0:0:0:
256,192,100187,1,8,0:0:0:0:
256,192,100421,1,8,0:0:0:0:
256,192,100558,1,8,0:0:0:0:
256,192,100656,1,0,0:0:0:0:
256,192,100792,1,8,0:0:0:0:
256,192,101027,1,8,0:0:0:0:
256,192,101124,1,0,0:0:0:0:
256,192,101261,1,8,0:0:0:0:
256,192,101359,1,8,0:0:0:0:
256,192,101495,1,8,0:0:0:0:
256,192,101593,1,0,0:0:0:0:
256,192,101828,1,0,0:0:0:0:
256,192,102062,1,0,0:0:0:0:
256,192,102296,1,0,0:0:0:0:
256,192,102433,1,8,0:0:0:0:
256,192,102531,1,8,0:0:0:0:
256,192,102667,1,0,0:0:0:0:
256,192,102902,1,0,0:0:0:0:
256,192,102999,1,8,0:0:0:0:
256,192,103136,1,0,0:0:0:0:
256,192,103234,1,0,0:0:0:0:
256,192,103370,1,0,0:0:0:0:
256,192,103468,1,8,0:0:0:0:
256,192,103703,1,12,0:0:0:0:
256,192,103937,1,8,0:0:0:0:
256,192,104171,1,8,0:0:0:0:
256,192,104308,1,0,0:0:0:0:
256,192,104406,1,0,0:0:0:0:
256,192,104542,1,8,0:0:0:0:
256,192,104777,1,8,0:0:0:0:
256,192,104874,1,0,0:0:0:0:
256,192,105011,1,8,0:0:0:0:
256,192,105109,1,8,0:0:0:0:
256,192,105245,1,8,0:0:0:0:
256,192,105343,1,0,0:0:0:0:
256,192,105578,1,12,0:0:0:0:
256,192,105812,1,8,0:0:0:0:
256,192,106046,1,0,0:0:0:0:
256,192,106183,1,8,0:0:0:0:
256,192,106281,1,8,0:0:0:0:
256,192,106417,1,8,0:0:0:0:
256,192,106652,1,0,0:0:0:0:
256,192,106886,1,8,0:0:0:0:
256,192,106984,1,0,0:0:0:0:
256,192,107120,1,8,0:0:0:0:
256,192,107218,1,0,0:0:0:0:
256,192,107355,1,0,0:0:0:0:
256,192,107453,1,8,0:0:0:0:
256,192,107589,1,8,0:0:0:0:
256,192,107687,1,0,0:0:0:0:
256,192,107824,1,0,0:0:0:0:
256,192,107921,1,8,0:0:0:0:
256,192,108058,1,8,0:0:0:0:
256,192,108156,1,0,0:0:0:0:
256,192,108292,1,0,0:0:0:0:
256,192,108527,1,8,0:0:0:0:
256,192,108624,1,0,0:0:0:0:
256,192,108761,1,0,0:0:0:0:
256,192,108859,1,8,0:0:0:0:
256,192,108995,1,8,0:0:0:0:
256,192,109093,1,0,0:0:0:0:
256,192,109328,1,0,0:0:0:0:
256,192,109562,1,0,0:0:0:0:
256,192,109796,1,0,0:0:0:0:
256,192,109933,1,0,0:0:0:0:
256,192,110031,1,8,0:0:0:0:
256,192,110167,1,8,0:0:0:0:
256,192,110402,1,8,0:0:0:0:
256,192,110499,1,0,0:0:0:0:
256,192,110636,1,0,0:0:0:0:
256,192,110734,1,8,0:0:0:0:
256,192,110870,1,0,0:0:0:0:
256,192,110968,1,8,0:0:0:0:
256,192,111203,1,8,0:0:0:0:
256,192,111437,1,8,0:0:0:0:
256,192,111671,1,8,0:0:0:0:
256,192,111808,1,8,0:0:0:0:
256,192,111906,1,0,0:0:0:0:
256,192,112042,1,8,0:0:0:0:
256,192,112277,1,0,0:0:0:0:
256,192,112374,1,8,0:0:0:0:
256,192,112433,1,8,0:0:0:0:
256,192,112492,1,8,0:0:0:0:
256,192,112609,1,0,0:0:0:0:
256,192,112745,1,0,0:0:0:0:
256,192,112843,1,8,0:0:0:0:
256,192,113078,1,0,0:0:0:0:
256,192,113312,1,0,0:0:0:0:
256,192,113546,1,0,0:0:0:0:
256,192,113683,1,8,0:0:0:0:
256,192,113781,1,0,0:0:0:0:
256,192,113917,1,0,0:0:0:0:
256,192,114152,1,8,0:0:0:0:
256,192,114249,1,0,0:0:0:0:
256,192,114386,1,8,0:0:0:0:
256,192,114484,1,8,0:0:0:0:
256,192,114620,1,8,0:0:0:0:
256,192,114718,1,0,0:0:0:0:
256,192,114953,1,0,0:0:0:0:
256,192,115187,1,8,0:0:0:0:
256,192,115324,1,8,0:0:0:0:
256,192,115421,1,0,0:0:0:0:
256,192,115558,1,0,0:0:0:0:
256,192,115656,1,8,0:0:0:0:
256,192,115792,1,0,0:0:0:0:
256,192,116027,1,8,0:0:0:0:
256,192,116124,1,0,0:0:0:0:
256,192,116261,1,0,0:0:0:0:
256,192,116359,1,8,0:0:0:0:
256,192,116495,1,8,0:0:0:0:
256,192,116593,1,0,0:0:0:0:
256,192,116730,1,8,0:0:0:0:
256,192,116828,1,8,0:0:0:0:
256,192,117062,1,0,0:0:0:0:
256,192,117296,1,0,0:0:0:0:
256,192,117433,1,0,0:0:0:0:
256,192,117531,1,8,0:0:0:0:
256,192,117667,1,0,0:0:0:0:
256,192,117902,1,8,0:0:0:0:
256,192,117999,1,0,0:0:0:0:
256,192,118234,1,0,0:0:0:0:
256,192,118312,1,0,0:0:0:0:
256,192,118390,1,0,0:0:0:0:
256,192,118468,1,0,0:0:0:0:
256,192,118546,1,0,0:0:0:0:
256,192,118624,1,0,0:0:0:0:
256,192,118703,1,8,0:0:0:0:
256,192,118937,1,0,0:0:0:0:
256,192,119054,1,8,0:0:0:0:
256,192,119288,1,0,0:0:0:0:
256,192,119406,1,8,0:0:0:0:
256,192,119640,1,12,0:0:0:0:
256,192,120578,5,12,0:0:0:0:
