osu file format v14

[General]
AudioFilename: audio.mp3
AudioLeadIn: 0
PreviewTime: 505
Countdown: 0
SampleSet: Soft
StackLeniency: 0.2
Mode: 0
LetterboxInBreaks: 0
WidescreenStoryboard: 1

[Editor]
Bookmarks: 22505,30505
DistanceSpacing: 1
BeatDivisor: 8
GridSize: 16
TimelineZoom: 2.999999

[Metadata]
Title:Kokorokirou Hayashi
TitleUnicode:Kokorokirou Hayashi
Artist:Akiyama Uni
ArtistUnicode:Akiyama Uni
Creator:Hikaru Rose
Version:Extreme
Source:
Tags:
BeatmapID:1163996
BeatmapSetID:549694

[Difficulty]
HPDrainRate:5.5
CircleSize:3
OverallDifficulty:7.7
ApproachRate:9.5
SliderMultiplier:0.500000005960464
SliderTickRate:1

[Events]
//Background and Video events
0,0,"226.png",0,0
//Break Periods
//Storyboard Layer 0 (Background)
//Storyboard Layer 1 (Fail)
//Storyboard Layer 2 (Pass)
//Storyboard Layer 3 (Foreground)
//Storyboard Layer 4 (Overlay)
//Storyboard Sound Samples

[TimingPoints]
505,500,4,2,1,80,1,0
505,-50,4,2,1,80,0,0
1505,-50,4,2,1,30,0,0
2130,-50,4,2,1,80,0,0
2442,-50,4,2,1,5,0,0
2505,-50,4,2,1,80,0,0
3380,-50,4,2,1,30,0,0
4130,-50,4,2,1,80,0,0
4442,-50,4,2,1,5,0,0
4505,-50,4,2,1,80,0,0
5505,-50,4,2,1,30,0,0
6067,-50,4,2,1,80,0,0
6442,-50,4,2,1,5,0,0
6505,-66.6666666666667,4,2,1,80,0,0
7692,-66.6666666666667,4,2,1,5,0,0
7755,-66.6666666666667,4,2,1,80,0,0
8442,-66.6666666666667,4,2,1,5,0,0
8505,-66.6666666666667,4,2,1,80,0,0
10505,-33.3333333333333,4,2,1,80,0,0
11067,-33.3333333333333,4,2,1,5,0,0
11130,-33.3333333333333,4,2,1,80,0,0
12505,-50,4,2,1,80,0,0
14130,-50,4,2,1,30,0,0
14442,-50,4,2,1,5,0,0
14505,-25,4,2,1,80,0,0
15692,-25,4,2,1,5,0,0
15755,-25,4,2,1,80,0,0
16192,-25,4,2,1,5,0,0
16255,-25,4,2,1,80,0,0
19692,-25,4,2,1,5,0,0
19755,-25,4,2,1,80,0,0
20192,-25,4,2,1,5,0,0
20255,-25,4,2,1,80,0,0
23692,-25,4,2,1,5,0,0
23755,-25,4,2,1,80,0,0
24192,-25,4,2,1,5,0,0
24255,-25,4,2,1,80,0,0
30505,-50,4,2,1,80,0,0
32442,-50,4,2,1,5,0,0
32505,-50,4,2,1,80,0,0
37442,-50,4,2,1,5,0,0
37505,-25,4,2,1,80,0,0
38380,-25,4,2,1,40,0,0
38505,-50,4,2,1,80,0,0
42505,-66.6666666666667,4,2,1,80,0,0
43505,-100,4,2,1,80,0,0
43817,-100,4,2,1,5,0,0
43880,-100,4,2,1,80,0,0
44442,-100,4,2,1,5,0,0
44505,-100,4,2,1,80,0,0
47130,-100,4,2,1,30,0,0
47255,-100,4,2,1,80,0,0
47838,-100,4,2,1,30,0,0
47921,-100,4,2,1,50,0,0
48005,-100,4,2,1,80,0,0
48505,-100,4,2,1,80,0,1
49442,-100,4,2,1,5,0,1
49505,-100,4,2,1,80,0,1
50442,-100,4,2,1,5,0,1
50505,-100,4,2,1,80,0,1
51692,-100,4,2,1,5,0,1
51755,-100,4,2,1,80,0,1
52692,-100,4,2,1,5,0,1
52755,-100,4,2,1,80,0,1
53192,-100,4,2,1,5,0,1
53255,-100,4,2,1,80,0,1
54692,-100,4,2,1,5,0,1
54755,-100,4,2,1,80,0,1
55192,-100,4,2,1,5,0,1
55255,-100,4,2,1,80,0,1
56442,-100,4,2,1,5,0,1
56505,-100,4,2,1,80,0,1
56692,-100,4,2,1,5,0,1
56755,-100,4,2,1,80,0,1
57192,-100,4,2,1,5,0,1
57255,-100,4,2,1,80,0,1
57692,-100,4,2,1,5,0,1
57755,-100,4,2,1,80,0,1
58192,-100,4,2,1,5,0,1
58255,-100,4,2,1,80,0,1
61692,-100,4,2,1,5,0,1
61755,-100,4,2,1,80,0,1
62192,-100,4,2,1,5,0,1
62255,-100,4,2,1,80,0,1
62442,-100,4,2,1,5,0,1
62505,-100,4,2,1,80,0,1
62692,-100,4,2,1,5,0,1
62755,-100,4,2,1,80,0,1
63442,-100,4,2,1,5,0,1
63505,-100,4,2,1,80,0,1
63880,-100,4,2,1,40,0,1
64005,-66.6666666666667,4,2,1,80,0,1
64505,-66.6666666666667,4,2,1,80,0,0

[Colours]
Combo1 : 199,201,201
Combo2 : 217,125,227

[HitObjects]
0,248,505,5,8,0:0:0:0:
512,136,755,1,8,0:0:0:0:
460,216,1005,5,0,0:0:0:0:
369,209,1130,2,0,L|351:207,3,16.6666634877523
23,336,1505,5,8,0:0:0:0:
112,351,1630,2,0,L|167:357,1,49.9999904632569,8|8,0:0|0:0,0:0:0:0:
413,127,2005,5,8,0:0:0:0:
426,40,2130,1,0,0:0:0:0:
239,24,2255,2,0,L|201:20,1,37.4999928474426
512,136,2505,5,8,0:0:0:0:
0,248,2755,1,8,0:0:0:0:
39,163,3005,5,0,0:0:0:0:
128,150,3130,2,0,L|146:148,2,16.6666634877523
254,368,3380,5,8,0:0:0:0:
337,298,3505,1,8,0:0:0:0:
438,348,3630,2,0,L|492:352,1,49.9999904632569,8|8,0:0|0:0,0:0:0:0:
458,59,4005,5,8,0:0:0:0:
420,147,4130,1,0,0:0:0:0:
240,78,4255,2,0,L|194:75,1,37.4999928474426
0,248,4505,5,8,0:0:0:0:
512,136,4755,1,8,0:0:0:0:
458,59,5005,5,0,0:0:0:0:
362,47,5130,2,0,L|344:45,3,16.6666634877523
87,287,5505,5,8,0:0:0:0:
176,269,5630,2,0,L|229:260,1,49.9999904632568,8|8,0:0|0:0,0:0:0:0:
386,137,6005,5,8,0:0:0:0:
386,137,6067,1,0,0:0:0:0:
386,137,6130,1,0,0:0:0:0:
385,221,6255,2,0,L|339:211,1,37.4999928474426
33,150,6505,6,0,L|72:143,1,37.4999942779539,8|2,0:0|0:0,0:0:0:0:
194,144,6880,2,0,L|158:125,1,37.4999942779539,8|0,0:0|0:0,0:0:0:0:
124,5,7255,2,0,L|116:28,1,18.7499971389769,10|0,0:0|0:0,0:0:0:0:
10,375,7505,6,0,L|36:354,1,28.1249957084654,8|2,0:0|0:0,0:0:0:0:
131,371,7755,2,0,L|141:348,1,18.7499971389769,2|8,0:0|0:0,0:0:0:0:
213,295,8005,2,0,L|204:272,1,18.7499971389769
84,270,8255,2,0,L|117:264,1,28.1249957084654,10|0,0:0|0:0,0:0:0:0:
497,234,8505,6,0,L|452:227,1,37.4999942779539,8|2,0:0|0:0,0:0:0:0:
19,135,8880,5,8,0:0:0:0:
108,116,9005,2,0,L|149:108,1,37.4999942779539,0|10,0:0|0:0,0:0:0:0:
504,41,9380,5,0,0:0:0:0:
463,121,9505,1,12,0:0:0:0:
413,39,10005,2,0,L|416:16,2,12.4999980926513
366,121,10255,2,0,L|367:139,1,18.7499971389769,0|2,0:0|0:0,0:0:0:0:
472,358,10442,5,2,0:0:0:0:
483,371,10505,2,0,L|436:364,1,37.4999942779539,10|0,0:0|0:0,0:0:0:0:
84,271,10755,5,2,0:0:0:0:
108,359,10880,2,0,L|45:349,1,56.2500028163195,8|0,0:0|0:0,0:0:0:0:
5,115,11130,5,0,0:0:0:0:
96,122,11255,2,0,L|138:125,1,37.4999942779539,10|0,0:0|0:0,0:0:0:0:
512,280,11505,6,0,L|429:272,1,74.9999885559077,8|2,0:0|0:0,0:0:0:0:
196,41,11880,5,8,0:0:0:0:
133,124,12005,2,0,L|219:132,1,74.9999885559077,0|10,0:0|0:0,0:0:0:0:
437,272,12380,5,0,0:0:0:0:
512,158,12505,6,0,L|432:153,1,75.0000008940696,8|8,0:0|0:0,0:0:0:0:
105,27,13005,5,0,0:0:0:0:
133,124,13130,1,0,0:0:0:0:
196,352,13255,5,10,0:0:0:0:
437,272,13380,1,0,0:0:0:0:
365,41,13505,1,12,0:0:0:0:
365,41,14005,5,8,0:0:0:0:
512,59,14130,2,0,L|444:65,1,62.500000745058,8|0,0:0|0:0,0:0:0:0:
0,276,14505,6,0,L|103:265,1,99.9999809265136,8|2,0:0|0:0,0:0:0:0:
99,265,14880,2,0,L|84:194,2,49.9999904632568,8|4|0,0:0|0:0|0:0,0:0:0:0:
42,7,15255,5,10,0:0:0:0:
90,84,15380,1,0,0:0:0:0:
166,26,15505,2,0,L|252:35,1,75.0000008940696,8|0,0:0|0:0,0:0:0:0:
502,69,15755,5,2,0:0:0:0:
512,157,15880,1,8,0:0:0:0:
421,185,16005,2,0,L|339:177,1,75.0000008940696
20,148,16255,5,10,0:0:0:0:
88,216,16380,1,0,0:0:0:0:
39,307,16505,2,0,L|148:297,1,100.000001192093,8|2,0:0|0:0,0:0:0:0:
416,283,16880,5,8,0:0:0:0:
328,323,17005,2,0,L|264:314,1,49.9999904632568
188,302,17255,2,0,L|127:296,1,49.9999904632568,10|0,0:0|0:0,0:0:0:0:
43,57,17505,5,12,0:0:0:0:
133,13,17755,5,2,0:0:0:0:
205,72,17880,1,8,0:0:0:0:
166,166,18130,5,0,0:0:0:0:
236,235,18255,1,10,0:0:0:0:
313,187,18380,1,0,0:0:0:0:
13,351,18505,6,0,L|72:339,2,49.9999904632568,8|0|2,0:0|0:0|0:0,0:0:0:0:
382,289,18880,2,0,L|430:278,2,49.9999904632568,8|4|0,0:0|0:0|0:0,0:0:0:0:
446,368,19255,5,10,0:0:0:0:
349,384,19380,1,0,0:0:0:0:
286,309,19505,2,0,L|202:325,1,75.0000008940696,8|0,0:0|0:0,0:0:0:0:
1,166,19755,1,2,0:0:0:0:
75,108,19880,1,8,0:0:0:0:
32,24,20005,2,0,L|108:12,1,75.0000008940696
458,32,20255,5,10,0:0:0:0:
333,60,20380,1,0,0:0:0:0:
75,108,20505,6,0,L|95:219,1,100.000001192093,12|2,0:0|0:0,0:0:0:0:
442,275,20880,5,8,0:0:0:0:
347,258,21005,2,0,L|282:249,1,49.9999904632568
415,150,21255,2,0,L|360:163,1,49.9999904632568,10|0,0:0|0:0,0:0:0:0:
92,206,21505,5,8,0:0:0:0:
0,221,21630,1,0,0:0:0:0:
27,384,21755,1,6,0:0:0:0:
218,350,21880,1,8,0:0:0:0:
186,184,22005,5,4,0:0:0:0:
366,161,22130,1,0,0:0:0:0:
382,270,22255,1,14,0:0:0:0:
483,252,22380,1,0,0:0:0:0:
343,13,22505,6,0,L|236:24,1,99.9999809265136,12|2,0:0|0:0,0:0:0:0:
108,39,22880,2,0,L|163:35,2,50.0000005960464,8|4|0,0:0|0:0|0:0,0:0:0:0:
5,364,23255,5,10,0:0:0:0:
16,273,23380,1,0,0:0:0:0:
111,286,23505,2,0,L|196:295,1,75.0000008940696,8|0,0:0|0:0,0:0:0:0:
449,326,23755,5,2,0:0:0:0:
379,226,23880,1,8,0:0:0:0:
281,306,24005,2,0,L|362:315,1,75.0000008940696
390,15,24255,1,10,0:0:0:0:
308,77,24380,1,0,0:0:0:0:
183,202,24505,6,0,L|283:215,1,100.000001192093,8|2,0:0|0:0,0:0:0:0:
13,183,24880,5,8,0:0:0:0:
77,117,25005,2,0,L|146:126,1,49.9999904632568
32,22,25255,2,0,L|89:29,1,50.0000005960464,10|0,0:0|0:0,0:0:0:0:
379,226,25505,5,8,0:0:0:0:
428,147,25755,5,2,0:0:0:0:
367,77,25880,1,8,0:0:0:0:
185,223,26005,6,0,L|135:215,1,49.9999904632568
293,138,26255,2,0,L|243:145,1,49.9999904632568,10|0,0:0|0:0,0:0:0:0:
6,374,26505,6,0,L|28:258,1,99.9999809265136,8|2,0:0|0:0,0:0:0:0:
115,299,26880,1,8,0:0:0:0:
470,331,27005,6,0,L|448:215,1,99.9999809265136,4|10,0:0|0:0,0:0:0:0:
349,220,27380,1,0,0:0:0:0:
47,187,27505,6,0,L|69:71,1,99.9999809265136,12|2,0:0|0:0,0:0:0:0:
85,0,27880,1,0,0:0:0:0:
511,72,28005,1,8,0:0:0:0:
433,143,28130,2,0,L|414:44,1,100.000001192093,4|0,0:0|0:0,0:0:0:0:
414,44,28505,6,0,P|402:117|438:186,1,150.000001788139,14|8,0:0|0:0,0:0:0:0:
158,69,29005,1,4,0:0:0:0:
82,134,29130,1,0,0:0:0:0:
119,224,29255,1,0,0:0:0:0:
226,220,29380,5,0,0:0:0:0:
512,89,29505,5,12,0:0:0:0:
420,353,29755,5,4,0:0:0:0:
0,258,30005,5,4,0:0:0:0:
297,322,30255,5,4,0:0:0:0:
316,232,30505,6,0,L|327:177,1,50.0000005960464,8|8,0:0|0:0,0:0:0:0:
46,26,31130,5,0,0:0:0:0:
158,47,31255,1,0,0:0:0:0:
342,82,31380,1,0,0:0:0:0:
297,322,31505,6,0,L|243:311,1,49.9999904632568,12|0,0:0|0:0,0:0:0:0:
206,37,31880,2,0,L|157:47,1,50.0000005960464,4|0,0:0|0:0,0:0:0:0:
74,193,32255,2,0,L|34:189,1,37.5000004470348,6|0,0:0|0:0,0:0:0:0:
217,226,32505,6,0,L|227:174,1,50.0000005960464,8|8,0:0|0:0,0:0:0:0:
46,26,33130,1,0,0:0:0:0:
206,37,33255,1,0,0:0:0:0:
424,47,33380,1,0,0:0:0:0:
409,256,33505,6,0,L|350:249,1,49.9999904632568,12|0,0:0|0:0,0:0:0:0:
254,26,33880,2,0,L|201:37,1,50.0000005960464,4|0,0:0|0:0,0:0:0:0:
64,277,34255,5,0,0:0:0:0:
21,190,34380,1,0,0:0:0:0:
316,232,34505,6,0,L|309:173,1,49.9999904632568,10|10,0:0|0:0,0:0:0:0:
86,116,35130,5,0,0:0:0:0:
205,36,35255,1,0,0:0:0:0:
424,47,35380,1,0,0:0:0:0:
511,259,35505,6,0,L|452:274,1,49.9999904632568,12|0,0:0|0:0,0:0:0:0:
187,337,35880,2,0,L|135:352,1,49.9999904632568,4|0,0:0|0:0,0:0:0:0:
424,47,36255,5,0,0:0:0:0:
310,182,36380,1,0,0:0:0:0:
46,26,36505,1,8,0:0:0:0:
398,226,36755,5,0,0:0:0:0:
128,84,36880,2,0,L|97:94,1,24.9999952316284,8|2,0:0|0:0,0:0:0:0:
396,131,37130,5,0,0:0:0:0:
55,233,37255,2,0,L|65:275,1,37.4999928474426,8|0,0:0|0:0,0:0:0:0:
389,324,37505,6,0,P|386:274|399:221,1,99.9999809265136,10|0,0:0|0:0,0:0:0:0:
484,183,37880,1,0,0:0:0:0:
512,61,38005,5,10,0:0:0:0:
390,40,38130,1,0,0:0:0:0:
89,5,38255,1,0,0:0:0:0:
60,102,38380,1,8,0:0:0:0:
316,232,38505,6,0,L|327:177,1,50.0000005960464,8|8,0:0|0:0,0:0:0:0:
292,93,39005,1,2,0:0:0:0:
60,102,39130,5,0,0:0:0:0:
164,78,39255,1,0,0:0:0:0:
372,35,39380,1,0,0:0:0:0:
415,266,39505,5,14,0:0:0:0:
486,333,39755,5,0,0:0:0:0:
146,284,39880,2,0,L|113:280,1,24.9999952316284,12|2,0:0|0:0,0:0:0:0:
401,381,40130,5,0,0:0:0:0:
202,362,40255,1,12,0:0:0:0:
226,222,40505,6,0,L|237:167,1,50.0000005960464,8|8,0:0|0:0,0:0:0:0:
292,93,41005,5,2,0:0:0:0:
60,102,41130,5,0,0:0:0:0:
33,215,41255,1,0,0:0:0:0:
306,279,41380,1,0,0:0:0:0:
364,22,41505,5,14,0:0:0:0:
385,119,41755,5,0,0:0:0:0:
50,364,41880,2,0,L|53:336,1,24.9999952316284,12|2,0:0|0:0,0:0:0:0:
436,304,42130,5,0,0:0:0:0:
413,215,42255,1,12,0:0:0:0:
385,119,42505,5,12,0:0:0:0:
481,146,42755,1,0,0:0:0:0:
63,253,42880,2,0,L|66:231,1,18.7499971389769,12|2,0:0|0:0,0:0:0:0:
481,146,43130,5,0,0:0:0:0:
456,52,43255,1,12,0:0:0:0:
84,147,43505,6,0,L|90:113,1,31.250000372529,8|0,0:0|0:0,0:0:0:0:
456,52,43880,6,0,L|454:40,2,12.4999976158142,8|2|0,0:0|0:0|0:0,0:0:0:0:
113,33,44255,6,0,L|116:13,1,18.7500002235174,8|0,0:0|0:0,0:0:0:0:
366,27,44505,6,0,L|339:21,1,24.9999952316284,8|2,0:0|0:0,0:0:0:0:
6,217,44880,2,0,L|34:213,1,24.9999952316284,8|2,0:0|0:0,0:0:0:0:
443,274,45255,5,8,0:0:0:0:
355,228,45380,1,0,0:0:0:0:
311,317,45505,5,8,0:0:0:0:
164,226,45630,1,0,0:0:0:0:
266,67,45755,1,2,0:0:0:0:
398,365,45880,5,8,0:0:0:0:
372,107,46005,1,0,0:0:0:0:
125,129,46130,1,2,0:0:0:0:
57,339,46255,5,8,0:0:0:0:
160,31,46380,1,2,0:0:0:0:
472,144,46505,6,0,L|465:184,1,37.4999928474426,8|8,0:0|0:0,0:0:0:0:
441,267,47130,1,8,0:0:0:0:
117,331,47255,6,0,L|120:305,1,24.9999952316284,12|12,0:0|0:0,0:0:0:0:
133,216,47755,2,0,L|135:203,2,8.33333174387613,0|8|8,0:0|0:0|0:0,0:0:0:0:
489,30,48005,2,0,L|485:58,1,24.9999952316284,8|0,0:0|0:0,0:0:0:0:
446,331,48505,6,0,L|418:328,1,24.9999952316284,12|2,0:0|0:0,0:0:0:0:
189,27,48880,5,8,0:0:0:0:
113,99,49005,2,0,L|130:95,1,12.4999976158142,4|0,0:0|0:0,0:0:0:0:
421,328,49255,6,0,L|401:325,1,18.7500002235174,10|0,0:0|0:0,0:0:0:0:
13,344,49505,6,0,L|28:342,1,12.4999976158142,12|0,0:0|0:0,0:0:0:0:
192,338,49755,2,0,L|186:324,1,12.4999976158142,2|8,0:0|0:0,0:0:0:0:
98,198,50005,2,0,L|92:214,1,12.4999976158142,4|0,0:0|0:0,0:0:0:0:
92,293,50255,6,0,L|110:288,1,18.7500002235174,10|0,0:0|0:0,0:0:0:0:
491,222,50505,5,12,0:0:0:0:
410,165,50755,5,2,0:0:0:0:
12,249,50880,2,0,L|-1:250,1,12.4999976158142,12|0,0:0|0:0,0:0:0:0:
474,92,51130,5,0,0:0:0:0:
408,18,51255,1,10,0:0:0:0:
317,42,51380,1,0,0:0:0:0:
53,117,51505,6,0,L|73:120,1,18.7500002235174,10|0,0:0|0:0,0:0:0:0:
410,165,51755,5,2,0:0:0:0:
399,257,51880,2,0,L|372:253,1,25.0000002980232,8|0,0:0|0:0,0:0:0:0:
21,209,52255,5,10,0:0:0:0:
0,297,52380,1,0,0:0:0:0:
421,334,52505,2,0,L|441:336,1,18.7500002235174,12|0,0:0|0:0,0:0:0:0:
341,86,52755,6,0,L|326:88,1,12.4999976158142,2|8,0:0|0:0,0:0:0:0:
459,190,53005,2,0,L|440:187,1,18.7500002235174,4|0,0:0|0:0,0:0:0:0:
107,272,53255,6,0,L|92:274,1,12.4999976158142,10|0,0:0|0:0,0:0:0:0:
0,67,53505,2,0,L|26:64,1,24.9999952316284,12|2,0:0|0:0,0:0:0:0:
487,85,53880,6,0,L|459:78,1,24.9999952316284,8|0,0:0|0:0,0:0:0:0:
170,6,54255,1,10,0:0:0:0:
118,181,54380,1,0,0:0:0:0:
210,168,54505,6,0,L|233:164,1,18.7500002235174,12|0,0:0|0:0,0:0:0:0:
307,230,54755,2,0,L|292:227,1,12.4999976158142,2|8,0:0|0:0,0:0:0:0:
118,93,55005,6,0,L|138:90,1,18.7500002235174,4|0,0:0|0:0,0:0:0:0:
397,300,55255,2,0,L|382:298,1,12.4999976158142,10|0,0:0|0:0,0:0:0:0:
4,326,55505,6,0,L|13:287,1,37.4999928474426,12|8,0:0|0:0,0:0:0:0:
160,384,56005,1,4,0:0:0:0:
307,230,56130,1,0,0:0:0:0:
381,144,56255,2,0,L|376:124,1,18.7500002235174,2|0,0:0|0:0,0:0:0:0:
36,44,56505,6,0,L|55:45,1,18.7500002235174,12|0,0:0|0:0,0:0:0:0:
310,63,56755,5,2,0:0:0:0:
393,29,56880,1,8,0:0:0:0:
477,99,57005,2,0,L|457:100,1,18.7500002235174,4|0,0:0|0:0,0:0:0:0:
95,135,57255,5,10,0:0:0:0:
18,205,57380,1,0,0:0:0:0:
90,277,57505,2,0,L|108:276,1,18.7500002235174,12|0,0:0|0:0,0:0:0:0:
432,183,57755,6,0,L|449:184,1,12.4999976158142,6|8,0:0|0:0,0:0:0:0:
54,45,58005,6,0,L|36:44,1,18.7500002235174,4|0,0:0|0:0,0:0:0:0:
489,320,58255,6,0,L|506:321,1,12.4999976158142,14|0,0:0|0:0,0:0:0:0:
8,377,58505,5,12,0:0:0:0:
434,23,58755,5,2,0:0:0:0:
506,98,58880,1,8,0:0:0:0:
119,379,59130,5,8,0:0:0:0:
28,265,59255,1,2,0:0:0:0:
330,37,59505,5,8,0:0:0:0:
135,55,59755,5,2,0:0:0:0:
97,135,59880,1,8,0:0:0:0:
312,211,60005,2,0,L|323:215,1,12.4999976158142
85,291,60255,5,10,0:0:0:0:
45,56,60380,1,0,0:0:0:0:
434,23,60505,5,12,0:0:0:0:
2,223,60755,5,2,0:0:0:0:
32,379,60880,1,8,0:0:0:0:
498,340,61130,5,8,0:0:0:0:
477,245,61255,1,2,0:0:0:0:
347,272,61380,1,8,0:0:0:0:
323,124,61505,6,0,L|341:120,1,18.7500002235174,12|0,0:0|0:0,0:0:0:0:
475,84,61755,2,0,L|459:81,1,12.4999976158142,6|8,0:0|0:0,0:0:0:0:
175,169,62005,6,0,L|195:163,1,18.7500002235174,4|0,0:0|0:0,0:0:0:0:
512,3,62255,2,0,L|491:-1,1,18.7500002235174,6|0,0:0|0:0,0:0:0:0:
2,370,62505,6,0,L|20:365,1,18.7500002235174,12|0,0:0|0:0,0:0:0:0:
388,20,62755,2,0,L|372:17,1,12.4999976158142,2|8,0:0|0:0,0:0:0:0:
50,256,63005,6,0,L|62:253,1,12.4999976158142,4|8,0:0|0:0,0:0:0:0:
353,211,63255,2,0,L|343:209,3,6.2500000745058,10|2|2|2,0:0|0:0|0:0|0:0,0:0:0:0:
140,91,63505,6,0,L|144:63,1,25.0000002980232,12|0,0:0|0:0,0:0:0:0:
49,68,63880,5,8,0:0:0:0:
382,377,64005,2,0,L|373:299,1,74.9999885559077,8|12,0:0|0:0,0:0:0:0:
