osu file format v14

[General]
AudioFilename: kaoru.mp3
AudioLeadIn: 0
PreviewTime: 789
Countdown: 0
SampleSet: Soft
StackLeniency: 0.2
Mode: 0
LetterboxInBreaks: 0
WidescreenStoryboard: 0

[Editor]
DistanceSpacing: 1
BeatDivisor: 4
GridSize: 4
TimelineZoom: 3.799998

[Metadata]
Title:Kaoru Juyouka
TitleUnicode:香る樹葉花
Artist:Akiyama Uni
ArtistUnicode:あきやまうに
Creator:Hollow Wings
Version:Musk Sprout
Source:東方Project
Tags:Touhou th10.5 th12.3 fxt fxtz Twilight Frontier Tasofro 黄昏フロンティア zun 東方緋想天 ~ Scarlet Weather Rhapsody 東方非想天則 ~ 超弩級ギニョルの謎を追え jun Fragrant Plants 霧雨 魔理沙 きりさめ まりさ Kirisame Marisa hw
BeatmapID:865102
BeatmapSetID:397764

[Difficulty]
HPDrainRate:6
CircleSize:7
OverallDifficulty:8
ApproachRate:9
SliderMultiplier:1
SliderTickRate:1

[Events]
//Background and Video events
0,0,"kaoru.jpg",0,0
//Break Periods
//Storyboard Layer 0 (Background)
//Storyboard Layer 1 (Fail)
//Storyboard Layer 2 (Pass)
//Storyboard Layer 3 (Foreground)
//Storyboard Sound Samples

[TimingPoints]
-732,434.782608695652,4,2,1,70,1,0
1007,-100,4,2,1,70,0,0
7963,-100,4,2,1,80,0,0
21876,-80,4,2,1,80,0,0
35789,-200,4,1,1,80,0,0
49702,-66.6666666666667,4,2,1,70,0,0
56659,-50,4,2,1,80,0,1
70354,-50,4,2,1,80,0,0
70572,-50,4,2,1,80,0,1
84485,-100,4,2,1,80,0,0

[Colours]
Combo1 : 128,64,0
Combo2 : 255,253,66

[HitObjects]
120,292,1007,5,2,0:0:0:0:
154,295,1115,1,0,0:0:0:0:
188,286,1224,1,0,0:0:0:0:
215,264,1332,1,2,0:0:0:0:
225,230,1441,1,8,0:0:0:0:
260,224,1549,1,0,0:0:0:0:
294,232,1658,1,0,0:0:0:0:
322,251,1766,1,2,0:0:0:0:
331,285,1876,5,2,0:0:0:0:
286,290,1984,1,8,0:0:0:0:
245,270,2093,1,2,0:0:0:0:
225,230,2201,1,0,0:0:0:0:
229,185,2310,1,8,0:0:0:0:
207,145,2420,1,0,0:0:0:0:
167,123,2528,1,2,0:0:0:0:
122,129,2637,1,8,0:0:0:0:
88,159,2746,5,2,0:0:0:0:
105,189,2854,1,0,0:0:0:0:
137,201,2963,1,0,0:0:0:0:
171,196,3072,1,2,0:0:0:0:
201,179,3180,1,8,0:0:0:0:
207,145,3288,1,0,0:0:0:0:
233,121,3397,1,0,0:0:0:0:
268,117,3507,1,2,0:0:0:0:
300,128,3615,5,2,0:0:0:0:
314,153,3723,1,8,0:0:0:0:
335,173,3832,1,2,0:0:0:0:
361,185,3940,1,0,0:0:0:0:
390,189,4049,1,8,0:0:0:0:
417,202,4159,1,0,0:0:0:0:
434,226,4266,1,2,0:0:0:0:
438,256,4376,1,0,0:0:0:0:
425,283,4485,5,2,0:0:0:0:
393,297,4593,1,0,0:0:0:0:
358,291,4702,1,0,0:0:0:0:
333,266,4810,1,2,0:0:0:0:
331,230,4920,1,8,0:0:0:0:
296,234,5027,1,0,0:0:0:0:
275,262,5136,1,0,0:0:0:0:
282,296,5246,1,2,0:0:0:0:
309,316,5354,5,2,0:0:0:0:
352,327,5462,1,8,0:0:0:0:
396,318,5571,1,2,0:0:0:0:
425,283,5681,1,0,0:0:0:0:
427,238,5788,1,8,0:0:0:0:
466,260,5898,1,0,0:0:0:0:
484,301,6007,1,2,0:0:0:0:
468,343,6115,1,8,0:0:0:0:
429,366,6224,5,2,0:0:0:0:
417,333,6332,1,0,0:0:0:0:
385,317,6441,1,0,0:0:0:0:
352,327,6549,1,2,0:0:0:0:
338,359,6658,1,8,0:0:0:0:
305,370,6766,5,0,0:0:0:0:
260,377,6875,1,0,0:0:0:0:
217,361,6985,1,2,0:0:0:0:
194,322,7094,2,0,L|170:328,1,25,2|8,0:0|0:0,0:0:0:0:
142,292,7311,2,0,L|121:305,1,25,2|0,0:0|0:0,0:0:0:0:
85,278,7528,2,0,L|70:298,1,25,2|0,0:0|0:0,0:0:0:0:
28,282,7745,2,0,L|21:305,1,25,8|0,0:0|0:0,0:0:0:0:
55,235,7963,6,0,L|79:229,1,25,6|0,0:0|0:0,0:0:0:0:
92,185,8181,2,0,L|116:187,1,25,0|2,0:0|0:0,0:0:0:0:
42,132,8398,2,0,L|64:142,1,25,8|0,0:0|0:0,0:0:0:0:
112,141,8615,1,0,0:0:0:0:
146,134,8723,1,2,0:0:0:0:
181,141,8833,6,0,L|205:147,1,25,2|8,0:0|0:0,0:0:0:0:
243,116,9050,2,0,L|263:129,1,25,2|0,0:0|0:0,0:0:0:0:
312,120,9267,2,0,L|326:140,1,25,8|0,0:0|0:0,0:0:0:0:
374,155,9485,1,2,0:0:0:0:
408,161,9593,1,8,0:0:0:0:
434,184,9702,6,0,L|410:190,1,25,2|0,0:0|0:0,0:0:0:0:
408,236,9920,2,0,L|387:249,1,25,0|2,0:0|0:0,0:0:0:0:
402,293,10137,2,0,L|387:313,1,25,8|0,0:0|0:0,0:0:0:0:
422,343,10354,1,0,0:0:0:0:
393,363,10462,1,2,0:0:0:0:
357,357,10573,6,0,L|330:360,1,25,2|8,0:0|0:0,0:0:0:0:
298,330,10789,2,0,L|273:342,1,25,2|0,0:0|0:0,0:0:0:0:
231,326,11007,2,0,L|212:345,3,25,8|0|2|8,0:0|0:0|0:0|0:0,0:0:0:0:
176,265,11441,6,0,L|184:288,1,25,2|0,0:0|0:0,0:0:0:0:
202,220,11659,2,0,L|217:239,1,25,0|2,0:0|0:0,0:0:0:0:
212,169,11876,2,0,L|233:181,1,25,8|0,0:0|0:0,0:0:0:0:
197,121,12094,1,0,0:0:0:0:
205,87,12202,1,2,0:0:0:0:
190,34,12311,6,0,L|171:51,1,25,2|8,0:0|0:0,0:0:0:0:
108,64,12528,2,0,L|101:88,1,25,2|0,0:0|0:0,0:0:0:0:
61,132,12746,2,0,L|66:156,1,25,8|0,0:0|0:0,0:0:0:0:
50,209,12963,2,0,L|67:227,1,25,2|8,0:0|0:0,0:0:0:0:
68,278,13181,6,0,L|92:284,1,25,2|0,0:0|0:0,0:0:0:0:
130,318,13398,2,0,L|145:310,3,16.6666666666667,0|0|0|8,0:0|0:0|0:0|0:0,0:0:0:0:
70,365,13833,2,0,L|94:359,1,25,2|8,0:0|0:0,0:0:0:0:
116,220,14050,6,0,L|140:214,1,25,8|0,0:0|0:0,0:0:0:0:
214,268,14267,2,0,L|238:270,1,25,2|0,0:0|0:0,0:0:0:0:
300,338,14485,2,0,L|322:348,1,25,2|0,0:0|0:0,0:0:0:0:
259,364,14702,2,0,L|235:370,1,25,2|8,0:0|0:0,0:0:0:0:
378,337,14920,6,0,L|386:361,1,25,6|0,0:0|0:0,0:0:0:0:
431,290,15137,2,0,L|432:259,1,25,0|2,0:0|0:0,0:0:0:0:
507,225,15354,2,0,L|499:249,1,25,8|0,0:0|0:0,0:0:0:0:
453,192,15572,1,0,0:0:0:0:
461,158,15680,1,2,0:0:0:0:
478,189,15789,6,0,L|451:193,1,25,2|8,0:0|0:0,0:0:0:0:
401,216,16007,2,0,L|374:210,1,25,2|0,0:0|0:0,0:0:0:0:
324,213,16224,2,0,L|300:198,1,25,8|0,0:0|0:0,0:0:0:0:
271,268,16442,1,2,0:0:0:0:
236,261,16550,1,8,0:0:0:0:
204,275,16659,6,0,L|180:281,1,25,2|0,0:0|0:0,0:0:0:0:
142,242,16877,2,0,L|117:239,1,25,0|2,0:0|0:0,0:0:0:0:
102,188,17094,2,0,L|79:177,1,25,8|0,0:0|0:0,0:0:0:0:
88,125,17311,1,0,0:0:0:0:
108,97,17419,1,2,0:0:0:0:
100,62,17528,6,0,L|92:85,1,25,2|8,0:0|0:0,0:0:0:0:
152,46,17746,2,0,L|153:70,1,25,2|0,0:0|0:0,0:0:0:0:
201,18,17963,2,0,L|210:40,3,25,8|0|2|8,0:0|0:0|0:0|0:0,0:0:0:0:
152,46,18398,6,0,L|153:70,1,25,2|0,0:0|0:0,0:0:0:0:
199,98,18615,2,0,L|208:120,1,25,0|2,0:0|0:0,0:0:0:0:
262,119,18833,2,0,L|279:137,1,25,8|0,0:0|0:0,0:0:0:0:
326,109,19051,1,0,0:0:0:0:
362,113,19159,1,2,0:0:0:0:
432,116,19267,6,0,L|408:122,1,25,2|8,0:0|0:0,0:0:0:0:
337,201,19485,2,0,L|314:190,1,25,2|0,0:0|0:0,0:0:0:0:
229,213,19702,2,0,L|218:190,1,25,8|0,0:0|0:0,0:0:0:0:
150,169,19920,2,0,L|156:145,1,25,2|8,0:0|0:0,0:0:0:0:
85,208,20138,6,0,L|109:204,1,25,2|8,0:0|0:0,0:0:0:0:
74,276,20355,2,0,L|89:284,3,16.6666666666667,2|0|0|8,0:0|0:0|0:0|0:0,0:0:0:0:
160,257,20790,2,0,L|136:251,1,25,2|8,0:0|0:0,0:0:0:0:
255,268,21007,6,0,L|230:270,1,25,2|0,0:0|0:0,0:0:0:0:
183,313,21224,2,0,L|158:308,1,25,2|0,0:0|0:0,0:0:0:0:
210,381,21442,2,0,L|184:364,1,25,10|0,0:0|0:0,0:0:0:0:
257,355,21659,1,2,0:0:0:0:
309,350,21767,1,0,0:0:0:0:
358,372,21876,6,0,L|388:366,1,31.25,6|0,0:0|0:0,0:0:0:0:
469,291,22093,2,0,L|433:292,1,31.25,0|2,0:0|0:0,0:0:0:0:
393,188,22311,2,0,L|389:156,1,31.25,8|0,0:0|0:0,0:0:0:0:
443,61,22528,1,0,0:0:0:0:
409,43,22636,1,2,0:0:0:0:
447,30,22747,6,0,L|442:60,1,31.25,2|8,0:0|0:0,0:0:0:0:
335,49,22963,2,0,L|303:50,1,31.25,2|0,0:0|0:0,0:0:0:0:
205,41,23181,2,0,L|216:69,1,31.25,8|0,0:0|0:0,0:0:0:0:
94,8,23398,1,2,0:0:0:0:
125,28,23506,1,8,0:0:0:0:
90,39,23615,6,0,L|94:8,1,31.25,2|0,0:0|0:0,0:0:0:0:
115,162,23833,2,0,L|127:133,1,31.25,0|2,0:0|0:0,0:0:0:0:
122,289,24051,2,0,L|143:266,1,31.25,8|0,0:0|0:0,0:0:0:0:
74,355,24267,1,0,0:0:0:0:
74,317,24375,1,2,0:0:0:0:
103,343,24486,6,0,L|136:349,1,31.25,2|8,0:0|0:0,0:0:0:0:
206,300,24702,2,0,L|175:306,1,31.25,2|0,0:0|0:0,0:0:0:0:
236,371,24920,2,0,L|243:340,3,31.25,8|0|2|8,0:0|0:0|0:0|0:0,0:0:0:0:
328,365,25354,6,0,L|294:358,1,31.25,2|0,0:0|0:0,0:0:0:0:
245,235,25572,2,0,L|275:230,1,31.25,0|2,0:0|0:0,0:0:0:0:
338,109,25789,2,0,L|317:85,1,31.25,8|0,0:0|0:0,0:0:0:0:
253,146,26007,1,2,0:0:0:0:
271,99,26115,1,2,0:0:0:0:
246,38,26224,6,0,L|275:48,1,31.25,2|8,0:0|0:0,0:0:0:0:
301,155,26441,2,0,L|317:181,1,31.25,2|0,0:0|0:0,0:0:0:0:
267,279,26659,2,0,L|262:309,1,31.25,8|0,0:0|0:0,0:0:0:0:
160,353,26876,2,0,L|136:373,1,31.25,2|8,0:0|0:0,0:0:0:0:
111,289,27094,6,0,L|141:294,1,31.25,2|0,0:0|0:0,0:0:0:0:
99,242,27311,2,0,L|119:239,3,20.8333333333333,0|0|0|8,0:0|0:0|0:0|0:0,0:0:0:0:
150,161,27746,2,0,L|129:184,1,31.25,2|0,0:0|0:0,0:0:0:0:
203,229,27963,6,0,L|172:222,1,31.25,2|0,0:0|0:0,0:0:0:0:
300,185,28181,2,0,L|269:189,1,31.25
362,96,28398,2,0,L|334:110,1,31.25,8|0,0:0|0:0,0:0:0:0:
294,57,28616,2,0,L|315:34,1,31.25,2|8,0:0|0:0,0:0:0:0:
209,59,28833,6,0,L|219:88,1,31.25,6|0,0:0|0:0,0:0:0:0:
142,194,29050,2,0,L|173:186,1,31.25,0|2,0:0|0:0,0:0:0:0:
283,294,29267,2,0,L|252:286,1,31.25,8|0,0:0|0:0,0:0:0:0:
329,241,29485,1,0,0:0:0:0:
350,271,29593,1,2,0:0:0:0:
326,250,29702,6,0,L|349:270,1,31.25,2|8,0:0|0:0,0:0:0:0:
459,239,29920,2,0,L|465:208,1,31.25,2|0,0:0|0:0,0:0:0:0:
384,133,30137,2,0,L|354:142,1,31.25,8|0,0:0|0:0,0:0:0:0:
285,150,30355,1,2,0:0:0:0:
252,131,30463,1,8,0:0:0:0:
282,138,30572,6,0,L|251:130,1,31.25,2|0,0:0|0:0,0:0:0:0:
141,136,30790,2,0,L|120:112,1,31.25,0|2,0:0|0:0,0:0:0:0:
112,246,31008,2,0,L|121:276,1,31.25,8|0,0:0|0:0,0:0:0:0:
171,239,31224,1,0,0:0:0:0:
186,205,31332,1,2,0:0:0:0:
183,236,31441,6,0,L|186:205,1,31.25,2|8,0:0|0:0,0:0:0:0:
226,310,31659,2,0,L|222:278,1,31.25,2|0,0:0|0:0,0:0:0:0:
134,345,31877,2,0,L|150:318,3,31.25,8|0|2|8,0:0|0:0|0:0|0:0,0:0:0:0:
44,342,32311,6,0,L|15:353,1,31.25,2|0,0:0|0:0,0:0:0:0:
31,221,32529,2,0,L|48:194,1,31.25,0|2,0:0|0:0,0:0:0:0:
94,25,32747,2,0,L|64:15,1,31.25,8|0,0:0|0:0,0:0:0:0:
113,164,32964,1,0,0:0:0:0:
163,166,33072,1,2,0:0:0:0:
199,112,33180,6,0,L|206:142,1,31.25,2|8,0:0|0:0,0:0:0:0:
273,332,33399,2,0,L|285:303,1,31.25,2|0,0:0|0:0,0:0:0:0:
306,152,33615,2,0,L|332:169,1,31.25,8|0,0:0|0:0,0:0:0:0:
390,313,33833,2,0,L|420:306,1,31.25,2|8,0:0|0:0,0:0:0:0:
508,235,34051,6,0,L|477:227,1,31.25,2|2,0:0|0:0,0:0:0:0:
368,226,34268,2,0,L|348:231,3,20.8333333333333,2|0|0|2,0:0|0:0|0:0|0:0,0:0:0:0:
233,250,34703,2,0,L|264:257,1,31.25,8|2,0:0|0:0,0:0:0:0:
187,214,34920,6,0,L|156:221,1,31.25,2|0,0:0|0:0,0:0:0:0:
26,238,35137,2,0,L|55:246,1,31.25,8|0,0:0|0:0,0:0:0:0:
165,268,35355,2,0,L|133:268,1,31.25,14|0,0:0|0:0,0:0:0:0:
51,298,35572,2,0,L|55:328,1,31.25,2|0,0:0|0:0,0:0:0:0:
103,351,35789,5,2,0:0:0:0:
254,305,36007,1,0,0:0:0:0:
258,303,36115,1,2,0:0:0:0:
263,303,36224,1,2,0:0:0:0:
267,304,36332,1,0,0:0:0:0:
271,305,36441,1,2,0:0:0:0:
275,306,36549,1,2,0:0:0:0:
289,316,36659,1,2,0:0:0:0:
293,317,36767,1,2,0:0:0:0:
298,316,36876,1,2,0:0:0:0:
213,340,37094,1,2,0:0:0:0:
345,254,37311,5,2,0:0:0:0:
339,254,37420,1,2,0:0:0:0:
324,262,37528,1,2,0:0:0:0:
257,119,37746,1,2,0:0:0:0:
115,187,37963,1,2,0:0:0:0:
91,84,38181,1,2,0:0:0:0:
86,83,38289,1,2,0:0:0:0:
75,97,38398,1,2,0:0:0:0:
70,99,38506,1,2,0:0:0:0:
65,99,38615,1,2,0:2:0:0:
60,98,38724,1,0,0:0:0:0:
55,96,38833,1,8,0:2:0:0:
145,43,39050,5,2,0:0:0:0:
149,44,39159,1,2,0:0:0:0:
147,70,39267,1,2,0:0:0:0:
151,72,39375,1,2,0:0:0:0:
155,73,39484,1,0,0:0:0:0:
159,74,39594,1,2,0:0:0:0:
164,74,39702,1,2,0:0:0:0:
305,149,39920,1,2,0:0:0:0:
301,150,40029,1,2,0:0:0:0:
303,176,40137,1,2,0:0:0:0:
299,178,40245,1,2,0:0:0:0:
295,179,40354,1,0,0:0:0:0:
291,180,40462,1,0,0:0:0:0:
286,180,40572,1,2,0:0:0:0:
178,298,40789,5,2,0:0:0:0:
182,298,40899,1,2,0:0:0:0:
192,322,41007,1,2,0:0:0:0:
192,322,41225,5,0,0:0:0:0:
187,321,41333,1,2,0:0:0:0:
181,321,41441,1,2,0:0:0:0:
176,322,41550,1,0,0:0:0:0:
171,323,41660,1,2,0:2:0:0:
171,323,41876,5,2,0:0:0:0:
176,322,41986,1,0,0:0:0:0:
181,321,42093,1,2,0:2:0:0:
187,321,42203,1,0,0:0:0:0:
192,322,42311,1,8,0:2:0:0:
347,355,42528,5,2,0:0:0:0:
351,355,42638,1,2,0:0:0:0:
370,327,42746,1,2,0:0:0:0:
431,181,42964,1,0,0:0:0:0:
427,179,43072,1,2,0:0:0:0:
422,179,43181,1,2,0:0:0:0:
418,180,43289,1,0,0:0:0:0:
414,181,43398,1,0,0:0:0:0:
410,182,43506,1,2,0:0:0:0:
396,192,43616,1,2,0:0:0:0:
392,193,43724,1,2,0:0:0:0:
387,192,43833,1,2,0:0:0:0:
452,336,44051,1,2,0:0:0:0:
483,182,44267,5,2,0:0:0:0:
489,182,44377,1,2,0:0:0:0:
500,196,44485,1,2,0:0:0:0:
350,146,44703,1,2,0:0:0:0:
196,176,44920,1,2,0:0:0:0:
104,304,45138,1,0,0:0:0:0:
109,303,45246,1,2,0:0:0:0:
120,317,45355,1,2,0:0:0:0:
125,319,45463,1,2,0:0:0:0:
130,319,45572,1,2,0:2:0:0:
135,318,45681,1,0,0:0:0:0:
140,316,45790,1,8,0:2:0:0:
245,198,46007,5,2,0:0:0:0:
241,199,46116,1,2,0:0:0:0:
243,225,46224,1,2,0:0:0:0:
239,227,46332,1,0,0:0:0:0:
235,228,46441,1,0,0:0:0:0:
231,229,46549,1,2,0:0:0:0:
226,229,46659,1,2,0:0:0:0:
111,119,46877,1,0,0:0:0:0:
115,120,46986,1,2,0:0:0:0:
113,146,47094,1,2,0:0:0:0:
117,148,47202,1,2,0:0:0:0:
121,149,47311,1,2,0:0:0:0:
125,150,47419,1,0,0:0:0:0:
130,150,47529,1,2,0:0:0:0:
240,37,47746,5,2,0:0:0:0:
236,37,47854,1,2,0:0:0:0:
226,61,47964,1,2,0:0:0:0:
317,191,48182,1,0,0:0:0:0:
322,192,48290,1,2,0:0:0:0:
328,192,48398,1,2,0:0:0:0:
333,191,48507,1,0,0:0:0:0:
338,190,48615,1,2,0:2:0:0:
152,239,48833,5,2,0:0:0:0:
147,238,48941,1,0,0:0:0:0:
142,237,49050,1,2,0:2:0:0:
137,238,49160,1,0,0:0:0:0:
132,240,49268,1,8,0:2:0:0:
128,243,49376,1,0,0:0:0:0:
126,247,49485,1,2,0:0:0:0:
124,251,49595,1,2,0:0:0:0:
124,258,49702,5,2,0:0:0:0:
148,250,49811,1,0,0:0:0:0:
167,267,49921,1,0,0:0:0:0:
192,269,50028,1,2,0:0:0:0:
216,245,50137,1,8,0:0:0:0:
242,241,50247,1,0,0:0:0:0:
261,269,50354,1,2,0:0:0:0:
287,268,50463,1,0,0:0:0:0:
301,237,50572,5,2,0:0:0:0:
331,223,50681,1,8,0:0:0:0:
363,232,50789,1,2,0:0:0:0:
386,207,50898,1,2,0:0:0:0:
419,204,51007,1,8,0:0:0:0:
449,219,51115,1,0,0:0:0:0:
482,219,51224,1,2,0:0:0:0:
496,249,51333,1,0,0:0:0:0:
479,279,51441,5,2,0:0:0:0:
442,271,51550,1,0,0:0:0:0:
405,280,51658,1,0,0:0:0:0:
368,279,51767,1,2,0:0:0:0:
333,294,51876,1,8,0:0:0:0:
295,294,51984,1,0,0:0:0:0:
261,309,52094,1,0,0:0:0:0:
223,309,52202,1,0,0:0:0:0:
188,323,52311,5,2,0:0:0:0:
213,324,52420,1,8,0:0:0:0:
233,307,52528,1,2,0:0:0:0:
261,309,52637,1,2,0:0:0:0:
285,303,52746,1,8,0:0:0:0:
311,307,52854,1,0,0:0:0:0:
333,294,52963,1,2,0:0:0:0:
356,298,53072,1,0,0:0:0:0:
368,279,53181,5,2,0:0:0:0:
377,254,53288,1,0,0:0:0:0:
361,232,53398,1,0,0:0:0:0:
369,207,53507,1,2,0:0:0:0:
394,265,53615,5,8,0:0:0:0:
398,238,53724,1,0,0:0:0:0:
378,219,53832,1,2,0:0:0:0:
382,193,53941,1,0,0:0:0:0:
419,249,54050,5,2,0:0:0:0:
418,221,54159,1,0,0:0:0:0:
395,206,54267,1,0,0:0:0:0:
394,180,54376,1,2,0:0:0:0:
440,228,54485,5,8,0:0:0:0:
434,200,54594,1,0,0:0:0:0:
409,190,54702,1,2,0:0:0:0:
403,164,54811,1,0,0:0:0:0:
372,130,54920,5,6,0:0:0:0:
327,126,55027,1,0,0:0:0:0:
296,92,55137,1,0,0:0:0:0:
252,103,55246,1,0,0:0:0:0:
221,71,55353,1,6,0:0:0:0:
180,91,55463,1,0,0:0:0:0:
142,65,55572,1,0,0:0:0:0:
113,89,55681,1,0,0:0:0:0:
78,101,55788,5,6,0:0:0:0:
107,119,55898,1,0,0:0:0:0:
126,143,56007,1,0,0:0:0:0:
135,168,56115,1,0,0:0:0:0:
155,186,56224,1,14,0:0:0:0:
191,197,56333,1,0,0:0:0:0:
235,188,56441,1,8,0:0:0:0:
269,147,56550,1,8,0:0:0:0:
277,85,56659,6,0,P|296:69|320:64,1,50,6|0,0:0|0:0,0:0:0:0:
472,159,56876,1,0,0:0:0:0:
472,159,56985,1,2,0:0:0:0:
472,159,57094,2,0,P|475:183|467:207,1,50,8|0,0:0|0:0,0:0:0:0:
313,292,57311,1,0,0:0:0:0:
313,292,57420,1,2,0:0:0:0:
313,292,57528,2,0,P|289:282|273:264,1,50,6|8,0:0|0:0,0:0:0:0:
277,85,57746,1,2,0:0:0:0:
277,85,57855,1,0,0:0:0:0:
277,85,57963,2,0,P|296:69|320:64,1,50,8|0,0:0|0:0,0:0:0:0:
472,159,58181,1,2,0:0:0:0:
472,159,58290,1,0,0:0:0:0:
426,176,58398,5,6,0:0:0:0:
390,211,58508,1,0,0:0:0:0:
378,258,58615,1,0,0:0:0:0:
385,307,58724,1,2,0:0:0:0:
414,347,58833,1,8,0:0:0:0:
419,312,58941,1,0,0:0:0:0:
385,307,59050,1,0,0:0:0:0:
364,334,59159,1,2,0:0:0:0:
330,342,59266,1,2,0:0:0:0:
296,331,59376,1,8,0:0:0:0:
261,331,59485,1,2,0:0:0:0:
242,301,59594,1,0,0:0:0:0:
255,252,59702,1,12,0:0:0:0:
236,205,59812,1,0,0:0:0:0:
187,198,59919,1,2,0:0:0:0:
152,234,60028,1,0,0:0:0:0:
162,283,60137,6,0,P|142:298|118:303,1,50,6|0,0:0|0:0,0:0:0:0:
303,248,60354,1,0,0:0:0:0:
303,248,60463,1,2,0:0:0:0:
303,248,60572,2,0,P|327:258|343:276,1,50,8|0,0:0|0:0,0:0:0:0:
204,148,60788,1,2,0:0:0:0:
204,148,60897,1,0,0:0:0:0:
204,148,61006,2,0,P|200:124|208:100,1,50,6|0,0:0|0:0,0:0:0:0:
162,283,61224,1,2,0:0:0:0:
162,283,61333,1,0,0:0:0:0:
162,283,61441,2,0,P|142:298|118:303,1,50,8|0,0:0|0:0,0:0:0:0:
204,148,61659,1,2,0:0:0:0:
204,148,61768,1,0,0:0:0:0:
252,159,61876,5,6,0:0:0:0:
302,156,61986,1,0,0:0:0:0:
325,112,62093,1,0,0:0:0:0:
323,61,62202,1,2,0:0:0:0:
288,24,62311,1,8,0:0:0:0:
293,58,62420,1,0,0:0:0:0:
322,77,62528,1,0,0:0:0:0:
325,112,62637,1,2,0:0:0:0:
354,132,62746,1,2,0:0:0:0:
394,161,62854,1,8,0:0:0:0:
443,166,62963,1,2,0:0:0:0:
481,134,63072,1,0,0:0:0:0:
498,86,63180,1,12,0:0:0:0:
474,58,63290,1,0,0:0:0:0:
441,68,63397,1,2,0:0:0:0:
417,41,63506,1,0,0:0:0:0:
382,46,63615,6,0,L|336:66,1,50,6|0,0:0|0:0,0:0:0:0:
318,208,63832,1,0,0:0:0:0:
318,208,63941,1,2,0:0:0:0:
318,208,64050,2,0,L|267:209,1,50,8|0,0:0|0:0,0:0:0:0:
184,322,64267,1,0,0:0:0:0:
184,322,64376,1,2,0:0:0:0:
184,322,64485,2,0,L|135:307,1,50,6|8,0:0|0:0,0:0:0:0:
6,366,64702,1,2,0:0:0:0:
6,366,64811,1,0,0:0:0:0:
6,366,64920,2,0,L|42:331,1,50,8|0,0:0|0:0,0:0:0:0:
55,193,65137,2,0,L|66:241,1,50,2|8,0:0|0:0,0:0:0:0:
94,68,65354,5,6,0:0:0:0:
133,36,65464,1,0,0:0:0:0:
182,40,65571,1,0,0:0:0:0:
216,76,65681,1,2,0:0:0:0:
207,125,65789,1,8,0:0:0:0:
228,151,65898,1,0,0:0:0:0:
263,149,66006,1,0,0:0:0:0:
286,174,66115,1,2,0:0:0:0:
281,208,66224,1,2,0:0:0:0:
234,228,66332,1,8,0:0:0:0:
186,216,66441,1,2,0:0:0:0:
177,166,66550,1,0,0:0:0:0:
207,125,66658,1,12,0:0:0:0:
172,117,66768,1,0,0:0:0:0:
141,133,66875,1,2,0:0:0:0:
127,165,66984,1,0,0:0:0:0:
138,198,67094,5,6,0:0:0:0:
90,214,67202,1,0,0:0:0:0:
128,248,67311,1,0,0:0:0:0:
128,248,67528,1,8,0:0:0:0:
227,242,67746,5,2,0:0:0:0:
178,231,67854,1,0,0:0:0:0:
193,280,67963,1,6,0:0:0:0:
193,280,68180,1,2,0:0:0:0:
282,327,68398,5,8,0:0:0:0:
245,293,68506,1,0,0:0:0:0:
282,327,68615,5,8,0:0:0:0:
293,276,68724,1,0,0:0:0:0:
234,343,68832,1,6,0:0:0:0:
167,366,68941,1,0,0:0:0:0:
107,360,69050,2,0,P|118:338|133:318,1,50,0|2,0:0|0:0,0:0:0:0:
14,347,69267,5,8,0:0:0:0:
73,321,69375,1,0,0:0:0:0:
133,318,69484,1,2,0:0:0:0:
185,340,69593,1,2,0:0:0:0:
234,343,69702,1,2,0:0:0:0:
278,348,69810,1,8,0:0:0:0:
318,350,69919,1,2,0:0:0:0:
351,339,70028,1,0,0:0:0:0:
383,351,70137,1,12,0:0:0:0:
428,352,70245,1,0,0:0:0:0:
473,329,70354,1,2,0:0:0:0:
487,274,70463,1,0,0:0:0:0:
477,214,70572,6,0,P|453:219|432:233,1,50,6|0,0:0|0:0,0:0:0:0:
290,130,70789,1,0,0:0:0:0:
290,130,70898,1,2,0:0:0:0:
290,130,71007,2,0,P|297:106|296:81,1,50,8|0,0:0|0:0,0:0:0:0:
456,9,71224,1,2,0:0:0:0:
456,9,71333,1,2,0:0:0:0:
456,9,71442,2,0,P|472:27|494:38,1,50,6|8,0:0|0:0,0:0:0:0:
478,214,71659,1,2,0:0:0:0:
478,214,71768,1,0,0:0:0:0:
478,214,71876,2,0,P|454:219|433:233,1,50,8|0,0:0|0:0,0:0:0:0:
290,130,72094,1,2,0:0:0:0:
290,130,72203,1,0,0:0:0:0:
249,158,72311,5,6,0:0:0:0:
199,168,72421,1,0,0:0:0:0:
149,163,72528,1,0,0:0:0:0:
105,138,72637,1,2,0:0:0:0:
80,94,72746,1,8,0:0:0:0:
114,87,72854,1,0,0:0:0:0:
147,97,72963,1,0,0:0:0:0:
158,129,73072,1,2,0:0:0:0:
149,163,73181,1,2,0:0:0:0:
153,198,73289,1,8,0:0:0:0:
176,222,73398,1,2,0:0:0:0:
211,223,73507,1,0,0:0:0:0:
243,208,73615,1,12,0:0:0:0:
249,158,73725,1,0,0:0:0:0:
290,130,73832,1,2,0:0:0:0:
339,134,73941,1,0,0:0:0:0:
372,171,74050,6,0,P|392:186|416:191,1,50,6|0,0:0|0:0,0:0:0:0:
243,208,74267,1,0,0:0:0:0:
243,208,74376,1,2,0:0:0:0:
243,208,74485,2,0,P|219:217|203:235,1,50,8|0,0:0|0:0,0:0:0:0:
274,74,74701,1,2,0:0:0:0:
274,74,74810,1,2,0:0:0:0:
274,74,74919,2,0,P|278:49|270:25,1,50,6|8,0:0|0:0,0:0:0:0:
372,171,75137,1,2,0:0:0:0:
372,171,75246,1,0,0:0:0:0:
372,171,75354,2,0,P|392:186|416:191,1,50,8|0,0:0|0:0,0:0:0:0:
243,207,75572,1,2,0:0:0:0:
243,207,75681,1,0,0:0:0:0:
275,169,75789,5,6,0:0:0:0:
323,155,75899,1,0,0:0:0:0:
372,171,76006,1,0,0:0:0:0:
400,212,76115,1,2,0:0:0:0:
394,261,76224,1,8,0:0:0:0:
363,244,76333,1,0,0:0:0:0:
327,243,76441,1,0,0:0:0:0:
296,259,76550,1,2,0:0:0:0:
282,292,76659,1,2,0:0:0:0:
332,295,76767,1,8,0:0:0:0:
375,319,76876,1,2,0:0:0:0:
421,303,76985,1,0,0:0:0:0:
470,311,77093,1,12,0:0:0:0:
502,295,77203,1,0,0:0:0:0:
499,329,77310,1,2,0:0:0:0:
470,311,77419,1,0,0:0:0:0:
470,275,77528,6,0,L|490:224,1,50,6|0,0:0|0:0,0:0:0:0:
332,295,77745,1,0,0:0:0:0:
332,295,77854,1,2,0:0:0:0:
332,295,77963,2,0,L|368:253,1,50,8|0,0:0|0:0,0:0:0:0:
173,278,78180,1,2,0:0:0:0:
173,278,78289,1,2,0:0:0:0:
173,278,78398,2,0,L|221:251,1,50,6|8,0:0|0:0,0:0:0:0:
30,216,78615,1,2,0:0:0:0:
30,216,78724,1,0,0:0:0:0:
30,216,78833,2,0,L|84:207,1,50,8|0,0:0|0:0,0:0:0:0:
251,333,79050,2,0,L|301:353,1,50,2|8,0:0|0:0,0:0:0:0:
104,350,79267,5,6,0:0:0:0:
79,305,79377,1,0,0:0:0:0:
81,255,79484,1,0,0:0:0:0:
131,252,79594,1,2,0:0:0:0:
173,278,79702,1,8,0:0:0:0:
207,282,79811,1,0,0:0:0:0:
240,269,79919,1,0,0:0:0:0:
227,237,80028,1,2,0:0:0:0:
199,214,80137,1,2,0:0:0:0:
160,180,80247,1,8,0:0:0:0:
144,132,80354,1,2,0:0:0:0:
190,113,80464,1,0,0:0:0:0:
239,123,80572,1,12,0:0:0:0:
272,115,80681,1,0,0:0:0:0:
299,91,80789,1,10,0:0:0:0:
326,111,80898,1,8,0:0:0:0:
359,122,81007,5,6,0:0:0:0:
407,133,81115,1,0,0:0:0:0:
453,114,81224,1,0,0:0:0:0:
453,114,81441,1,8,0:0:0:0:
302,158,81659,5,2,0:0:0:0:
343,184,81767,1,0,0:0:0:0:
393,182,81876,1,6,0:0:0:0:
393,182,82093,1,2,0:0:0:0:
231,171,82311,5,8,0:0:0:0:
261,212,82419,1,0,0:0:0:0:
213,226,82528,5,10,0:0:0:0:
308,224,82637,1,8,0:0:0:0:
342,307,82745,1,6,0:0:0:0:
377,342,82854,1,8,0:0:0:0:
429,356,82963,2,0,P|454:359|479:354,1,50,0|2,0:0|0:0,0:0:0:0:
491,254,83181,5,8,0:0:0:0:
447,308,83288,1,0,0:0:0:0:
389,326,83397,1,2,0:0:0:0:
335,327,83506,1,2,0:0:0:0:
288,346,83615,1,8,0:0:0:0:
234,348,83723,1,0,0:0:0:0:
190,361,83832,1,8,0:0:0:0:
151,351,83941,1,0,0:0:0:0:
116,359,84050,1,10,0:0:0:0:
82,349,84158,1,0,0:0:0:0:
50,365,84267,1,8,0:0:0:0:
19,347,84376,1,0,0:0:0:0:
23,307,84485,5,2,0:0:0:0:
