osu file format v14

[General]
AudioFilename: kaoru.mp3
AudioLeadIn: 0
PreviewTime: 789
Countdown: 0
SampleSet: Soft
StackLeniency: 0.2
Mode: 0
LetterboxInBreaks: 0
WidescreenStoryboard: 0

[Editor]
DistanceSpacing: 1
BeatDivisor: 6
GridSize: 4
TimelineZoom: 2.899999

[Metadata]
Title:Kaoru Juyouka
TitleUnicode:香る樹葉花
Artist:Akiyama Uni
ArtistUnicode:あきやまうに
Creator:Hollow Wings
Version:Lunatic
Source:東方Project
Tags:Touhou th10.5 th12.3 fxt fxtz Twilight Frontier Tasofro 黄昏フロンティア zun 東方緋想天 ~ Scarlet Weather Rhapsody 東方非想天則 ~ 超弩級ギニョルの謎を追え jun Fragrant Plants 霧雨 魔理沙 きりさめ まりさ Kirisame Marisa hw
BeatmapID:1552101
BeatmapSetID:397764

[Difficulty]
HPDrainRate:5
CircleSize:5
OverallDifficulty:7.5
ApproachRate:8
SliderMultiplier:1
SliderTickRate:1

[Events]
//Background and Video events
0,0,"kaoru.jpg",0,0
//Break Periods
//Storyboard Layer 0 (Background)
//Storyboard Layer 1 (Fail)
//Storyboard Layer 2 (Pass)
//Storyboard Layer 3 (Foreground)
//Storyboard Sound Samples

[TimingPoints]
-732,434.782608695652,4,2,1,70,1,0
1007,-100,4,2,1,70,0,0
7963,-100,4,2,1,80,0,0
21876,-80,4,2,1,80,0,0
35789,-200,4,1,1,80,0,0
49702,-66.6666666666667,4,2,1,70,0,0
56659,-50,4,2,1,80,0,1
70354,-50,4,2,1,80,0,0
70572,-50,4,2,1,80,0,1
84485,-100,4,2,1,80,0,0

[Colours]
Combo1 : 128,64,0
Combo2 : 255,253,66

[HitObjects]
98,322,1007,5,2,0:0:0:0:
125,332,1115,1,0,0:0:0:0:
155,337,1224,1,0,0:0:0:0:
185,334,1333,1,2,0:0:0:0:
213,325,1441,1,8,0:0:0:0:
239,310,1550,1,0,0:0:0:0:
261,289,1659,1,0,0:0:0:0:
275,262,1767,1,2,0:0:0:0:
277,232,1876,5,2,0:0:0:0:
243,226,1985,1,8,0:0:0:0:
208,213,2094,1,2,0:0:0:0:
180,191,2202,1,0,0:0:0:0:
156,166,2311,1,8,0:0:0:0:
138,135,2420,1,0,0:0:0:0:
128,99,2528,1,2,0:0:0:0:
129,63,2637,1,8,0:0:0:0:
142,29,2746,5,2,0:0:0:0:
169,19,2854,1,0,0:0:0:0:
199,14,2963,1,0,0:0:0:0:
229,17,3072,1,2,0:0:0:0:
257,26,3181,1,8,0:0:0:0:
283,41,3289,1,0,0:0:0:0:
305,62,3398,1,0,0:0:0:0:
319,89,3507,1,2,0:0:0:0:
323,118,3615,5,2,0:0:0:0:
317,146,3724,1,8,0:0:0:0:
317,177,3833,1,2,0:0:0:0:
324,206,3941,1,0,0:0:0:0:
336,232,4050,1,8,0:0:0:0:
355,256,4159,1,0,0:0:0:0:
379,275,4267,1,2,0:0:0:0:
408,285,4376,1,0,0:0:0:0:
436,290,4485,5,2,0:0:0:0:
409,280,4594,1,0,0:0:0:0:
379,275,4702,1,0,0:0:0:0:
349,278,4811,1,2,0:0:0:0:
321,287,4920,1,8,0:0:0:0:
295,302,5028,1,0,0:0:0:0:
273,323,5137,1,0,0:0:0:0:
259,350,5246,1,2,0:0:0:0:
251,379,5354,5,2,0:0:0:0:
217,373,5463,1,8,0:0:0:0:
182,360,5572,1,2,0:0:0:0:
154,338,5681,1,0,0:0:0:0:
130,313,5789,1,8,0:0:0:0:
112,282,5898,1,0,0:0:0:0:
102,246,6007,1,2,0:0:0:0:
103,210,6115,1,8,0:0:0:0:
116,182,6224,5,2,0:0:0:0:
142,170,6333,1,0,0:0:0:0:
167,152,6441,1,0,0:0:0:0:
186,129,6550,1,2,0:0:0:0:
199,102,6659,1,8,0:0:0:0:
207,73,6767,1,0,0:0:0:0:
208,43,6876,1,0,0:0:0:0:
199,14,6985,1,2,0:0:0:0:
158,15,7094,6,0,L|133:17,1,25,2|8,0:0|0:0,0:0:0:0:
24,53,7311,2,0,L|48:50,1,25,2|0,0:0|0:0,0:0:0:0:
166,82,7528,2,0,L|141:84,1,25,2|0,0:0|0:0,0:0:0:0:
32,120,7746,2,0,L|56:117,1,25,8|0,0:0|0:0,0:0:0:0:
301,33,7963,5,6,0:0:0:0:
358,140,8181,1,0,0:0:0:0:
495,165,8398,2,0,P|478:182|455:193,1,50,8|0,0:0|0:0,0:0:0:0:
426,199,8724,1,2,0:0:0:0:
414,226,8833,5,2,0:0:0:0:
290,242,9050,1,2,0:0:0:0:
222,341,9267,2,0,P|246:338|270:331,1,50,8|2,0:0|0:0,0:0:0:0:
300,325,9594,1,8,0:0:0:0:
328,332,9702,5,2,0:0:0:0:
448,341,9920,1,0,0:0:0:0:
413,226,10137,2,0,P|389:228|365:235,1,50,8|0,0:0|0:0,0:0:0:0:
335,233,10463,1,2,0:0:0:0:
317,208,10572,5,2,0:0:0:0:
199,182,10789,1,2,0:0:0:0:
121,275,11007,2,0,P|87:289|50:295,1,75,8|8,0:0|0:0,0:0:0:0:
36,269,11441,5,2,0:0:0:0:
152,235,11659,1,0,0:0:0:0:
173,117,11876,1,8,0:0:0:0:
64,63,12094,1,0,0:0:0:0:
58,33,12202,1,2,0:0:0:0:
79,13,12311,6,0,P|104:10|129:14,1,50,2|2,0:0|0:0,0:0:0:0:
289,99,12746,2,0,P|264:101|239:97,1,50,8|2,0:0|0:0,0:0:0:0:
85,191,13181,1,2,0:0:0:0:
20,180,13398,6,0,L|13:164,3,16.6666666666667,0|0|0|8,0:0|0:0|0:0|0:0,0:0:0:0:
85,191,13833,1,2,0:0:0:0:
136,302,14050,2,0,P|158:313|182:318,1,50,8|2,0:0|0:0,0:0:0:0:
303,288,14485,1,2,0:0:0:0:
217,372,14702,1,2,0:0:0:0:
399,379,14920,5,6,0:0:0:0:
367,262,15137,1,0,0:0:0:0:
447,173,15354,2,0,P|451:148|448:123,1,50,8|0,0:0|0:0,0:0:0:0:
428,100,15681,1,2,0:0:0:0:
416,72,15789,5,2,0:0:0:0:
296,64,16007,1,2,0:0:0:0:
181,24,16224,2,0,P|197:42|217:57,1,50,8|2,0:0|0:0,0:0:0:0:
221,87,16550,1,8,0:0:0:0:
199,107,16659,5,2,0:0:0:0:
318,73,16876,1,0,0:0:0:0:
278,188,17094,2,0,P|284:212|294:234,1,50,8|0,0:0|0:0,0:0:0:0:
276,258,17420,1,2,0:0:0:0:
277,288,17528,5,2,0:0:0:0:
353,192,17746,1,2,0:0:0:0:
394,304,17963,2,0,P|428:318|465:324,1,75,8|8,0:0|0:0,0:0:0:0:
488,306,18398,5,2,0:0:0:0:
418,208,18615,1,0,0:0:0:0:
319,137,18833,1,8,0:0:0:0:
206,94,19050,1,0,0:0:0:0:
176,92,19159,1,2,0:0:0:0:
154,70,19267,6,0,P|129:67|104:71,1,50,2|2,0:0|0:0,0:0:0:0:
121,250,19702,2,0,P|145:252|170:248,1,50,8|2,0:0|0:0,0:0:0:0:
317,353,20137,1,2,0:0:0:0:
385,360,20354,6,0,L|391:344,3,16.6666666666667,2|0|0|8,0:0|0:0|0:0|0:0,0:0:0:0:
317,353,20789,1,2,0:0:0:0:
195,336,21007,2,0,P|172:324|148:319,1,50,2|2,0:0|0:0,0:0:0:0:
46,255,21441,1,10,0:0:0:0:
95,363,21659,2,0,L|89:338,1,25,2|0,0:0|0:0,0:0:0:0:
78,188,21876,5,6,0:0:0:0:
119,41,22094,1,0,0:0:0:0:
269,24,22311,2,0,P|298:34|322:54,1,62.5,8|0,0:0|0:0,0:0:0:0:
333,89,22637,1,2,0:0:0:0:
358,116,22746,5,2,0:0:0:0:
381,266,22963,1,2,0:0:0:0:
473,149,23181,2,0,P|450:127|422:114,1,62.5,8|2,0:0|0:0,0:0:0:0:
420,77,23507,1,8,0:0:0:0:
447,51,23615,5,2,0:0:0:0:
300,89,23833,1,0,0:0:0:0:
155,41,24050,2,0,P|126:53|108:78,1,62.5,8|0,0:0|0:0,0:0:0:0:
122,114,24376,1,2,0:0:0:0:
150,139,24485,5,2,0:0:0:0:
275,220,24702,1,2,0:0:0:0:
336,354,24920,2,0,P|379:370|426:373,1,93.75,8|8,0:0|0:0,0:0:0:0:
454,348,25354,5,2,0:0:0:0:
317,282,25572,1,0,0:0:0:0:
292,131,25789,1,8,0:0:0:0:
189,20,26007,1,2,0:0:0:0:
162,45,26115,1,2,0:0:0:0:
125,34,26224,6,0,P|94:31|64:41,1,62.5,2|2,0:0|0:0,0:0:0:0:
154,249,26659,2,0,P|124:259|93:256,1,62.5,8|2,0:0|0:0,0:0:0:0:
317,282,27094,1,2,0:0:0:0:
330,208,27311,6,0,L|326:187,3,20.8333333333333,0|0|0|8,0:0|0:0|0:0|0:0,0:0:0:0:
252,321,27746,1,2,0:0:0:0:
399,291,27963,2,0,P|429:297|457:310,1,62.5,2|0,0:0|0:0,0:0:0:0:
471,160,28398,1,8,0:0:0:0:
399,291,28615,1,2,0:0:0:0:
252,321,28833,5,6,0:0:0:0:
104,356,29050,1,0,0:0:0:0:
31,224,29267,2,0,P|27:193|32:162,1,62.5,8|0,0:0|0:0,0:0:0:0:
27,125,29594,1,2,0:0:0:0:
59,105,29702,5,2,0:0:0:0:
186,187,29920,1,2,0:0:0:0:
252,320,30137,2,0,P|230:343|204:361,1,62.5,8|2,0:0|0:0,0:0:0:0:
190,326,30463,1,8,0:0:0:0:
159,304,30572,5,2,0:0:0:0:
295,243,30789,1,0,0:0:0:0:
346,100,31007,2,0,P|348:69|339:39,1,62.5,8|0,0:0|0:0,0:0:0:0:
302,47,31333,1,2,0:0:0:0:
265,38,31441,5,2,0:0:0:0:
332,175,31659,1,2,0:0:0:0:
480,211,31876,2,0,P|436:228|389:228,1,93.75,8|8,0:0|0:0,0:0:0:0:
363,254,32311,5,2,0:0:0:0:
214,254,32528,1,0,0:0:0:0:
122,132,32746,1,8,0:0:0:0:
94,284,32963,1,0,0:0:0:0:
109,249,33072,1,2,0:0:0:0:
106,210,33181,6,0,P|134:199|165:200,1,62.5,2|2,0:0|0:0,0:0:0:0:
354,325,33615,2,0,P|382:336|413:335,1,62.5,8|2,0:0|0:0,0:0:0:0:
193,379,34050,1,2,0:0:0:0:
121,355,34267,6,0,L|100:359,3,20.8333333333333,2|0|0|2,0:0|0:0|0:0|0:0,0:0:0:0:
244,307,34702,1,8,0:0:0:0:
395,318,34920,2,0,P|426:315|455:306,1,62.5,2|8,0:0|0:0,0:0:0:0:
467,155,35354,1,14,0:0:0:0:
347,245,35572,1,2,0:0:0:0:
264,220,35789,5,2,0:0:0:0:
163,331,36007,1,0,0:0:0:0:
118,190,36224,1,2,0:0:0:0:
29,69,36441,1,2,0:0:0:0:
42,75,36550,1,2,0:0:0:0:
56,79,36659,5,2,0:0:0:0:
94,222,36876,1,2,0:0:0:0:
202,118,37094,1,2,0:0:0:0:
56,151,37311,1,2,0:0:0:0:
277,117,37528,5,2,0:0:0:0:
413,50,37746,1,2,0:0:0:0:
417,58,37818,1,0,0:0:0:0:
417,68,37891,1,0,0:0:0:0:
415,77,37963,1,2,0:0:0:0:
392,224,38181,1,2,0:0:0:0:
390,209,38289,1,2,0:0:0:0:
392,194,38398,5,2,0:0:0:0:
369,343,38615,1,2,0:2:0:0:
510,297,38833,2,0,P|492:296|474:290,1,37.5,8|2,0:2|0:0,0:0:0:0:
460,294,39267,5,2,0:0:0:0:
309,287,39485,1,0,0:0:0:0:
390,160,39702,1,2,0:0:0:0:
350,14,39920,1,2,0:0:0:0:
335,18,40028,1,2,0:0:0:0:
320,20,40137,5,2,0:0:0:0:
171,8,40354,1,0,0:0:0:0:
236,145,40572,1,2,0:0:0:0:
94,195,40789,1,2,0:0:0:0:
40,55,41007,5,2,0:0:0:0:
158,146,41224,1,0,0:0:0:0:
20,203,41441,2,0,L|28:236,1,25,2|2,0:0|0:2,0:0:0:0:
35,238,41767,1,0,0:0:0:0:
66,260,41876,5,2,0:0:0:0:
71,273,41985,1,0,0:0:0:0:
70,288,42094,1,2,0:2:0:0:
203,360,42311,2,0,L|221:360|240:360,1,37.5,8|2,0:2|0:0,0:0:0:0:
253,353,42746,5,2,0:0:0:0:
403,329,42963,1,0,0:0:0:0:
308,214,43181,1,2,0:0:0:0:
432,128,43398,1,0,0:0:0:0:
419,122,43507,1,2,0:0:0:0:
405,118,43615,5,2,0:0:0:0:
315,238,43833,1,2,0:0:0:0:
255,100,44050,1,2,0:0:0:0:
242,249,44267,1,2,0:0:0:0:
95,208,44485,5,2,0:0:0:0:
36,348,44702,1,2,0:0:0:0:
32,356,44775,1,0,0:0:0:0:
32,366,44847,1,0,0:0:0:0:
34,375,44920,1,2,0:0:0:0:
184,373,45137,1,0,0:0:0:0:
186,358,45246,1,2,0:0:0:0:
184,343,45354,5,2,0:0:0:0:
197,195,45572,1,2,0:2:0:0:
61,259,45789,2,0,P|79:257|97:251,1,37.5,8|2,0:2|0:0,0:0:0:0:
111,256,46224,5,2,0:0:0:0:
20,136,46441,1,0,0:0:0:0:
169,116,46659,1,2,0:0:0:0:
29,69,46876,1,0,0:0:0:0:
44,73,46985,1,2,0:0:0:0:
59,75,47094,5,2,0:0:0:0:
208,98,47311,1,2,0:0:0:0:
113,214,47528,1,2,0:0:0:0:
259,172,47746,1,2,0:0:0:0:
388,92,47963,5,2,0:0:0:0:
270,183,48181,1,0,0:0:0:0:
408,240,48398,2,0,L|400:273,1,25,2|2,0:0|0:2,0:0:0:0:
407,278,48724,1,0,0:0:0:0:
430,311,48833,5,2,0:0:0:0:
442,317,48941,1,0,0:0:0:0:
457,318,49050,1,2,0:2:0:0:
475,167,49267,2,0,P|463:166|451:166,1,25,8|2,0:2|0:0,0:0:0:0:
322,126,49702,5,2,0:0:0:0:
281,106,49811,1,0,0:0:0:0:
236,110,49920,1,0,0:0:0:0:
205,142,50028,1,2,0:0:0:0:
194,185,50137,2,0,L|158:195,1,37.5000014305115,8|0,0:0|0:0,0:0:0:0:
51,152,50354,2,0,L|15:141,1,37.5000014305115,2|0,0:0|0:0,0:0:0:0:
91,213,50572,5,2,0:0:0:0:
79,256,50681,1,8,0:0:0:0:
96,297,50789,1,2,0:0:0:0:
137,314,50898,1,2,0:0:0:0:
180,302,51007,2,0,L|216:291,1,37.5000014305115,8|0,0:0|0:0,0:0:0:0:
311,352,51224,2,0,L|275:341,1,37.5000014305115,2|0,0:0|0:0,0:0:0:0:
371,304,51441,5,2,0:0:0:0:
371,258,51550,1,0,0:0:0:0:
415,254,51659,1,0,0:0:0:0:
432,213,51767,1,2,0:0:0:0:
475,225,51876,2,0,L|481:188,1,37.5000014305115,8|0,0:0|0:0,0:0:0:0:
464,76,52094,2,0,L|457:112,1,37.5000014305115,0|0,0:0|0:0,0:0:0:0:
374,173,52311,5,2,0:0:0:0:
333,152,52420,1,8,0:0:0:0:
289,165,52528,1,2,0:0:0:0:
245,154,52637,1,2,0:0:0:0:
202,169,52746,2,0,L|181:137,1,37.5000014305115,8|0,0:0|0:0,0:0:0:0:
162,25,52963,2,0,L|199:23,1,37.5000014305115,2|0,0:0|0:0,0:0:0:0:
121,90,53181,5,2,0:0:0:0:
94,54,53289,1,0,0:0:0:0:
107,96,53398,2,0,L|93:130,1,37.5000014305115,0|2,0:0|0:0,0:0:0:0:
142,232,53615,1,8,0:0:0:0:
136,187,53724,1,0,0:0:0:0:
126,230,53833,2,0,L|96:253,1,37.5000014305115,2|0,0:0|0:0,0:0:0:0:
210,245,54050,5,2,0:0:0:0:
193,203,54159,1,0,0:0:0:0:
223,235,54267,2,0,L|260:240,1,37.5000014305115,0|2,0:0|0:0,0:0:0:0:
323,334,54485,1,8,0:0:0:0:
287,306,54594,1,0,0:0:0:0:
329,319,54702,2,0,L|363:305,1,37.5000014305115,2|0,0:0|0:0,0:0:0:0:
475,337,54920,5,6,0:0:0:0:
437,312,55028,1,0,0:0:0:0:
464,276,55137,1,0,0:0:0:0:
434,242,55246,1,0,0:0:0:0:
446,198,55354,1,6,0:0:0:0:
414,166,55463,1,0,0:0:0:0:
412,120,55572,1,0,0:0:0:0:
378,90,55681,1,0,0:0:0:0:
352,66,55789,5,6,0:0:0:0:
318,69,55898,1,0,0:0:0:0:
286,57,56007,1,0,0:0:0:0:
253,63,56115,1,0,0:0:0:0:
219,59,56224,1,14,0:0:0:0:
174,65,56333,1,0,0:0:0:0:
136,90,56441,1,8,0:0:0:0:
117,130,56550,1,8,0:0:0:0:
79,157,56659,6,0,P|112:193|157:214,1,100,6|0,0:0|0:0,0:0:0:0:
206,204,56985,1,2,0:0:0:0:
254,214,57094,2,0,L|283:254,1,50,8|0,0:0|0:0,0:0:0:0:
285,304,57311,1,0,0:0:0:0:
335,304,57420,1,2,0:0:0:0:
378,327,57528,6,0,L|427:320,1,50,6|8,0:0|0:0,0:0:0:0:
469,292,57746,1,2,0:0:0:0:
457,243,57854,1,0,0:0:0:0:
482,199,57963,2,0,L|454:158,1,50,8|0,0:0|0:0,0:0:0:0:
404,170,58181,1,2,0:0:0:0:
358,150,58289,1,0,0:0:0:0:
328,109,58398,6,0,P|280:93|230:91,1,100,6|0,0:0|0:0,0:0:0:0:
186,115,58724,1,2,0:0:0:0:
142,90,58833,2,0,L|97:113,1,50,8|0,0:0|0:0,0:0:0:0:
77,67,59050,2,0,L|38:34,1,50,0|2,0:0|0:0,0:0:0:0:
7,72,59267,6,0,P|2:122|12:171,1,100,2|2,0:0|0:0,0:0:0:0:
47,207,59594,1,0,0:0:0:0:
55,255,59702,2,0,L|50:315,1,50,12|0,0:0|0:0,0:0:0:0:
28,349,59920,2,0,L|74:366,1,50,2|0,0:0|0:0,0:0:0:0:
125,361,60137,6,0,P|169:339|203:303,1,100,6|0,0:0|0:0,0:0:0:0:
173,262,60463,1,2,0:0:0:0:
133,231,60572,2,0,L|103:271,1,50,8|0,0:0|0:0,0:0:0:0:
55,255,60789,1,2,0:0:0:0:
47,207,60898,1,0,0:0:0:0:
69,162,61007,6,0,L|19:155,1,50,6|0,0:0|0:0,0:0:0:0:
38,108,61224,1,2,0:0:0:0:
7,72,61333,1,0,0:0:0:0:
34,30,61441,2,0,L|85:15,1,50,8|0,0:0|0:0,0:0:0:0:
112,56,61659,1,2,0:0:0:0:
159,71,61767,1,0,0:0:0:0:
200,43,61876,6,0,P|247:27|297:25,1,100,6|0,0:0|0:0,0:0:0:0:
318,71,62202,1,2,0:0:0:0:
364,52,62311,2,0,L|408:75,1,50,8|0,0:0|0:0,0:0:0:0:
454,55,62528,2,0,L|476:119,1,50,0|2,0:0|0:0,0:0:0:0:
507,135,62746,6,0,P|477:175|460:222,1,100,2|2,0:0|0:0,0:0:0:0:
442,269,63072,1,0,0:0:0:0:
394,255,63181,2,0,L|399:315,1,50,12|0,0:0|0:0,0:0:0:0:
417,351,63398,2,0,L|370:368,1,50,2|0,0:0|0:0,0:0:0:0:
321,349,63615,6,0,P|272:342|222:344,1,100,6|0,0:0|0:0,0:0:0:0:
185,310,63941,1,2,0:0:0:0:
138,329,64050,2,0,L|88:337,1,50,8|0,0:0|0:0,0:0:0:0:
38,341,64267,1,0,0:0:0:0:
68,300,64376,1,2,0:0:0:0:
68,248,64485,6,0,P|98:209|120:164,1,100,6|2,0:0|0:0,0:0:0:0:
107,116,64811,1,0,0:0:0:0:
92,67,64920,2,0,L|48:41,1,50,8|0,0:0|0:0,0:0:0:0:
62,90,65137,2,0,L|115:100,1,50,2|8,0:0|0:0,0:0:0:0:
142,138,65354,6,0,P|191:144|241:142,1,100,6|0,0:0|0:0,0:0:0:0:
274,104,65681,1,2,0:0:0:0:
288,56,65789,2,0,P|332:33|380:20,2,100,8|0|2,0:0|0:0|0:0,0:0:0:0:
292,106,66333,5,8,0:0:0:0:
311,151,66441,1,2,0:0:0:0:
330,104,66550,1,0,0:0:0:0:
377,85,66659,2,0,P|426:82|476:90,1,100,12|0,0:0|0:0,0:0:0:0:
373,311,67094,6,0,L|350:266,1,50,6|0,0:0|0:0,0:0:0:0:
356,216,67311,1,0,0:0:0:0:
456,365,67528,1,8,0:0:0:0:
239,261,67746,2,0,L|241:211,1,50,2|0,0:0|0:0,0:0:0:0:
271,170,67963,5,6,0:0:0:0:
283,349,68181,1,2,0:0:0:0:
146,150,68398,2,0,L|173:108,1,50,8|0,0:0|0:0,0:0:0:0:
218,85,68615,2,0,L|236:38,1,50,8|0,0:0|0:0,0:0:0:0:
286,33,68833,5,6,0:0:0:0:
335,26,68941,1,0,0:0:0:0:
383,36,69050,1,0,0:0:0:0:
422,67,69159,1,2,0:0:0:0:
445,110,69267,1,8,0:0:0:0:
442,160,69376,1,0,0:0:0:0:
421,205,69485,1,2,0:0:0:0:
383,237,69594,1,2,0:0:0:0:
345,250,69702,5,2,0:0:0:0:
307,235,69811,1,8,0:0:0:0:
266,233,69920,1,2,0:0:0:0:
229,249,70028,1,0,0:0:0:0:
206,281,70137,1,12,0:0:0:0:
158,298,70246,1,0,0:0:0:0:
109,284,70354,1,2,0:0:0:0:
74,247,70463,1,0,0:0:0:0:
73,197,70572,6,0,P|118:176|151:139,1,100,6|0,0:0|0:0,0:0:0:0:
135,92,70898,1,2,0:0:0:0:
167,53,71007,2,0,L|206:22,1,50,8|0,0:0|0:0,0:0:0:0:
245,54,71224,1,2,0:0:0:0:
262,100,71333,1,2,0:0:0:0:
246,147,71441,6,0,L|197:140,1,50,6|8,0:0|0:0,0:0:0:0:
145,140,71659,1,2,0:0:0:0:
135,92,71767,1,0,0:0:0:0:
90,68,71876,2,0,L|121:29,1,50,8|0,0:0|0:0,0:0:0:0:
167,53,72094,1,2,0:0:0:0:
202,87,72202,1,0,0:0:0:0:
245,54,72311,6,0,P|293:38|343:36,1,100,6|0,0:0|0:0,0:0:0:0:
349,85,72637,1,2,0:0:0:0:
396,102,72746,2,0,L|441:125,1,50,8|0,0:0|0:0,0:0:0:0:
465,168,72963,2,0,L|426:200,1,50,0|2,0:0|0:0,0:0:0:0:
379,217,73181,6,0,P|332:197|294:164,1,100,2|2,0:0|0:0,0:0:0:0:
246,147,73507,1,0,0:0:0:0:
224,191,73615,2,0,L|229:251,1,50,12|0,0:0|0:0,0:0:0:0:
257,281,73833,2,0,L|211:298,1,50,2|0,0:0|0:0,0:0:0:0:
160,308,74050,6,0,P|158:258|174:211,1,100,6|0,0:0|0:0,0:0:0:0:
137,177,74376,1,2,0:0:0:0:
87,185,74485,2,0,L|57:145,1,50,8|0,0:0|0:0,0:0:0:0:
81,101,74702,1,2,0:0:0:0:
47,63,74811,1,2,0:0:0:0:
88,34,74920,6,0,L|138:27,1,50,6|8,0:0|0:0,0:0:0:0:
186,40,75137,1,2,0:0:0:0:
224,71,75246,1,0,0:0:0:0:
262,103,75354,2,0,L|211:88,1,50,8|0,0:0|0:0,0:0:0:0:
186,40,75572,1,2,0:0:0:0:
153,77,75681,1,0,0:0:0:0:
103,82,75789,6,0,P|53:83|6:100,1,100,6|0,0:0|0:0,0:0:0:0:
27,145,76115,1,2,0:0:0:0:
36,194,76224,2,0,L|7:240,1,50,8|0,0:0|0:0,0:0:0:0:
33,280,76441,2,0,L|11:344,1,50,0|2,0:0|0:0,0:0:0:0:
64,343,76659,6,0,P|112:354|155:379,1,100,2|2,0:0|0:0,0:0:0:0:
198,352,76985,1,0,0:0:0:0:
245,365,77094,2,0,L|249:315,1,50,12|0,0:0|0:0,0:0:0:0:
294,294,77311,2,0,L|341:311,1,50,2|0,0:0|0:0,0:0:0:0:
369,353,77528,6,0,P|418:355|468:348,1,100,6|0,0:0|0:0,0:0:0:0:
492,304,77854,1,2,0:0:0:0:
479,255,77963,2,0,L|429:246,1,50,8|0,0:0|0:0,0:0:0:0:
379,254,78181,1,2,0:0:0:0:
353,211,78289,1,2,0:0:0:0:
303,218,78398,6,0,P|272:178|250:133,1,100,6|2,0:0|0:0,0:0:0:0:
293,106,78724,1,0,0:0:0:0:
283,56,78833,2,0,L|326:30,1,50,8|0,0:0|0:0,0:0:0:0:
279,48,79050,2,0,L|226:58,1,50,2|8,0:0|0:0,0:0:0:0:
208,102,79267,6,0,P|158:108|108:106,1,100,6|0,0:0|0:0,0:0:0:0:
67,77,79594,1,2,0:0:0:0:
111,98,79702,2,0,P|129:144|138:193,2,100,8|0|2,0:0|0:0|0:0,0:0:0:0:
128,50,80246,5,8,0:0:0:0:
102,92,80354,1,2,0:0:0:0:
105,142,80463,1,0,0:0:0:0:
125,187,80572,2,0,P|174:195|220:213,1,100,12|10,0:0|0:0,0:0:0:0:
398,262,81007,6,0,L|420:217,1,50,6|0,0:0|0:0,0:0:0:0:
415,167,81224,1,0,0:0:0:0:
478,336,81441,1,8,0:0:0:0:
290,185,81659,6,0,L|331:157,1,50,2|0,0:0|0:0,0:0:0:0:
352,111,81876,1,6,0:0:0:0:
322,289,82094,1,2,0:0:0:0:
243,60,82311,6,0,L|292:57,1,50,8|0,0:0|0:0,0:0:0:0:
343,59,82528,2,0,L|376:16,1,50,10|8,0:0|0:0,0:0:0:0:
323,25,82746,5,6,0:0:0:0:
273,35,82854,1,8,0:0:0:0:
222,33,82963,1,0,0:0:0:0:
173,19,83072,1,2,0:0:0:0:
123,26,83181,1,8,0:0:0:0:
80,51,83289,1,0,0:0:0:0:
56,95,83398,1,2,0:0:0:0:
55,145,83507,1,2,0:0:0:0:
73,191,83615,5,8,0:0:0:0:
105,213,83724,1,0,0:0:0:0:
144,220,83833,1,8,0:0:0:0:
183,210,83941,1,0,0:0:0:0:
232,213,84050,1,10,0:0:0:0:
249,260,84159,1,0,0:0:0:0:
284,295,84267,1,8,0:0:0:0:
333,303,84376,1,0,0:0:0:0:
382,295,84485,5,2,0:0:0:0:
