osu file format v14

[General]
AudioFilename: kaoru.mp3
AudioLeadIn: 0
PreviewTime: 789
Countdown: 0
SampleSet: Soft
StackLeniency: 0.2
Mode: 0
LetterboxInBreaks: 0
WidescreenStoryboard: 0

[Editor]
DistanceSpacing: 1
BeatDivisor: 4
GridSize: 4
TimelineZoom: 2.899999

[Metadata]
Title:Kaoru Juyouka
TitleUnicode:香る樹葉花
Artist:Akiyama Uni
ArtistUnicode:あきやまうに
Creator:Hollow Wings
Version:Insane
Source:東方Project
Tags:Touhou th10.5 th12.3 fxt fxtz Twilight Frontier Tasofro 黄昏フロンティア zun 東方緋想天 ~ Scarlet Weather Rhapsody 東方非想天則 ~ 超弩級ギニョルの謎を追え jun Fragrant Plants 霧雨 魔理沙 きりさめ まりさ Kirisame Marisa hw
BeatmapID:1552572
BeatmapSetID:397764

[Difficulty]
HPDrainRate:5
CircleSize:4
OverallDifficulty:7
ApproachRate:8
SliderMultiplier:1
SliderTickRate:1

[Events]
//Background and Video events
0,0,"kaoru.jpg",0,0
//Break Periods
//Storyboard Layer 0 (Background)
//Storyboard Layer 1 (Fail)
//Storyboard Layer 2 (Pass)
//Storyboard Layer 3 (Foreground)
//Storyboard Sound Samples

[TimingPoints]
-732,434.782608695652,4,2,1,70,1,0
1007,-100,4,2,1,70,0,0
7963,-100,4,2,1,80,0,0
21876,-80,4,2,1,80,0,0
35789,-200,4,1,1,80,0,0
49702,-66.6666666666667,4,2,1,70,0,0
56659,-50,4,2,1,80,0,1
70354,-50,4,2,1,80,0,0
70572,-50,4,2,1,80,0,1
84485,-100,4,2,1,80,0,0

[Colours]
Combo1 : 128,64,0
Combo2 : 255,253,66

[HitObjects]
110,130,1007,5,2,0:0:0:0:
111,154,1115,1,0,0:0:0:0:
121,176,1224,1,0,0:0:0:0:
138,194,1333,1,2,0:0:0:0:
161,200,1441,2,0,L|195:185,3,25,8|0|0|0,0:0|0:0|0:0|0:0,0:0:0:0:
208,191,1876,5,2,0:0:0:0:
232,192,1984,1,8,0:0:0:0:
255,201,2093,1,2,0:0:0:0:
270,221,2202,1,0,0:0:0:0:
284,241,2310,2,0,L|285:265,3,25,8|0|2|8,0:0|0:0|0:0|0:0,0:0:0:0:
309,275,2746,5,2,0:0:0:0:
333,272,2854,1,0,0:0:0:0:
356,263,2963,1,0,0:0:0:0:
376,248,3072,1,2,0:0:0:0:
390,227,3180,2,0,L|424:212,3,25,8|0|0|2,0:0|0:0|0:0|0:0,0:0:0:0:
408,241,3615,5,2,0:0:0:0:
396,263,3723,1,8,0:0:0:0:
394,287,3832,1,2,0:0:0:0:
402,310,3941,1,0,0:0:0:0:
421,325,4049,2,0,L|444:332,3,25,8|0|2|0,0:0|0:0|0:0|0:0,0:0:0:0:
445,307,4485,5,2,0:0:0:0:
458,286,4593,1,0,0:0:0:0:
457,260,4702,1,0,0:0:0:0:
445,237,4811,1,2,0:0:0:0:
447,212,4919,2,0,L|422:208,3,25,8|0|0|2,0:0|0:0|0:0|0:0,0:0:0:0:
400,195,5354,5,2,0:0:0:0:
378,182,5462,1,8,0:0:0:0:
361,163,5571,1,2,0:0:0:0:
355,138,5680,1,0,0:0:0:0:
361,114,5788,2,0,L|371:91,3,25,8|0|2|8,0:0|0:0|0:0|0:0,0:0:0:0:
363,67,6224,5,2,0:0:0:0:
343,50,6332,1,0,0:0:0:0:
317,49,6441,1,0,0:0:0:0:
293,58,6550,1,2,0:0:0:0:
274,75,6659,1,8,0:0:0:0:
247,104,6767,1,0,0:0:0:0:
208,115,6876,1,0,0:0:0:0:
170,102,6985,1,2,0:0:0:0:
144,71,7094,6,0,L|119:73,1,25,2|8,0:0|0:0,0:0:0:0:
85,147,7311,2,0,L|109:144,1,25,2|0,0:0|0:0,0:0:0:0:
154,211,7528,2,0,L|129:213,1,25,2|0,0:0|0:0,0:0:0:0:
95,287,7745,2,0,L|119:284,1,25,8|0,0:0|0:0,0:0:0:0:
200,296,7963,6,0,P|223:304|248:305,1,50,6|0,0:0|0:0,0:0:0:0:
326,286,8398,1,8,0:0:0:0:
370,219,8615,1,0,0:0:0:0:
407,205,8724,1,2,0:0:0:0:
447,205,8833,2,0,P|471:206|495:214,2,50,2|2|8,0:0|0:0|0:0,0:0:0:0:
370,181,9485,1,2,0:0:0:0:
329,178,9594,1,8,0:0:0:0:
293,158,9702,6,0,P|272:145|259:124,1,50,2|0,0:0|0:0,0:0:0:0:
244,45,10137,1,8,0:0:0:0:
185,98,10354,1,0,0:0:0:0:
148,114,10463,1,2,0:0:0:0:
107,106,10572,2,0,P|83:105|60:115,2,50,2|2|8,0:0|0:0|0:0,0:0:0:0:
108,187,11224,1,2,0:0:0:0:
186,182,11441,6,0,P|194:206|198:231,1,50,2|0,0:0|0:0,0:0:0:0:
153,297,11876,1,8,0:0:0:0:
76,319,12094,1,0,0:0:0:0:
37,308,12202,1,2,0:0:0:0:
10,277,12311,2,0,P|33:269|58:269,1,50,2|2,0:0|0:0,0:0:0:0:
152,296,12746,2,0,P|173:311|197:318,1,50,8|2,0:0|0:0,0:0:0:0:
299,322,13181,5,2,0:0:0:0:
282,243,13398,2,0,L|273:228,3,16.6666666666667,0|0|0|8,0:0|0:0|0:0|0:0,0:0:0:0:
362,269,13833,1,2,0:0:0:0:
423,318,14050,2,0,P|448:314|473:308,1,50,8|2,0:0|0:0,0:0:0:0:
498,232,14485,1,2,0:0:0:0:
420,213,14702,1,2,0:0:0:0:
362,269,14920,6,0,P|338:277|313:278,1,50,6|0,0:0|0:0,0:0:0:0:
233,278,15355,1,8,0:0:0:0:
172,225,15572,1,0,0:0:0:0:
134,209,15681,1,2,0:0:0:0:
93,207,15790,2,0,P|68:208|44:216,2,50,2|2|8,0:0|0:0|0:0,0:0:0:0:
84,286,16442,1,2,0:0:0:0:
121,301,16551,1,8,0:0:0:0:
160,294,16659,6,0,P|180:280|193:259,1,50,2|0,0:0|0:0,0:0:0:0:
244,196,17094,1,8,0:0:0:0:
193,134,17311,1,0,0:0:0:0:
228,116,17420,1,2,0:0:0:0:
268,113,17529,2,0,P|292:111|315:121,2,50,2|2|8,0:0|0:0|0:0,0:0:0:0:
240,37,18181,1,2,0:0:0:0:
163,58,18398,6,0,P|138:63|113:62,1,50,2|0,0:0|0:0,0:0:0:0:
36,41,18833,1,8,0:0:0:0:
52,119,19051,1,0,0:0:0:0:
72,153,19159,1,2,0:0:0:0:
110,165,19268,2,0,P|134:165|158:157,1,50,2|2,0:0|0:0,0:0:0:0:
229,231,19703,2,0,P|249:245|273:252,1,50,8|2,0:0|0:0,0:0:0:0:
290,351,20138,5,2,0:0:0:0:
368,339,20354,2,0,L|376:324,3,16.6666666666667,2|0|0|8,0:0|0:0|0:0|0:0,0:0:0:0:
445,362,20790,1,2,0:0:0:0:
489,295,21007,2,0,P|466:286|442:283,1,50,2|2,0:0|0:0,0:0:0:0:
370,247,21442,1,10,0:0:0:0:
311,192,21659,1,2,0:0:0:0:
291,157,21767,1,0,0:0:0:0:
289,106,21876,6,0,P|318:95|349:93,1,62.5,6|0,0:0|0:0,0:0:0:0:
447,113,22311,1,8,0:0:0:0:
461,211,22528,1,0,0:0:0:0:
420,240,22637,1,2,0:0:0:0:
370,247,22746,2,0,P|338:249|310:262,2,62.5,2|2|8,0:0|0:0|0:0,0:0:0:0:
365,347,23398,1,2,0:0:0:0:
316,360,23507,1,8,0:0:0:0:
266,353,23615,6,0,P|240:334|223:309,1,62.5,2|0,0:0|0:0,0:0:0:0:
212,209,24050,1,8,0:0:0:0:
138,140,24267,1,0,0:0:0:0:
110,182,24376,1,2,0:0:0:0:
114,231,24485,2,0,P|135:253|143:282,2,62.5,2|2|8,0:0|0:0|0:0,0:0:0:0:
14,215,25137,1,2,0:0:0:0:
32,117,25354,6,0,P|41:87|62:64,1,62.5,2|0,0:0|0:0,0:0:0:0:
153,22,25789,1,8,0:0:0:0:
242,67,26007,1,2,0:0:0:0:
289,81,26115,1,2,0:0:0:0:
335,66,26224,2,0,P|365:57|397:57,1,62.5,2|2,0:0|0:0,0:0:0:0:
327,162,26659,2,0,P|354:179|384:186,1,62.5,8|2,0:0|0:0,0:0:0:0:
484,183,27094,5,2,0:0:0:0:
432,268,27311,2,0,L|438:287,3,20.8333333333333,0|0|0|8,0:0|0:0|0:0|0:0,0:0:0:0:
339,275,27746,1,2,0:0:0:0:
277,352,27963,2,0,P|246:359|215:359,1,62.5,2|0,0:0|0:0,0:0:0:0:
148,285,28398,1,8,0:0:0:0:
51,308,28615,1,2,0:0:0:0:
100,220,28833,6,0,P|70:209|39:207,1,62.5,6|0,0:0|0:0,0:0:0:0:
51,308,29268,1,8,0:0:0:0:
137,357,29485,1,0,0:0:0:0:
186,349,29594,1,2,0:0:0:0:
224,316,29703,2,0,P|233:287|227:256,2,62.5,2|2|8,0:0|0:0|0:0,0:0:0:0:
323,304,30354,1,2,0:0:0:0:
373,296,30464,1,8,0:0:0:0:
417,315,30572,6,0,P|443:334|461:359,1,62.5,2|0,0:0|0:0,0:0:0:0:
503,268,31007,1,8,0:0:0:0:
494,168,31224,1,0,0:0:0:0:
447,185,31333,1,2,0:0:0:0:
414,222,31442,2,0,P|382:224|352:215,2,62.5,2|2|8,0:0|0:0|0:0,0:0:0:0:
389,125,32094,1,2,0:0:0:0:
326,46,32311,6,0,P|302:66|291:95,1,62.5,2|0,0:0|0:0,0:0:0:0:
212,158,32746,1,8,0:0:0:0:
126,105,32964,1,0,0:0:0:0:
169,80,33072,1,2,0:0:0:0:
164,30,33181,2,0,P|134:21|103:23,1,62.5,2|2,0:0|0:0,0:0:0:0:
39,100,33616,2,0,P|41:131|57:158,1,62.5,8|2,0:0|0:0,0:0:0:0:
60,258,34051,5,2,0:0:0:0:
102,348,34268,2,0,L|95:367,3,20.8333333333333,2|0|0|2,0:0|0:0|0:0|0:0,0:0:0:0:
165,267,34703,1,8,0:0:0:0:
173,167,34920,2,0,P|203:160|234:160,1,62.5,2|8,0:0|0:0,0:0:0:0:
267,254,35355,1,14,0:0:0:0:
336,325,35572,1,2,0:0:0:0:
435,334,35789,6,0,L|441:358,2,25,2|0|2,0:0|0:0|0:0,0:0:0:0:
448,244,36441,1,2,0:0:0:0:
438,226,36550,1,2,0:0:0:0:
439,206,36659,2,0,L|460:187,2,25,2|2|2,0:0|0:0|0:0,0:0:0:0:
355,174,37311,1,2,0:0:0:0:
290,112,37528,6,0,L|271:128,1,25,2|2,0:0|0:0,0:0:0:0:
241,126,37818,2,0,L|235:119,2,8.33333333333333,0|0|2,0:0|0:0|0:0,0:0:0:0:
256,215,38181,1,2,0:0:0:0:
236,219,38289,1,2,0:0:0:0:
216,215,38398,2,0,L|192:207,2,25,2|2|8,0:0|0:2|0:2,0:0:0:0:
185,300,39050,1,2,0:0:0:0:
98,318,39267,6,0,L|79:334,2,25,2|0|2,0:0|0:0|0:0,0:0:0:0:
66,233,39920,1,2,0:0:0:0:
75,215,40028,1,2,0:0:0:0:
73,194,40137,2,0,L|54:177,2,25,2|0|2,0:0|0:0|0:0,0:0:0:0:
155,156,40789,1,2,0:0:0:0:
182,71,41007,6,0,L|177:43,2,25,2|0|2,0:0|0:0|0:0,0:0:0:0:
241,139,41659,1,2,0:2:0:0:
260,143,41767,1,0,0:0:0:0:
280,142,41876,1,2,0:0:0:0:
299,137,41985,1,0,0:0:0:0:
317,129,42094,1,2,0:2:0:0:
387,73,42311,2,0,P|405:67|424:65,1,37.5,8|2,0:2|0:0,0:0:0:0:
444,69,42746,6,0,L|450:44,2,25,2|0|2,0:0|0:0|0:0,0:0:0:0:
416,153,43398,1,0,0:0:0:0:
397,160,43507,1,2,0:0:0:0:
380,171,43616,2,0,L|359:152,2,25,2|2|2,0:0|0:0|0:0,0:0:0:0:
435,243,44268,1,2,0:0:0:0:
431,331,44485,6,0,L|441:358,1,25,2|2,0:0|0:0,0:0:0:0:
470,353,44775,2,0,L|476:360,2,8.33333333333333,0|0|2,0:0|0:0|0:0,0:0:0:0:
381,337,45138,1,0,0:0:0:0:
362,328,45246,1,2,0:0:0:0:
341,328,45355,2,0,L|317:335,2,25,2|2|8,0:0|0:2|0:2,0:0:0:0:
260,283,46007,1,2,0:0:0:0:
171,281,46224,6,0,L|152:264,2,25,2|0|2,0:0|0:0|0:0,0:0:0:0:
217,203,46877,1,0,0:0:0:0:
222,184,46985,1,2,0:0:0:0:
237,171,47094,2,0,L|255:154,2,25,2|2|2,0:0|0:0|0:0,0:0:0:0:
147,156,47746,1,2,0:0:0:0:
57,169,47964,6,0,L|31:180,2,25,2|0|2,0:0|0:0|0:0,0:0:0:0:
86,83,48616,1,2,0:2:0:0:
104,75,48724,1,0,0:0:0:0:
124,73,48833,1,2,0:0:0:0:
143,76,48942,1,0,0:0:0:0:
161,83,49051,1,2,0:2:0:0:
243,120,49268,2,0,L|265:128,1,25,8|2,0:2|0:0,0:0:0:0:
341,126,49702,5,2,0:0:0:0:
372,146,49810,1,0,0:0:0:0:
390,178,49919,1,0,0:0:0:0:
394,215,50028,1,2,0:0:0:0:
391,252,50137,2,0,L|354:259,1,37.5000014305115,8|0,0:0|0:0,0:0:0:0:
325,329,50354,2,0,L|288:321,1,37.5000014305115,2|0,0:0|0:0,0:0:0:0:
257,251,50572,5,2,0:0:0:0:
220,243,50680,1,8,0:0:0:0:
184,254,50789,1,2,0:0:0:0:
156,280,50898,1,2,0:0:0:0:
146,316,51007,2,0,L|109:323,3,37.5000014305115,8|0|2|0,0:0|0:0|0:0|0:0,0:0:0:0:
63,265,51441,5,2,0:0:0:0:
62,227,51549,1,0,0:0:0:0:
82,195,51658,1,0,0:0:0:0:
85,157,51767,1,2,0:0:0:0:
118,139,51876,1,8,0:0:0:0:
131,104,51984,1,0,0:0:0:0:
165,89,52093,1,0,0:0:0:0:
194,66,52202,1,0,0:0:0:0:
231,65,52311,5,2,0:0:0:0:
268,60,52419,1,8,0:0:0:0:
304,70,52528,1,2,0:0:0:0:
341,72,52637,1,2,0:0:0:0:
375,87,52746,2,0,L|412:82,3,37.5000014305115,8|0|2|0,0:0|0:0|0:0|0:0,0:0:0:0:
424,157,53181,6,0,L|460:164,3,37.5000014305115,2|0|0|2,0:0|0:0|0:0|0:0,0:0:0:0:
426,232,53615,2,0,L|389:239,3,37.5000014305115,8|0|2|0,0:0|0:0|0:0|0:0,0:0:0:0:
321,271,54050,6,0,L|284:263,3,37.5000014305115,2|0|0|2,0:0|0:0|0:0|0:0,0:0:0:0:
279,339,54485,2,0,L|242:346,3,37.5000014305115,8|0|2|0,0:0|0:0|0:0|0:0,0:0:0:0:
178,312,54920,5,6,0:0:0:0:
153,283,55028,1,0,0:0:0:0:
154,245,55137,1,0,0:0:0:0:
138,210,55246,1,0,0:0:0:0:
105,190,55355,2,0,L|79:135,3,37.5000014305115,6|0|0|0,0:0|0:0|0:0|0:0,0:0:0:0:
159,129,55789,6,0,L|174:94,3,37.5000014305115,6|0|0|0,0:0|0:0|0:0|0:0,0:0:0:0:
99,36,56224,1,14,0:0:0:0:
141,19,56333,1,0,0:0:0:0:
186,19,56442,1,8,0:0:0:0:
229,32,56550,1,8,0:0:0:0:
268,64,56659,6,0,P|311:89|359:100,1,100,6|0,0:0|0:0,0:0:0:0:
409,98,56985,1,2,0:0:0:0:
454,77,57094,1,8,0:0:0:0:
403,275,57311,1,0,0:0:0:0:
231,173,57528,6,0,P|182:184|139:209,1,100,6|2,0:0|0:0,0:0:0:0:
108,248,57854,1,0,0:0:0:0:
97,296,57963,1,8,0:0:0:0:
26,110,58180,1,2,0:0:0:0:
158,257,58398,6,0,P|189:297|205:344,1,100,6|0,0:0|0:0,0:0:0:0:
251,323,58724,1,2,0:0:0:0:
286,288,58833,2,0,P|329:313|377:324,1,100,8|0,0:0|0:0,0:0:0:0:
489,153,59267,6,0,P|440:164|397:189,1,100,2|2,0:0|0:0,0:0:0:0:
488,6,59702,1,12,0:0:0:0:
342,141,59920,1,2,0:0:0:0:
145,161,60137,6,0,P|96:149|53:124,1,100,6|0,0:0|0:0,0:0:0:0:
22,85,60463,1,2,0:0:0:0:
11,37,60572,1,8,0:0:0:0:
67,225,60789,1,2,0:0:0:0:
142,41,61006,6,0,P|185:15|233:4,1,100,6|2,0:0|0:0,0:0:0:0:
273,34,61332,1,0,0:0:0:0:
277,83,61441,1,8,0:0:0:0:
472,31,61658,1,2,0:0:0:0:
333,175,61876,6,0,P|302:214|286:261,1,100,6|0,0:0|0:0,0:0:0:0:
271,309,62202,1,2,0:0:0:0:
226,332,62311,2,0,P|183:357|135:368,1,100,8|0,0:0|0:0,0:0:0:0:
152,170,62745,6,0,P|200:181|243:206,1,100,2|2,0:0|0:0,0:0:0:0:
442,248,63180,1,12,0:0:0:0:
234,295,63398,1,2,0:0:0:0:
430,327,63615,6,0,P|386:351|338:363,1,100,6|0,0:0|0:0,0:0:0:0:
322,315,63941,1,2,0:0:0:0:
271,309,64050,1,8,0:0:0:0:
75,347,64267,1,0,0:0:0:0:
225,213,64484,6,0,P|182:187|134:176,1,100,6|2,0:0|0:0,0:0:0:0:
133,125,64810,1,0,0:0:0:0:
88,102,64919,1,8,0:0:0:0:
17,290,65136,1,2,0:0:0:0:
202,370,65354,6,0,P|250:358|293:333,1,100,6|0,0:0|0:0,0:0:0:0:
292,283,65680,1,2,0:0:0:0:
268,238,65789,2,0,P|284:190|315:151,1,100,8|0,0:0|0:0,0:0:0:0:
389,335,66223,6,0,P|431:309|480:298,1,100,2|2,0:0|0:0,0:0:0:0:
396,112,66658,1,12,0:0:0:0:
292,283,66876,1,2,0:0:0:0:
117,178,67094,5,6,0:0:0:0:
166,172,67202,1,0,0:0:0:0:
118,190,67311,2,0,P|114:140|129:92,1,100,0|8,0:0|0:0,0:0:0:0:
268,238,67746,1,2,0:0:0:0:
307,208,67854,1,0,0:0:0:0:
276,248,67963,6,0,P|248:206|237:158,1,100,6|2,0:0|0:0,0:0:0:0:
432,218,68398,1,8,0:0:0:0:
451,172,68506,1,0,0:0:0:0:
447,231,68614,1,8,0:0:0:0:
486,211,68723,1,0,0:0:0:0:
444,222,68832,6,0,P|399:200|365:163,2,100,6|0|8,0:0|0:0|0:0,0:0:0:0:
284,349,69485,1,2,0:0:0:0:
238,329,69593,1,2,0:0:0:0:
188,337,69702,6,0,P|138:339|88:332,1,100,2|2,0:0|0:0,0:0:0:0:
48,131,70137,1,12,0:0:0:0:
97,139,70246,1,0,0:0:0:0:
146,129,70355,1,2,0:0:0:0:
156,80,70463,1,0,0:0:0:0:
138,32,70572,6,0,P|89:43|46:68,1,100,6|0,0:0|0:0,0:0:0:0:
53,117,70898,1,2,0:0:0:0:
97,139,71007,1,8,0:0:0:0:
11,322,71224,1,2,0:0:0:0:
172,203,71441,6,0,P|221:214|264:239,1,100,6|2,0:0|0:0,0:0:0:0:
303,269,71767,1,0,0:0:0:0:
353,265,71876,1,8,0:0:0:0:
443,82,72093,1,2,0:0:0:0:
427,286,72311,6,0,P|443:333|473:372,1,100,6|0,0:0|0:0,0:0:0:0:
485,323,72637,1,2,0:0:0:0:
476,273,72746,2,0,P|427:284|384:309,1,100,8|0,0:0|0:0,0:0:0:0:
261,150,73180,6,0,P|310:161|353:186,1,100,2|2,0:0|0:0,0:0:0:0:
444,7,73615,1,12,0:0:0:0:
254,71,73833,1,2,0:0:0:0:
178,255,74050,6,0,P|201:210|212:161,1,100,6|0,0:0|0:0,0:0:0:0:
261,150,74376,1,2,0:0:0:0:
306,171,74485,1,8,0:0:0:0:
189,332,74702,1,2,0:0:0:0:
173,134,74919,6,0,P|130:108|82:97,1,100,6|2,0:0|0:0,0:0:0:0:
44,64,75245,1,0,0:0:0:0:
26,17,75354,1,8,0:0:0:0:
93,206,75571,1,2,0:0:0:0:
296,216,75789,6,0,P|327:255|343:302,1,100,6|0,0:0|0:0,0:0:0:0:
344,352,76115,1,2,0:0:0:0:
364,306,76224,2,0,P|407:281|455:270,1,100,8|0,0:0|0:0,0:0:0:0:
476,66,76658,6,0,P|433:40|384:29,1,100,2|2,0:0|0:0,0:0:0:0:
494,198,77093,1,12,0:0:0:0:
296,216,77311,1,2,0:0:0:0:
131,329,77528,6,0,P|82:317|39:292,1,100,6|0,0:0|0:0,0:0:0:0:
80,263,77854,1,2,0:0:0:0:
67,214,77963,1,8,0:0:0:0:
238,318,78180,1,2,0:0:0:0:
122,153,78397,6,0,P|165:127|214:115,1,100,6|2,0:0|0:0,0:0:0:0:
264,116,78723,1,0,0:0:0:0:
281,69,78832,1,8,0:0:0:0:
309,265,79049,1,2,0:0:0:0:
113,229,79267,6,0,P|161:217|204:192,1,100,6|0,0:0|0:0,0:0:0:0:
254,200,79593,1,2,0:0:0:0:
286,161,79702,2,0,P|316:199|333:247,1,100,8|0,0:0|0:0,0:0:0:0:
492,122,80136,6,0,P|443:133|400:158,1,100,2|2,0:0|0:0,0:0:0:0:
377,358,80571,1,12,0:0:0:0:
504,204,80789,1,10,0:0:0:0:
319,290,81007,5,6,0:0:0:0:
270,284,81115,1,0,0:0:0:0:
318,302,81224,2,0,P|321:252|306:204,1,100,0|8,0:0|0:0,0:0:0:0:
142,333,81659,1,2,0:0:0:0:
103,303,81767,1,0,0:0:0:0:
134,343,81876,6,0,P|161:301|172:253,1,100,6|2,0:0|0:0,0:0:0:0:
72,79,82311,1,8,0:0:0:0:
53,33,82419,1,0,0:0:0:0:
57,92,82527,1,10,0:0:0:0:
18,72,82636,1,8,0:0:0:0:
60,83,82745,6,0,P|104:61|138:24,1,100,6|0,0:0|0:0,0:0:0:0:
334,61,83181,2,0,P|383:64|431:49,1,100,8|0,0:0|0:0,0:0:0:0:
460,89,83506,1,2,0:0:0:0:
417,114,83615,6,0,P|372:91|333:60,1,100,8|8,0:0|0:0,0:0:0:0:
217,235,84050,1,10,0:0:0:0:
185,273,84159,1,0,0:0:0:0:
137,288,84267,1,8,0:0:0:0:
86,287,84376,1,0,0:0:0:0:
39,266,84485,5,2,0:0:0:0:
