osu file format v14

[General]
AudioFilename: kaoru.mp3
AudioLeadIn: 0
PreviewTime: 789
Countdown: 0
SampleSet: Soft
StackLeniency: 0.2
Mode: 0
LetterboxInBreaks: 0
WidescreenStoryboard: 1

[Editor]
DistanceSpacing: 2
BeatDivisor: 4
GridSize: 4
TimelineZoom: 2.899999

[Metadata]
Title:Kaoru Juyouka
TitleUnicode:香る樹葉花
Artist:Akiyama Uni
ArtistUnicode:あきやまうに
Creator:Hollow Wings
Version:Hard
Source:東方Project
Tags:Touhou th10.5 th12.3 fxt fxtz Twilight Frontier Tasofro 黄昏フロンティア zun 東方緋想天 ~ Scarlet Weather Rhapsody 東方非想天則 ~ 超弩級ギニョルの謎を追え jun Fragrant Plants 霧雨 魔理沙 きりさめ まりさ Kirisame Marisa hw
BeatmapID:1553179
BeatmapSetID:397764

[Difficulty]
HPDrainRate:4.5
CircleSize:3
OverallDifficulty:5
ApproachRate:7
SliderMultiplier:1
SliderTickRate:1

[Events]
//Background and Video events
0,0,"kaoru.jpg",0,0
//Break Periods
//Storyboard Layer 0 (Background)
//Storyboard Layer 1 (Fail)
//Storyboard Layer 2 (Pass)
//Storyboard Layer 3 (Foreground)
//Storyboard Sound Samples

[TimingPoints]
-732,434.782608695652,4,2,1,70,1,0
1007,-100,4,2,1,70,0,0
7963,-100,4,2,1,80,0,0
21876,-100,4,2,1,80,0,0
35789,-100,4,1,1,80,0,0
49702,-100,4,2,1,70,0,0
56659,-100,4,2,1,80,0,1
70354,-100,4,2,1,80,0,0
70572,-100,4,2,1,80,0,1
84485,-100,4,2,1,80,0,0

[Colours]
Combo1 : 128,64,0
Combo2 : 255,253,66

[HitObjects]
144,32,1007,6,0,L|119:27,2,25,2|0|0,0:0|0:0|0:0,0:0:0:0:
74,104,1441,2,0,L|57:123,2,25,8|0|0,0:0|0:0|0:0,0:0:0:0:
107,198,1876,2,0,L|115:222,2,25,2|8|2,0:0|0:0|0:0,0:0:0:0:
205,223,2310,2,0,L|230:228,2,25,8|0|2,0:0|0:0|0:0,0:0:0:0:
269,145,2746,6,0,L|294:140,2,25,2|0|0,0:0|0:0|0:0,0:0:0:0:
339,217,3180,2,0,L|355:236,2,25,8|0|0,0:0|0:0|0:0,0:0:0:0:
306,311,3615,2,0,L|297:335,2,25,2|8|2,0:0|0:0|0:0,0:0:0:0:
208,336,4049,2,0,L|183:341,2,25,8|0|2,0:0|0:0|0:0,0:0:0:0:
123,281,4485,6,0,L|98:272,2,25,2|0|0,0:0|0:0|0:0,0:0:0:0:
210,232,4920,2,0,L|234:223,2,25,8|0|0,0:0|0:0|0:0,0:0:0:0:
127,175,5354,2,0,L|102:166,2,25,2|8|2,0:0|0:0|0:0,0:0:0:0:
214,126,5789,2,0,L|238:117,2,25,8|0|2,0:0|0:0|0:0,0:0:0:0:
153,45,6224,6,0,L|158:20,2,25,2|0|0,0:0|0:0|0:0,0:0:0:0:
54,24,6659,2,0,L|59:49,3,25,8|0|0|2,0:0|0:0|0:0|0:0,0:0:0:0:
37,94,7094,1,2,0:0:0:0:
7,190,7311,1,2,0:0:0:0:
82,256,7528,1,2,0:0:0:0:
12,327,7745,1,8,0:0:0:0:
107,355,7963,6,0,P|130:347|148:330,2,50,6|0|8,0:0|0:0|0:0,0:0:0:0:
82,256,8615,2,0,L|84:231,1,25,0|2,0:0|0:0,0:0:0:0:
125,201,8833,2,0,P|149:199|173:206,2,50,2|2|8,0:0|0:0|0:0,0:0:0:0:
62,122,9485,2,0,L|64:97,1,25,2|8,0:0|0:0,0:0:0:0:
83,50,9703,6,0,P|66:32|44:22,2,50,2|0|8,0:0|0:0|0:0,0:0:0:0:
175,86,10354,2,0,L|199:87,1,25,0|2,0:0|0:0,0:0:0:0:
246,107,10572,2,0,P|268:96|285:78,2,50,2|2|8,0:0|0:0|0:0,0:0:0:0:
443,72,11441,6,0,P|465:82|482:100,2,50,2|0|8,0:0|0:0|0:0,0:0:0:0:
404,165,12094,2,0,L|402:190,1,25,0|2,0:0|0:0,0:0:0:0:
442,220,12312,2,0,P|446:244|440:267,1,50,2|0,0:0|0:0,0:0:0:0:
343,296,12746,2,0,P|338:271|344:248,1,50,8|2,0:0|0:0,0:0:0:0:
268,181,13181,5,2,0:0:0:0:
233,276,13398,2,0,P|216:294|194:304,1,50,0|8,0:0|0:0,0:0:0:0:
92,303,13833,1,2,0:0:0:0:
63,207,14050,1,8,0:0:0:0:
65,107,14267,1,2,0:0:0:0:
150,158,14485,2,0,P|154:182|167:202,1,50,2|2,0:0|0:0,0:0:0:0:
233,276,14920,6,0,P|250:293|274:301,2,50,6|0|8,0:0|0:0|0:0,0:0:0:0:
253,177,15572,2,0,L|251:152,1,25,0|2,0:0|0:0,0:0:0:0:
267,104,15790,2,0,P|243:102|219:109,2,50,2|2|8,0:0|0:0|0:0,0:0:0:0:
363,132,16442,2,0,L|361:107,1,25,2|8,0:0|0:0,0:0:0:0:
350,57,16660,6,0,P|367:39|389:29,2,50,2|0|8,0:0|0:0|0:0,0:0:0:0:
441,97,17311,2,0,L|465:96,1,25,0|2,0:0|0:0,0:0:0:0:
462,146,17529,2,0,P|478:164|501:175,2,50,2|2|8,0:0|0:0|0:0,0:0:0:0:
491,343,18398,6,0,P|469:353|452:371,2,50,2|0|8,0:0|0:0|0:0,0:0:0:0:
424,267,19051,2,0,L|422:242,1,25,0|2,0:0|0:0,0:0:0:0:
371,240,19267,2,0,P|346:239|324:248,1,50,2|0,0:0|0:0,0:0:0:0:
318,348,19703,2,0,P|343:349|365:340,1,50,8|2,0:0|0:0,0:0:0:0:
265,330,20138,5,2,0:0:0:0:
170,296,20355,2,0,P|187:314|209:324,1,50,2|8,0:0|0:0,0:0:0:0:
246,230,20790,1,2,0:0:0:0:
329,174,21007,1,2,0:0:0:0:
235,142,21224,1,2,0:0:0:0:
151,196,21442,2,0,P|137:175|132:150,1,50,10|2,0:0|0:0,0:0:0:0:
129,101,21767,1,0,0:0:0:0:
90,68,21876,6,0,P|72:51|48:43,2,50,6|0|8,0:0|0:0|0:0,0:0:0:0:
188,47,22528,2,0,L|212:40,1,25,0|2,0:0|0:0,0:0:0:0:
260,54,22746,2,0,P|284:56|308:49,2,50,2|2|8,0:0|0:0|0:0,0:0:0:0:
317,136,23398,2,0,L|341:142,1,25,2|8,0:0|0:0,0:0:0:0:
391,140,23616,6,0,P|413:129|430:111,2,50,2|0|8,0:0|0:0|0:0,0:0:0:0:
418,235,24267,2,0,L|393:241,1,25,0|2,0:0|0:0,0:0:0:0:
366,283,24485,2,0,P|341:283|317:275,2,50,2|2|8,0:0|0:0|0:0,0:0:0:0:
167,306,25354,6,0,P|189:316|206:334,2,50,2|0|8,0:0|0:0|0:0,0:0:0:0:
69,282,26007,2,0,L|44:275,1,25,2|2,0:0|0:0,0:0:0:0:
71,233,26225,2,0,P|88:214|112:205,1,50,2|0,0:0|0:0,0:0:0:0:
208,181,26659,2,0,P|232:179|255:188,1,50,8|2,0:0|0:0,0:0:0:0:
338,246,27094,5,2,0:0:0:0:
379,336,27311,2,0,P|401:325|418:307,1,50,0|8,0:0|0:0,0:0:0:0:
434,208,27746,1,2,0:0:0:0:
411,110,27963,1,2,0:0:0:0:
339,179,28180,1,0,0:0:0:0:
313,83,28398,2,0,P|290:71|274:52,1,50,8|2,0:0|0:0,0:0:0:0:
176,32,28833,6,0,P|152:39|134:56,2,50,6|0|8,0:0|0:0|0:0,0:0:0:0:
200,129,29485,2,0,L|175:135,1,25,0|2,0:0|0:0,0:0:0:0:
144,174,29703,2,0,P|120:176|96:169,2,50,2|2|8,0:0|0:0|0:0,0:0:0:0:
191,262,30354,2,0,L|198:285,1,25,2|8,0:0|0:0,0:0:0:0:
156,315,30573,6,0,P|133:304|116:286,2,50,2|0|8,0:0|0:0|0:0,0:0:0:0:
195,223,31224,2,0,L|219:216,1,25,0|2,0:0|0:0,0:0:0:0:
232,265,31442,2,0,P|256:265|280:257,2,50,2|2|8,0:0|0:0|0:0,0:0:0:0:
414,346,32311,6,0,P|392:336|375:318,2,50,2|0|8,0:0|0:0|0:0,0:0:0:0:
498,292,32963,2,0,L|496:248,1,25,0|2,0:0|0:0,0:0:0:0:
465,227,33182,2,0,P|448:208|424:199,1,50,0|2,0:0|0:0,0:0:0:0:
384,108,33615,2,0,P|359:106|336:115,1,50,8|2,0:0|0:0,0:0:0:0:
237,95,34051,5,2,0:0:0:0:
137,90,34268,2,0,P|114:79|97:61,1,50,2|2,0:0|0:0,0:0:0:0:
64,156,34703,1,8,0:0:0:0:
80,254,34920,1,2,0:0:0:0:
171,293,35137,1,8,0:0:0:0:
156,194,35355,2,0,P|133:205|117:224,1,50,14|2,0:0|0:0,0:0:0:0:
132,323,35789,6,0,P|155:332|179:330,1,50,2|0,0:0|0:0,0:0:0:0:
259,344,36224,1,2,0:0:0:0:
336,325,36441,1,2,0:0:0:0:
398,370,36659,2,0,P|422:371|445:362,2,50,2|2|2,0:0|0:0|0:0,0:0:0:0:
408,290,37311,1,2,0:0:0:0:
383,214,37528,6,0,P|358:212|335:221,1,50,2|2,0:0|0:0,0:0:0:0:
254,219,37963,2,0,P|230:212|210:196,1,50,2|2,0:0|0:0,0:0:0:0:
168,131,38398,2,0,P|143:132|120:123,2,50,2|2|8,0:0|0:2|0:2,0:0:0:0:
299,40,39267,6,0,P|322:30|346:32,1,50,2|0,0:0|0:0,0:0:0:0:
422,59,39702,1,2,0:0:0:0:
456,131,39920,1,2,0:0:0:0:
391,176,40137,2,0,P|366:177|343:168,2,50,2|0|2,0:0|0:0|0:0,0:0:0:0:
450,230,40789,1,2,0:0:0:0:
406,297,41007,6,0,P|382:303|357:300,1,50,2|0,0:0|0:0,0:0:0:0:
283,270,41441,1,2,0:0:0:0:
202,271,41659,1,2,0:2:0:0:
181,348,41876,1,2,0:0:0:0:
109,314,42094,1,2,0:2:0:0:
122,235,42311,2,0,P|85:237|53:256,1,75,8|2,0:2|0:0,0:0:0:0:
59,295,42746,6,0,P|35:304|11:302,1,50,2|0,0:0|0:0,0:0:0:0:
22,223,43181,1,2,0:0:0:0:
61,153,43398,1,0,0:0:0:0:
66,72,43616,2,0,P|41:70|18:79,2,50,2|2|2,0:0|0:0|0:0,0:0:0:0:
143,92,44268,1,2,0:0:0:0:
214,57,44485,6,0,P|238:55|261:64,1,50,2|2,0:0|0:0,0:0:0:0:
274,143,44920,2,0,P|254:158|230:165,1,50,2|0,0:0|0:0,0:0:0:0:
175,221,45355,2,0,P|150:222|127:213,2,50,2|2|8,0:0|0:2|0:2,0:0:0:0:
274,346,46224,6,0,P|298:344|321:353,1,50,2|0,0:0|0:0,0:0:0:0:
384,304,46659,1,2,0:0:0:0:
463,313,46877,1,0,0:0:0:0:
433,240,47094,2,0,P|425:216|409:197,2,50,2|2|2,0:0|0:0|0:0,0:0:0:0:
384,304,47746,1,2,0:0:0:0:
338,237,47964,6,0,P|314:230|289:233,1,50,2|0,0:0|0:0,0:0:0:0:
237,173,48398,1,2,0:0:0:0:
262,97,48616,1,2,0:2:0:0:
336,124,48833,1,2,0:0:0:0:
321,45,49050,1,2,0:2:0:0:
246,22,49267,2,0,P|222:26|197:24,1,50,8|2,0:2|0:0,0:0:0:0:
100,52,49702,6,0,P|117:84|148:104,1,75,2|2,0:0|0:0,0:0:0:0:
125,148,50137,2,0,P|102:157|78:162,1,50,8|2,0:0|0:0,0:0:0:0:
138,241,50572,6,0,P|120:273|89:293,1,75,2|2,0:0|0:0,0:0:0:0:
113,337,51007,2,0,P|135:346|159:351,1,50,8|2,0:0|0:0,0:0:0:0:
257,326,51441,6,0,P|293:316|328:326,1,75,2|2,0:0|0:0,0:0:0:0:
378,321,51876,2,0,P|385:298|398:276,1,50,8|0,0:0|0:0,0:0:0:0:
435,182,52311,6,0,P|398:172|363:182,1,75,2|2,0:0|0:0,0:0:0:0:
326,217,52746,2,0,P|301:222|279:233,1,50,8|2,0:0|0:0,0:0:0:0:
179,234,53181,6,0,P|157:222|138:205,1,50,2|0,0:0|0:0,0:0:0:0:
84,121,53615,2,0,P|78:96|79:71,1,50,8|2,0:0|0:0,0:0:0:0:
178,88,54050,6,0,P|196:72|218:60,1,50,2|0,0:0|0:0,0:0:0:0:
316,83,54485,2,0,P|340:81|364:85,1,50,8|2,0:0|0:0,0:0:0:0:
335,181,54920,6,0,L|362:193,2,25,6|0|0,0:0|0:0|0:0,0:0:0:0:
332,280,55354,2,0,L|340:305,2,25,6|0|0,0:0|0:0|0:0,0:0:0:0:
245,331,55789,6,0,L|231:352,2,25,6|0|0,0:0|0:0|0:0,0:0:0:0:
159,383,56224,2,0,P|134:376|115:361,1,50,14|8,0:0|0:0,0:0:0:0:
111,262,56659,6,0,L|161:264,1,50,6|0,0:0|0:0,0:0:0:0:
211,266,56985,2,0,L|235:259,1,25,2|8,0:0|0:0,0:0:0:0:
356,245,57311,2,0,L|397:252,1,25,0|2,0:0|0:0,0:0:0:0:
432,255,57529,6,0,P|456:251|479:242,1,50,6|2,0:0|0:0,0:0:0:0:
480,119,57963,2,0,P|456:109|432:106,1,50,8|2,0:0|0:0,0:0:0:0:
313,111,58398,5,6,0:0:0:0:
201,64,58615,1,0,0:0:0:0:
104,137,58833,1,8,0:0:0:0:
219,104,59050,1,0,0:0:0:0:
273,211,59267,6,0,P|297:239|331:254,1,75,2|0,0:0|0:0,0:0:0:0:
382,256,59702,1,12,0:0:0:0:
284,327,59920,1,2,0:0:0:0:
185,258,60137,6,0,P|161:248|137:245,1,50,6|0,0:0|0:0,0:0:0:0:
97,275,60463,2,0,L|58:277,1,25,2|8,0:0|0:0,0:0:0:0:
40,160,60789,2,0,L|64:161,1,25,2|0,0:0|0:0,0:0:0:0:
115,162,61007,6,0,P|139:158|162:149,1,50,6|2,0:0|0:0,0:0:0:0:
234,50,61441,2,0,P|258:53|281:62,1,50,8|2,0:0|0:0,0:0:0:0:
402,73,61876,5,6,0:0:0:0:
509,18,62093,1,0,0:0:0:0:
436,114,62311,1,8,0:0:0:0:
314,100,62528,1,0,0:0:0:0:
281,217,62745,6,0,P|286:254|301:287,1,75,2|0,0:0|0:0,0:0:0:0:
339,320,63180,1,12,0:0:0:0:
457,347,63398,1,2,0:0:0:0:
479,225,63615,6,0,P|455:223|430:228,1,50,6|0,0:0|0:0,0:0:0:0:
381,236,63941,1,2,0:0:0:0:
343,268,64050,2,0,P|318:270|293:265,1,50,8|0,0:0|0:0,0:0:0:0:
248,243,64376,1,2,0:0:0:0:
222,200,64485,6,0,P|197:197|172:202,1,50,6|2,0:0|0:0,0:0:0:0:
123,210,64811,1,0,0:0:0:0:
85,242,64920,2,0,P|60:244|35:239,1,50,8|2,0:0|0:0,0:0:0:0:
65,123,65354,5,6,0:0:0:0:
186,127,65572,1,0,0:0:0:0:
305,104,65789,1,8,0:0:0:0:
407,40,66007,1,0,0:0:0:0:
377,154,66224,6,0,P|378:191|388:227,1,75,2|0,0:0|0:0,0:0:0:0:
438,226,66659,1,12,0:0:0:0:
324,193,66876,1,2,0:0:0:0:
214,246,67094,6,0,L|177:264,1,25,6|0,0:0|0:0,0:0:0:0:
172,303,67311,2,0,P|149:292|128:278,1,50,0|8,0:0|0:0,0:0:0:0:
162,167,67746,2,0,L|120:164,1,25,2|0,0:0|0:0,0:0:0:0:
97,195,67963,6,0,P|82:174|71:152,1,50,6|2,0:0|0:0,0:0:0:0:
150,61,68398,2,0,L|115:37,2,25,8|0|8,0:0|0:0|0:0,0:0:0:0:
270,46,68833,6,0,P|273:70|269:95,2,50,6|0|8,0:0|0:0|0:0,0:0:0:0:
369,32,69485,2,0,L|392:40,1,25,2|2,0:0|0:0,0:0:0:0:
430,73,69702,6,0,P|420:95|405:115,1,50,2|2,0:0|0:0,0:0:0:0:
291,159,70137,2,0,L|253:148,2,25,12|0|2,0:0|0:0|0:0,0:0:0:0:
257,275,70572,6,0,P|281:278|307:273,1,50,6|0,0:0|0:0,0:0:0:0:
356,274,70898,2,0,L|379:282,1,25,2|8,0:0|0:0,0:0:0:0:
362,164,71224,2,0,L|338:172,1,25,2|2,0:0|0:0,0:0:0:0:
291,159,71442,6,0,P|267:149|243:146,1,50,6|2,0:0|0:0,0:0:0:0:
137,89,71876,2,0,P|160:79|184:76,1,50,8|2,0:0|0:0,0:0:0:0:
146,190,72311,5,6,0:0:0:0:
248,126,72528,1,0,0:0:0:0:
249,246,72746,1,8,0:0:0:0:
136,205,72963,1,0,0:0:0:0:
84,313,73180,6,0,P|59:341|25:356,1,75,2|0,0:0|0:0,0:0:0:0:
1,313,73615,1,12,0:0:0:0:
121,326,73833,1,2,0:0:0:0:
237,300,74050,6,0,P|260:290|284:287,1,50,6|0,0:0|0:0,0:0:0:0:
333,276,74376,2,0,L|378:274,1,25,2|8,0:0|0:0,0:0:0:0:
431,179,74702,2,0,L|425:154,1,25,2|2,0:0|0:0,0:0:0:0:
406,108,74920,6,0,P|402:84|404:59,1,50,6|2,0:0|0:0,0:0:0:0:
307,130,75354,2,0,P|291:110|280:88,1,50,8|2,0:0|0:0,0:0:0:0:
162,64,75789,5,6,0:0:0:0:
49,23,76006,1,0,0:0:0:0:
18,143,76224,1,8,0:0:0:0:
120,76,76441,1,0,0:0:0:0:
214,156,76658,6,0,P|208:193|193:226,1,75,2|0,0:0|0:0,0:0:0:0:
152,256,77093,1,12,0:0:0:0:
91,361,77311,1,2,0:0:0:0:
174,274,77528,6,0,P|198:271|223:276,1,50,6|0,0:0|0:0,0:0:0:0:
253,235,77854,1,2,0:0:0:0:
256,185,77963,2,0,P|231:182|206:187,1,50,8|2,0:0|0:0,0:0:0:0:
177,146,78289,1,2,0:0:0:0:
182,96,78398,6,0,P|206:93|231:98,1,50,6|2,0:0|0:0,0:0:0:0:
261,57,78724,1,0,0:0:0:0:
264,7,78833,2,0,P|239:4|214:9,1,50,8|2,0:0|0:0,0:0:0:0:
100,46,79267,5,6,0:0:0:0:
214,9,79485,1,0,0:0:0:0:
317,71,79702,1,8,0:0:0:0:
439,67,79920,1,0,0:0:0:0:
438,187,80137,6,0,P|406:167|380:140,1,75,2|0,0:0|0:0,0:0:0:0:
333,158,80572,1,12,0:0:0:0:
261,254,80789,1,10,0:0:0:0:
144,283,81007,6,0,L|167:292,1,25,6|0,0:0|0:0,0:0:0:0:
162,342,81224,2,0,P|184:331|205:317,1,50,0|8,0:0|0:0,0:0:0:0:
316,270,81659,2,0,L|340:266,1,25,2|0,0:0|0:0,0:0:0:0:
361,312,81876,6,0,P|375:291|386:269,1,50,6|2,0:0|0:0,0:0:0:0:
441,162,82311,2,0,L|460:146,2,25,8|0|10,0:0|0:0|0:0,0:0:0:0:
402,45,82746,6,0,P|426:39|451:40,2,50,6|0|8,0:0|0:0|0:0,0:0:0:0:
290,86,83398,2,0,L|265:80,1,25,2|2,0:0|0:0,0:0:0:0:
215,81,83615,6,0,P|199:61|190:38,1,50,8|8,0:0|0:0,0:0:0:0:
155,154,84050,2,0,L|126:159,2,25,10|0|8,0:0|0:0|0:0,0:0:0:0:
172,274,84485,5,2,0:0:0:0:
