osu file format v14

[General]
AudioFilename: audio.mp3
AudioLeadIn: 0
PreviewTime: 56115
Countdown: 0
SampleSet: Normal
StackLeniency: 0.7
Mode: 1
LetterboxInBreaks: 0
WidescreenStoryboard: 0

[Editor]
Bookmarks: 4485,14920,21876,28833,35572,42746,49920,63615,70572,84485,95137,98398
DistanceSpacing: 0.8
BeatDivisor: 4
GridSize: 16
TimelineZoom: 0.8999997

[Metadata]
Title:Kaoru Juyouka
TitleUnicode:香る樹葉花
Artist:Akiyama Uni
ArtistUnicode:あきやまうに
Creator:CallMeLyra
Version:Kantan
Source:東方緋想天 ~ Scarlet Weather Rhapsody
Tags:th10.5 th12.3 東方非想天則 ~ 超弩級ギニョルの謎を追え. 黄昏フロンティア Twilight Frontier Tasofro Forest of Magic Fragrant Plants 霧雨 魔理沙 アリス・マーガトロイド Kirisame Marisa Alice Margatroid Video Game Instrumental U2 Hisoutensoku 東方project ZUN team shanghai alice
BeatmapID:2464136
BeatmapSetID:1181321

[Difficulty]
HPDrainRate:8
CircleSize:5
OverallDifficulty:3
ApproachRate:5
SliderMultiplier:1.4
SliderTickRate:1

[Events]
//Background and Video events
0,0,"Marisa&Alice.jpg",0,0
//Break Periods
//Storyboard Layer 0 (Background)
//Storyboard Layer 1 (Fail)
//Storyboard Layer 2 (Pass)
//Storyboard Layer 3 (Foreground)
//Storyboard Layer 4 (Overlay)
//Storyboard Sound Samples

[TimingPoints]
1007,434.782608695652,4,1,0,50,1,0
35517,-100,4,1,0,65,0,0
56170,-100,4,1,0,85,0,0
56659,-100,4,1,0,85,0,1
84485,-100,4,1,0,50,0,0

[HitObjects]
256,192,1007,5,8,0:0:0:0:
256,192,1876,1,0,0:0:0:0:
256,192,2746,1,0,0:0:0:0:
256,192,3615,1,8,0:0:0:0:
256,192,4050,1,0,0:0:0:0:
256,192,4485,5,0,0:0:0:0:
256,192,5354,1,8,0:0:0:0:
256,192,6224,1,0,0:0:0:0:
256,192,7528,1,8,0:0:0:0:
256,192,7963,5,12,0:0:0:0:
256,192,8833,1,8,0:0:0:0:
256,192,9702,1,8,0:0:0:0:
256,192,10572,1,0,0:0:0:0:
256,192,11006,1,8,0:0:0:0:
256,192,11441,1,0,0:0:0:0:
256,192,12311,1,8,0:0:0:0:
256,192,13180,1,0,0:0:0:0:
256,192,14485,1,8,0:0:0:0:
256,192,14920,1,12,0:0:0:0:
256,192,15789,1,8,0:0:0:0:
256,192,16659,1,8,0:0:0:0:
256,192,17528,1,8,0:0:0:0:
256,192,17963,1,8,0:0:0:0:
256,192,18398,1,0,0:0:0:0:
256,192,19267,1,8,0:0:0:0:
256,192,20137,1,0,0:0:0:0:
256,192,21441,1,12,0:0:0:0:
256,192,21876,5,4,0:0:0:0:
256,192,22746,1,0,0:0:0:0:
256,192,23180,1,8,0:0:0:0:
256,192,23615,1,8,0:0:0:0:
256,192,24485,1,8,0:0:0:0:
256,192,24920,1,0,0:0:0:0:
256,192,25354,1,0,0:0:0:0:
256,192,26224,1,0,0:0:0:0:
256,192,26659,1,8,0:0:0:0:
256,192,27093,1,0,0:0:0:0:
256,192,28398,1,8,0:0:0:0:
256,192,28833,1,12,0:0:0:0:
256,192,29702,1,8,0:0:0:0:
256,192,30137,1,0,0:0:0:0:
256,192,30572,1,0,0:0:0:0:
256,192,31441,1,8,0:0:0:0:
256,192,31876,1,0,0:0:0:0:
256,192,32311,1,8,0:0:0:0:
256,192,33180,1,8,0:0:0:0:
256,192,33615,1,8,0:0:0:0:
256,192,34050,1,0,0:0:0:0:
256,192,35354,1,12,0:0:0:0:
256,192,35789,5,0,0:0:0:0:
256,192,36659,1,0,0:0:0:0:
256,192,37528,1,8,0:0:0:0:
256,192,38398,1,0,0:0:0:0:
256,192,38833,1,0,0:0:0:0:
256,192,39267,1,0,0:0:0:0:
256,192,40137,1,0,0:0:0:0:
256,192,40572,1,0,0:0:0:0:
256,192,41006,1,8,0:0:0:0:
256,192,41441,1,8,0:0:0:0:
256,192,42746,1,0,0:0:0:0:
256,192,43615,1,0,0:0:0:0:
256,192,44485,1,8,0:0:0:0:
256,192,45354,1,0,0:0:0:0:
256,192,45789,1,0,0:0:0:0:
256,192,46224,1,0,0:0:0:0:
256,192,47093,1,0,0:0:0:0:
256,192,47528,1,8,0:0:0:0:
256,192,47963,1,0,0:0:0:0:
256,192,48398,1,8,0:0:0:0:
256,192,49702,1,8,0:0:0:0:
256,192,50137,5,8,0:0:0:0:
256,192,51006,1,8,0:0:0:0:
256,192,51441,1,0,0:0:0:0:
256,192,51876,1,8,0:0:0:0:
256,192,52311,1,0,0:0:0:0:
256,192,53180,1,8,0:0:0:0:
256,192,54485,1,8,0:0:0:0:
256,192,54920,1,12,0:0:0:0:
256,192,55789,1,12,0:0:0:0:
256,192,56224,5,8,0:0:0:0:
256,192,56659,1,0,0:0:0:0:
256,192,57528,1,8,0:0:0:0:
256,192,57963,1,0,0:0:0:0:
256,192,58398,1,8,0:0:0:0:
256,192,59267,1,8,0:0:0:0:
256,192,59702,1,8,0:0:0:0:
256,192,60137,1,8,0:0:0:0:
256,192,61006,1,8,0:0:0:0:
256,192,61441,1,0,0:0:0:0:
256,192,61876,1,8,0:0:0:0:
256,192,62311,1,0,0:0:0:0:
256,192,62746,1,8,0:0:0:0:
256,192,63615,1,8,0:0:0:0:
256,192,64920,1,8,0:0:0:0:
256,192,65354,1,0,0:0:0:0:
256,192,65789,1,0,0:0:0:0:
256,192,66224,1,8,0:0:0:0:
256,192,67093,1,0,0:0:0:0:
256,192,67528,1,8,0:0:0:0:
256,192,67963,1,8,0:0:0:0:
256,192,68398,1,8,0:0:0:0:
256,192,68833,1,0,0:0:0:0:
256,192,70137,1,8,0:0:0:0:
256,192,70572,5,0,0:0:0:0:
256,192,71441,1,0,0:0:0:0:
256,192,71876,1,0,0:0:0:0:
256,192,72311,1,8,0:0:0:0:
256,192,73180,1,0,0:0:0:0:
256,192,73615,1,8,0:0:0:0:
256,192,74050,1,8,0:0:0:0:
256,192,74920,1,8,0:0:0:0:
256,192,75354,1,0,0:0:0:0:
256,192,75789,1,8,0:0:0:0:
256,192,76224,1,8,0:0:0:0:
256,192,76659,1,8,0:0:0:0:
256,192,77528,1,8,0:0:0:0:
256,192,78833,1,0,0:0:0:0:
256,192,79267,1,8,0:0:0:0:
256,192,79702,1,8,0:0:0:0:
256,192,80137,1,0,0:0:0:0:
256,192,81006,1,0,0:0:0:0:
256,192,81441,1,8,0:0:0:0:
256,192,81876,1,8,0:0:0:0:
256,192,82311,1,0,0:0:0:0:
256,192,82746,1,12,0:0:0:0:
256,192,84050,1,8,0:0:0:0:
256,192,84485,1,0,0:0:0:0:
256,192,84920,5,8,0:0:0:0:
256,192,85789,1,8,0:0:0:0:
256,192,86224,1,8,0:0:0:0:
256,192,87093,1,8,0:0:0:0:
256,192,87528,1,0,0:0:0:0:
256,192,87963,1,0,0:0:0:0:
256,192,89267,1,8,0:0:0:0:
256,192,89702,1,8,0:0:0:0:
256,192,90572,1,8,0:0:0:0:
256,192,91441,1,8,0:0:0:0:
256,192,92311,1,0,0:0:0:0:
256,192,92746,1,8,0:0:0:0:
256,192,93180,1,0,0:0:0:0:
256,192,94485,1,8,0:0:0:0:
256,192,94920,1,8,0:0:0:0:
256,192,95789,1,0,0:0:0:0:
256,192,96659,1,0,0:0:0:0:
256,192,97528,1,0,0:0:0:0:
256,192,97963,1,0,0:0:0:0:
256,192,98398,1,12,0:0:0:0:
