osu file format v14

[General]
AudioFilename: audio.mp3
AudioLeadIn: 0
PreviewTime: 7849
Countdown: 1
SampleSet: Soft
StackLeniency: 0.7
Mode: 0
LetterboxInBreaks: 0
WidescreenStoryboard: 0

[Editor]
Bookmarks: 84480
DistanceSpacing: 0.6
BeatDivisor: 4
GridSize: 4
TimelineZoom: 2.050004

[Metadata]
Title:Kaoru Jiyoka
TitleUnicode:Kaoru Jiyoka
Artist:Akiyama Uni
ArtistUnicode:Akiyama Uni
Creator:Kui
Version:Sanguine
Source:東方Project
Tags:
BeatmapID:1177400
BeatmapSetID:556313

[Difficulty]
HPDrainRate:6
CircleSize:3
OverallDifficulty:8
ApproachRate:9
SliderMultiplier:2.3
SliderTickRate:1

[Events]
//Background and Video events
0,0,"bg.jpg",0,0
//Break Periods
//Storyboard Layer 0 (Background)
//Storyboard Layer 1 (Fail)
//Storyboard Layer 2 (Pass)
//Storyboard Layer 3 (Foreground)
//Storyboard Sound Samples

[TimingPoints]
1002.14118650782,434.782608695652,4,2,0,50,1,0
7958,-66.6666666666667,4,2,0,50,0,0
37089,-100,4,2,0,50,0,0
54915,-66.6666666666667,4,2,0,50,0,0
56654,-57.1428571428571,4,2,0,50,0,1
56871,-100,4,2,0,50,0,1
57089,-57.1428571428571,4,2,0,50,0,1
57306,-100,4,2,0,50,0,1
57523,-57.1428571428571,4,2,0,50,0,1
57741,-100,4,2,0,50,0,1
57958,-57.1428571428571,4,2,0,50,0,1
58176,-100,4,2,0,50,0,1
58393,-57.1428571428571,4,2,0,50,0,1
60349,-100,4,2,0,50,0,1
60567,-57.1428571428571,4,2,0,50,0,1
60784,-100,4,2,0,50,0,1
61002,-57.1428571428571,4,2,0,50,0,1
61219,-100,4,2,0,50,0,1
61436,-57.1428571428571,4,2,0,50,0,1
61654,-100,4,2,0,50,0,1
61871,-57.1428571428571,4,2,0,50,0,1
63828,-100,4,2,0,50,0,1
64045,-57.1428571428571,4,2,0,50,0,1
64263,-100,4,2,0,50,0,1
64480,-57.1428571428571,4,2,0,50,0,1
64697,-100,4,2,0,50,0,1
64915,-57.1428571428571,4,2,0,50,0,1
65132,-100,4,2,0,50,0,1
65349,-57.1428571428571,4,2,0,50,0,0
70784,-57.1428571428571,4,2,0,50,0,1
71002,-100,4,2,0,50,0,1
71219,-57.1428571428571,4,2,0,50,0,1
71436,-100,4,2,0,50,0,1
71654,-57.1428571428571,4,2,0,50,0,1
71871,-100,4,2,0,50,0,1
72089,-57.1428571428571,4,2,0,50,0,1
72306,-100,4,2,0,50,0,1
72741,-57.1428571428571,4,2,0,50,0,1
74480,-100,4,2,0,50,0,1
74697,-57.1428571428571,4,2,0,50,0,1
74915,-100,4,2,0,50,0,1
75132,-57.1428571428571,4,2,0,50,0,1
75349,-100,4,2,0,50,0,1
75567,-57.1428571428571,4,2,0,50,0,1
75784,-100,4,2,0,50,0,1
76219,-57.1428571428571,4,2,0,50,0,1
77958,-100,4,2,0,50,0,1
78176,-57.1428571428571,4,2,0,50,0,1
78393,-100,4,2,0,50,0,1
78610,-57.1428571428571,4,2,0,50,0,1
78828,-100,4,2,0,50,0,1
79045,-57.1428571428571,4,2,0,50,0,1
79263,-66.6666666666667,4,2,0,50,0,1
79697,-57.1428571428571,4,2,0,50,0,0
84480,-57.1428571428571,4,2,0,50,0,1
84589,-57.1428571428571,4,2,0,50,0,0

[HitObjects]
380,108,1002,6,0,B|340:160|284:176|284:176|248:152|192:160,1,172.5
40,147,1436,2,0,P|88:195|96:215,1,57.5
287,283,1654,5,0,0:0:0:0:
212,331,1763,1,0,0:0:0:0:
303,285,1871,2,0,L|311:215,1,57.5
400,211,2089,2,0,L|390:135,1,57.5
306,295,2306,2,0,L|314:225,1,57.5
403,221,2524,2,0,L|393:145,1,57.5
322,60,2741,5,0,0:0:0:0:
266,88,2849,1,0,0:0:0:0:
206,74,2958,5,0,0:0:0:0:
167,123,3066,1,0,0:0:0:0:
112,135,3176,5,0,0:0:0:0:
97,195,3284,1,0,0:0:0:0:
50,225,3393,5,0,0:0:0:0:
70,315,3501,1,0,0:0:0:0:
179,358,3610,5,0,0:0:0:0:
198,322,3719,1,0,0:0:0:0:
229,296,3828,1,0,0:0:0:0:
263,315,3936,1,0,0:0:0:0:
303,322,4045,1,0,0:0:0:0:
343,317,4154,1,0,0:0:0:0:
380,301,4263,1,0,0:0:0:0:
407,271,4371,1,0,0:0:0:0:
442,225,4480,5,0,0:0:0:0:
440,167,4589,1,0,0:0:0:0:
413,116,4697,1,0,0:0:0:0:
378,69,4806,1,0,0:0:0:0:
390,12,4915,1,0,0:0:0:0:
432,50,5023,5,0,0:0:0:0:
378,70,5132,1,0,0:0:0:0:
320,65,5241,1,0,0:0:0:0:
265,48,5349,6,0,L|169:75,1,57.5
205,153,5567,2,0,L|109:126,1,57.5
276,49,5784,2,0,L|180:76,1,57.5
216,154,6002,2,0,L|120:127,1,57.5
104,47,6219,5,0,0:0:0:0:
48,75,6327,1,0,0:0:0:0:
75,127,6436,1,0,0:0:0:0:
55,186,6544,1,0,0:0:0:0:
110,214,6654,1,0,0:0:0:0:
137,268,6762,5,0,0:0:0:0:
185,345,6871,1,0,0:0:0:0:
272,323,6980,1,0,0:0:0:0:
359,345,7089,6,0,L|405:299,1,57.5
448,30,7306,6,0,L|402:76,1,57.5
282,246,7523,6,0,L|343:223,1,57.5
512,159,7741,6,0,L|450:181,1,57.5
250,152,7958,6,0,B|212:147|212:147|157:153,1,86.2500032901765,4|0,0:0|0:0,0:0:0:0:
0,260,8176,2,0,B|38:265|38:265|93:259,1,86.2500032901765
324,63,8393,2,0,B|272:74|272:74|227:68,1,86.2500032901765,8|0,0:0|0:0,0:0:0:0:
236,255,8610,5,0,0:0:0:0:
166,162,8719,1,0,0:0:0:0:
249,266,8828,2,0,P|326:262|369:278,1,86.2500032901765
467,340,9045,2,0,P|424:345|381:337,1,86.2500032901765
166,162,9263,2,0,B|214:155|214:155|296:160,1,86.2500032901765,8|0,0:0|0:0,0:0:0:0:
474,331,9480,5,0,0:0:0:0:
440,255,9589,1,0,0:0:0:0:
458,175,9697,2,0,B|458:114|458:114|446:73,1,86.2500032901765
281,46,9915,2,0,B|342:46|342:46|386:46,1,86.2500032901765
327,152,10132,2,0,L|327:255,1,86.2500032901765,8|0,0:0|0:0,0:0:0:0:
114,269,10349,5,0,0:0:0:0:
231,270,10458,1,0,0:0:0:0:
98,267,10567,2,0,P|114:177|137:165,1,86.2500032901765
227,67,10784,2,0,P|243:106|233:147,1,86.2500032901765
31,38,11002,2,0,L|151:39,3,86.2500032901765,8|0|0|0,0:0|0:0|0:0|0:0,0:0:0:0:
415,163,11436,6,0,B|291:220,1,86.2500032901765
245,284,11654,6,0,B|326:314,1,86.2500032901765
148,334,11871,6,0,B|111:255,1,86.2500032901765,8|0,0:0|0:0,0:0:0:0:
230,138,12089,5,0,0:0:0:0:
292,84,12197,1,0,0:0:0:0:
303,2,12306,2,0,B|337:39|337:39|442:80,1,86.2500032901765
368,222,12523,2,0,L|368:124,1,86.2500032901765
362,311,12741,2,0,B|328:274|328:274|223:233,1,86.2500032901765,8|0,0:0|0:0,0:0:0:0:
167,272,12958,2,0,L|111:205,1,86.2500032901765
96,54,13176,6,0,B|123:85|123:85|189:118,1,86.2500032901765
305,90,13393,2,0,P|341:102|381:132,3,57.500002193451,0|0|0|8,0:0|0:0|0:0|0:0,0:0:0:0:
407,294,13828,5,0,0:0:0:0:
362,260,13936,1,0,0:0:0:0:
416,242,14045,5,0,0:0:0:0:
372,308,14154,1,0,0:0:0:0:
294,324,14263,1,0,0:0:0:0:
217,306,14371,1,0,0:0:0:0:
150,263,14480,6,0,P|115:237|73:228,1,86.2500032901765,12|0,0:0|0:0,0:0:0:0:
201,338,14697,2,0,P|235:363|277:372,1,86.2500032901765,4|0,0:0|0:0,0:0:0:0:
437,160,14915,6,0,B|434:209|434:209|403:264,1,86.2500032901765,4|0,0:0|0:0,0:0:0:0:
250,66,15132,1,0,0:0:0:0:
328,153,15241,1,0,0:0:0:0:
233,62,15349,2,0,L|176:153,1,86.2500032901765,8|0,0:0|0:0,0:0:0:0:
127,249,15567,5,0,0:0:0:0:
90,323,15676,1,0,0:0:0:0:
42,211,15784,2,0,L|34:122,1,86.2500032901765
128,158,16002,2,0,L|136:69,1,86.2500032901765
231,202,16219,2,0,L|223:113,1,86.2500032901765,8|0,0:0|0:0,0:0:0:0:
326,70,16436,5,0,0:0:0:0:
320,153,16545,1,0,0:0:0:0:
416,225,16654,2,0,B|421:271|421:271|412:332,1,86.2500032901765
230,332,16871,5,0,0:0:0:0:
231,215,16980,1,0,0:0:0:0:
231,348,17089,2,0,B|183:357|137:323,1,86.2500032901765,8|0,0:0|0:0,0:0:0:0:
67,148,17306,5,0,0:0:0:0:
53,230,17415,1,0,0:0:0:0:
159,83,17523,2,0,L|246:107,1,86.2500032901765
380,166,17741,2,0,L|296:188,1,86.2500032901765
512,289,17958,2,0,L|429:267,3,86.2500032901765,8|0|0|0,0:0|0:0|0:0|0:0,0:0:0:0:
63,191,18393,6,0,L|75:312,1,86.2500032901765
248,340,18610,2,0,L|193:273,1,86.2500032901765
244,82,18828,2,0,L|213:199,1,86.2500032901765,8|0,0:0|0:0,0:0:0:0:
332,253,19045,5,0,0:0:0:0:
408,219,19154,1,0,0:0:0:0:
470,155,19263,2,0,L|484:47,1,86.2500032901765
364,0,19480,2,0,L|378:108,1,86.2500032901765
258,166,19697,2,0,L|272:58,1,86.2500032901765,8|0,0:0|0:0,0:0:0:0:
85,2,19915,2,0,L|96:87,1,86.2500032901765,8|0,0:0|0:0,0:0:0:0:
101,239,20132,6,0,P|198:229|208:234,1,86.2500032901765
260,322,20349,2,0,L|334:301,3,57.500002193451,0|0|0|8,0:0|0:0|0:0|0:0,0:0:0:0:
407,129,20784,5,0,0:0:0:0:
421,211,20893,1,0,0:0:0:0:
300,99,21002,2,0,P|214:62|159:79,1,86.2500032901765
247,256,21219,2,0,P|287:239|317:208,1,86.2500032901765,12|0,0:0|0:0,0:0:0:0:
140,126,21436,2,0,P|134:169|145:210,1,86.2500032901765,12|0,0:0|0:0,0:0:0:0:
469,322,21654,5,0,0:0:0:0:
352,323,21763,1,0,0:0:0:0:
484,327,21871,2,0,B|492:287|492:287|490:224,1,86.2500032901765,4|0,0:0|0:0,0:0:0:0:
314,110,22089,2,0,B|312:155|312:155|320:195,1,86.2500032901765
492,60,22306,2,0,L|359:59,1,86.2500032901765,8|0,0:0|0:0,0:0:0:0:
234,25,22523,5,0,0:0:0:0:
153,6,22632,1,0,0:0:0:0:
63,0,22741,2,0,L|147:18,1,86.2500032901765
269,128,22958,2,0,B|226:119|226:119|179:117,1,86.2500032901765
103,248,23176,2,0,P|194:218|213:199,1,86.2500032901765,8|0,0:0|0:0,0:0:0:0:
382,121,23393,5,0,0:0:0:0:
381,4,23502,1,0,0:0:0:0:
386,136,23610,2,0,B|416:168|416:168|444:247,1,86.2500032901765
360,368,23828,2,0,B|330:336|330:336|302:257,1,86.2500032901765
183,117,24045,2,0,L|32:120,1,86.2500032901765,8|0,0:0|0:0,0:0:0:0:
152,235,24263,5,0,0:0:0:0:
127,328,24371,1,0,0:0:0:0:
205,290,24480,2,0,B|211:336|211:336|244:413,1,86.2500032901765
390,339,24697,2,0,L|303:285,1,86.2500032901765
432,216,24915,2,0,P|485:240|557:232,3,86.2500032901765,8|0|0|0,0:0|0:0|0:0|0:0,0:0:0:0:
326,99,25349,6,0,B|342:139|342:139|347:227,1,86.2500032901765
196,212,25567,2,0,B|222:178|222:178|296:129,1,86.2500032901765
360,269,25784,2,0,B|317:262|317:262|238:223,1,86.2500032901765,8|0,0:0|0:0,0:0:0:0:
162,108,26002,5,0,0:0:0:0:
263,52,26110,1,0,0:0:0:0:
147,117,26219,2,0,P|132:16|150:-8,1,86.2500032901765
51,147,26436,2,0,P|80:178|91:219,1,86.2500032901765
149,129,26654,2,0,P|138:88|148:47,1,86.2500032901765,8|0,0:0|0:0,0:0:0:0:
48,134,26871,2,0,P|68:171|69:214,1,86.2500032901765
275,300,27089,6,0,B|164:310,1,86.2500032901765
245,198,27306,2,0,L|261:143,3,57.500002193451,0|0|0|8,0:0|0:0|0:0|0:0,0:0:0:0:
416,61,27741,5,0,0:0:0:0:
393,113,27849,1,0,0:0:0:0:
445,110,27958,5,0,0:0:0:0:
378,67,28067,1,0,0:0:0:0:
299,56,28176,1,0,0:0:0:0:
222,77,28284,1,0,0:0:0:0:
157,123,28393,6,0,P|116:136|73:133,1,86.2500032901765,8|0,0:0|0:0,0:0:0:0:
214,61,28610,2,4,P|254:47|297:50,1,86.2500032901765,4|0,0:0|0:0,0:0:0:0:
344,152,28828,6,0,B|336:195|336:195|350:278,1,86.2500032901765,4|0,0:0|0:0,0:0:0:0:
202,338,29045,1,0,0:0:0:0:
88,313,29154,1,0,0:0:0:0:
217,345,29263,2,0,B|225:302|225:302|211:219,1,86.2500032901765,8|0,0:0|0:0,0:0:0:0:
15,101,29480,5,0,0:0:0:0:
99,48,29589,1,0,0:0:0:0:
153,108,29697,2,0,L|277:125,1,86.2500032901765
428,169,29915,2,0,B|383:168|383:168|343:178,1,86.2500032901765
397,348,30132,2,0,P|399:263|380:226,1,86.2500032901765,8|0,0:0|0:0,0:0:0:0:
303,39,30349,5,0,0:0:0:0:
382,125,30458,1,0,0:0:0:0:
294,25,30567,2,0,B|262:56|262:56|234:129,1,86.2500032901765
226,267,30784,2,0,B|258:236|258:236|286:163,1,86.2500032901765
179,161,31002,2,0,L|73:175,1,86.2500032901765,8|0,0:0|0:0,0:0:0:0:
170,327,31219,5,0,0:0:0:0:
255,338,31328,1,0,0:0:0:0:
85,316,31436,2,0,P|55:219|62:201,1,86.2500032901765
146,91,31654,2,0,L|136:234,1,86.2500032901765
255,338,31871,2,0,L|245:195,3,86.2500032901765,8|0|0|0,0:0|0:0|0:0|0:0,0:0:0:0:
413,241,32306,6,0,P|445:205|446:143,1,86.2500032901765
504,299,32523,2,0,L|487:403,1,86.2500032901765
363,162,32741,2,0,L|380:58,1,86.2500032901765,8|0,0:0|0:0,0:0:0:0:
247,31,32958,5,0,0:0:0:0:
163,51,33067,1,0,0:0:0:0:
266,116,33176,2,0,B|308:138|308:138|360:202,1,86.2500032901765
216,343,33393,2,0,B|173:320|173:320|121:256,1,86.2500032901765
117,145,33610,2,0,B|159:167|159:167|211:231,1,86.2500032901765,8|0,0:0|0:0,0:0:0:0:
30,359,33828,2,0,L|28:269,1,86.2500032901765
181,88,34045,6,0,L|183:-4,1,86.2500032901765
287,147,34263,2,0,L|275:227,3,57.500002193451,0|0|0|8,0:0|0:0|0:0|0:0,0:0:0:0:
393,262,34697,5,0,0:0:0:0:
510,263,34806,1,0,0:0:0:0:
377,269,34915,2,0,B|370:223|370:223|398:121,1,86.2500032901765,4|0,0:0|0:0,0:0:0:0:
482,57,35132,2,0,B|489:103|489:103|461:205,1,86.2500032901765,4|0,0:0|0:0,0:0:0:0:
294,384,35349,2,0,L|293:259,1,86.2500032901765,4|0,0:0|0:0,0:0:0:0:
46,107,35567,5,0,0:0:0:0:
85,73,35676,1,0,0:0:0:0:
135,63,35784,1,0,0:0:0:0:
209,134,36002,5,0,0:0:0:0:
228,181,36110,1,0,0:0:0:0:
203,226,36219,1,0,0:0:0:0:
153,239,36328,1,0,0:0:0:0:
109,212,36436,1,0,0:0:0:0:
60,193,36545,1,0,0:0:0:0:
19,225,36654,1,0,0:0:0:0:
0,273,36763,1,0,0:0:0:0:
9,323,36871,1,0,0:0:0:0:
97,376,37089,6,0,P|160:375|216:327,1,115
307,327,37415,1,0,0:0:0:0:
343,342,37523,2,0,B|379:296|379:296|383:229,1,115
382,239,37849,1,0,0:0:0:0:
382,239,37958,1,0,0:0:0:0:
377,124,38176,5,0,0:0:0:0:
337,118,38284,1,0,0:0:0:0:
304,94,38393,1,0,0:0:0:0:
284,58,38502,1,0,0:0:0:0:
247,73,38610,1,0,0:0:0:0:
220,103,38719,1,0,0:0:0:0:
209,141,38828,1,0,0:0:0:0:
158,203,39045,5,0,0:0:0:0:
125,226,39154,1,0,0:0:0:0:
86,238,39263,1,0,0:0:0:0:
49,221,39371,1,0,0:0:0:0:
69,186,39480,1,0,0:0:0:0:
67,145,39589,1,0,0:0:0:0:
45,111,39697,1,0,0:0:0:0:
77,36,39915,5,0,0:0:0:0:
115,25,40023,1,0,0:0:0:0:
155,20,40132,1,0,0:0:0:0:
194,29,40241,1,0,0:0:0:0:
229,47,40349,1,0,0:0:0:0:
256,76,40458,1,0,0:0:0:0:
296,70,40567,1,0,0:0:0:0:
345,9,40784,5,0,0:0:0:0:
381,25,40893,1,0,0:0:0:0:
403,58,41002,2,0,P|443:165|438:177,1,115
355,134,41328,1,0,0:0:0:0:
315,131,41436,2,0,B|370:224|370:224|458:261,1,172.5
380,317,41871,5,0,0:0:0:0:
341,306,41980,1,0,0:0:0:0:
301,299,42089,1,0,0:0:0:0:
261,306,42197,1,0,0:0:0:0:
223,320,42306,1,0,0:0:0:0:
144,300,42523,5,0,0:0:0:0:
130,261,42632,1,0,0:0:0:0:
135,221,42741,1,0,0:0:0:0:
215,218,42958,5,0,0:0:0:0:
251,234,43067,1,0,0:0:0:0:
291,229,43176,1,0,0:0:0:0:
324,206,43284,1,0,0:0:0:0:
338,168,43393,1,0,0:0:0:0:
318,132,43502,1,0,0:0:0:0:
279,122,43610,1,0,0:0:0:0:
240,134,43719,1,0,0:0:0:0:
201,122,43828,1,0,0:0:0:0:
172,49,44045,5,0,0:0:0:0:
250,28,44263,5,0,0:0:0:0:
289,28,44371,1,0,0:0:0:0:
329,29,44480,1,0,0:0:0:0:
456,33,44697,5,0,0:0:0:0:
456,33,44915,1,0,0:0:0:0:
439,111,45132,5,0,0:0:0:0:
424,148,45241,1,0,0:0:0:0:
441,183,45349,1,0,0:0:0:0:
424,219,45458,1,0,0:0:0:0:
409,256,45567,1,0,0:0:0:0:
426,291,45675,1,0,0:0:0:0:
402,324,45784,1,0,0:0:0:0:
331,285,46002,5,0,0:0:0:0:
313,249,46110,1,0,0:0:0:0:
276,231,46219,1,0,0:0:0:0:
237,218,46328,1,0,0:0:0:0:
228,178,46436,1,0,0:0:0:0:
246,142,46545,1,0,0:0:0:0:
284,128,46654,1,0,0:0:0:0:
266,49,46871,5,0,0:0:0:0:
227,37,46980,1,0,0:0:0:0:
187,42,47089,1,0,0:0:0:0:
153,63,47197,1,0,0:0:0:0:
115,47,47306,1,0,0:0:0:0:
74,41,47415,1,0,0:0:0:0:
37,56,47523,1,0,0:0:0:0:
84,121,47741,5,0,0:0:0:0:
90,160,47849,1,0,0:0:0:0:
99,199,47958,1,0,0:0:0:0:
119,277,48176,5,0,0:0:0:0:
158,270,48284,1,0,0:0:0:0:
174,233,48393,1,0,0:0:0:0:
250,207,48610,5,0,0:0:0:0:
323,228,48828,5,0,0:0:0:0:
352,255,48936,1,0,0:0:0:0:
362,293,49045,1,0,0:0:0:0:
401,303,49154,1,0,0:0:0:0:
435,282,49263,1,0,0:0:0:0:
458,100,49480,5,0,0:0:0:0:
361,115,49589,1,0,0:0:0:0:
264,130,49697,2,0,L|156:151,1,57.5
27,223,49915,5,0,0:0:0:0:
124,238,50024,1,0,0:0:0:0:
221,253,50132,2,0,L|329:274,1,57.5,8|0,0:0|0:0,0:0:0:0:
426,118,50349,5,0,0:0:0:0:
453,212,50458,1,0,0:0:0:0:
339,143,50567,2,0,L|294:55,1,57.5
86,118,50784,5,0,0:0:0:0:
59,212,50893,1,0,0:0:0:0:
173,143,51002,2,0,L|218:55,1,57.5,8|0,0:0|0:0,0:0:0:0:
266,37,51219,5,0,0:0:0:0:
333,47,51328,1,0,0:0:0:0:
392,15,51436,5,0,0:0:0:0:
444,83,51545,1,0,0:0:0:0:
400,114,51654,5,0,0:0:0:0:
432,193,51763,1,0,0:0:0:0:
378,210,51871,5,8,0:0:0:0:
388,294,51980,1,0,0:0:0:0:
328,301,52089,5,0,0:0:0:0:
315,384,52198,1,0,0:0:0:0:
267,311,52306,5,0,0:0:0:0:
254,228,52415,1,0,0:0:0:0:
201,201,52523,5,0,0:0:0:0:
209,117,52632,1,0,0:0:0:0:
170,89,52741,5,8,0:0:0:0:
199,9,52850,1,0,0:0:0:0:
110,59,52958,5,0,0:0:0:0:
69,135,53067,1,0,0:0:0:0:
0,186,53176,2,0,P|29:262|18:285,3,57.5
144,311,53610,2,0,P|115:235|126:212,3,57.5,8|0|0|0,0:0|0:0|0:0|0:0,0:0:0:0:
201,139,54045,6,0,L|184:215,3,57.5
328,264,54480,2,0,L|311:188,3,57.5,8|0|0|0,0:0|0:0|0:0|0:0,0:0:0:0:
329,19,54915,6,0,B|281:36|281:36|229:75,1,86.2500032901765,4|0,0:0|0:0,0:0:0:0:
199,135,55132,2,0,L|196:270,1,86.2500032901765
354,34,55349,6,0,B|303:42|303:42|245:71,1,86.2500032901765,4|0,0:0|0:0,0:0:0:0:
206,125,55567,2,0,L|179:257,1,86.2500032901765
135,330,55784,6,0,B|185:330|185:330|248:311,1,86.2500032901765,4|0,0:0|0:0,0:0:0:0:
296,266,56001,2,0,L|344:140,1,86.2500032901765
116,308,56219,6,0,B|166:317|166:317|230:309,1,86.2500032901765,4|0,0:0|0:0,0:0:0:0:
286,272,56436,2,0,L|356:156,1,86.2500032901765
132,153,56654,6,0,B|178:127|178:127|307:114,1,100.625000959635,4|0,0:0|0:0,0:0:0:0:
434,197,56871,6,0,L|420:299,1,57.5
330,198,57089,2,0,L|362:352,1,100.625000959635,8|0,0:0|0:0,0:0:0:0:
436,207,57306,6,0,L|422:309,1,57.5
332,208,57524,2,0,L|364:362,1,100.625000959635,4|0,0:0|0:0,0:0:0:0:
436,215,57741,6,0,L|422:317,1,57.5
332,216,57959,2,0,L|364:370,1,100.625000959635,8|0,0:0|0:0,0:0:0:0:
436,223,58176,6,0,L|422:325,1,57.5
332,224,58394,2,0,L|364:378,3,100.625000959635,4|0|0|0,0:0|0:0|0:0|0:0,0:0:0:0:
129,164,58828,2,0,B|128:216|128:216|161:318,1,100.625000959635
229,127,59045,2,0,B|230:75|230:75|197:-27,1,100.625000959635
394,81,59263,5,0,0:0:0:0:
388,120,59371,1,0,0:0:0:0:
408,154,59480,1,0,0:0:0:0:
441,176,59589,1,0,0:0:0:0:
480,180,59697,1,4,0:0:0:0:
495,248,59806,1,0,0:0:0:0:
456,307,59915,1,0,0:0:0:0:
389,327,60023,1,0,0:0:0:0:
322,303,60132,6,0,B|276:329|276:329|147:342,1,100.625000959635,4|0,0:0|0:0,0:0:0:0:
20,259,60349,6,0,L|34:157,1,57.5
124,258,60567,2,0,L|92:104,1,100.625000959635,8|0,0:0|0:0,0:0:0:0:
19,249,60784,6,0,L|33:147,1,57.5
122,248,61002,2,0,L|90:94,1,100.625000959635,4|0,0:0|0:0,0:0:0:0:
19,241,61219,6,0,L|33:139,1,57.5
122,240,61437,2,0,L|90:86,1,100.625000959635,8|0,0:0|0:0,0:0:0:0:
19,233,61654,6,0,L|33:131,1,57.5
122,232,61872,2,0,L|90:78,3,100.625000959635,4|0|0|0,0:0|0:0|0:0|0:0,0:0:0:0:
269,382,62306,2,0,B|246:336|246:336|206:307,1,100.625000959635
216,178,62523,2,0,L|278:258,1,100.625000959635
426,142,62741,5,0,0:0:0:0:
402,110,62849,1,0,0:0:0:0:
361,104,62958,1,0,0:0:0:0:
336,72,63067,1,0,0:0:0:0:
337,31,63176,1,4,0:0:0:0:
269,12,63284,1,0,0:0:0:0:
201,34,63393,1,0,0:0:0:0:
166,95,63502,1,0,0:0:0:0:
169,169,63610,6,0,B|215:195|215:195|344:208,1,100.625000959635,4|0,0:0|0:0,0:0:0:0:
471,125,63828,6,0,L|457:23,1,57.5
367,124,64045,2,0,L|399:-30,1,100.625000959635,8|0,0:0|0:0,0:0:0:0:
472,115,64263,6,0,L|458:13,1,57.5
369,114,64480,2,0,L|401:-40,1,100.625000959635,4|0,0:0|0:0,0:0:0:0:
472,107,64697,6,0,L|458:5,1,57.5
369,106,64915,2,0,L|401:-48,1,100.625000959635,8|0,0:0|0:0,0:0:0:0:
472,99,65132,6,0,L|458:-3,1,57.5
369,98,65349,2,0,L|401:-56,3,100.625000959635,4|0|0|0,0:0|0:0|0:0|0:0,0:0:0:0:
230,314,65784,2,0,P|204:272|196:223,1,100.625000959635
267,167,66002,2,0,P|317:159|359:133,1,100.625000959635
394,254,66219,5,0,0:0:0:0:
354,261,66328,1,0,0:0:0:0:
327,291,66436,1,0,0:0:0:0:
322,331,66545,1,0,0:0:0:0:
344,364,66654,1,4,0:0:0:0:
285,324,66763,1,0,0:0:0:0:
215,312,66871,1,0,0:0:0:0:
147,334,66980,1,0,0:0:0:0:
93,379,67089,5,4,0:0:0:0:
0,221,67197,1,0,0:0:0:0:
114,206,67306,1,0,0:0:0:0:
114,206,67523,1,0,0:0:0:0:
114,206,67741,5,0,0:0:0:0:
159,28,67849,1,0,0:0:0:0:
251,98,67958,1,4,0:0:0:0:
251,98,68175,1,0,0:0:0:0:
251,98,68393,5,0,0:0:0:0:
296,275,68501,1,0,0:0:0:0:
388,205,68610,1,0,0:0:0:0:
388,205,68719,1,0,0:0:0:0:
388,205,68828,1,4,0:0:0:0:
435,154,68936,5,0,0:0:0:0:
458,220,69045,1,0,0:0:0:0:
411,273,69154,1,0,0:0:0:0:
342,256,69263,1,8,0:0:0:0:
320,189,69371,1,0,0:0:0:0:
297,255,69480,1,0,0:0:0:0:
244,302,69589,1,0,0:0:0:0:
174,310,69697,1,0,0:0:0:0:
145,321,69806,1,0,0:0:0:0:
132,293,69915,1,0,0:0:0:0:
138,263,70023,1,0,0:0:0:0:
155,226,70132,5,4,0:0:0:0:
167,187,70241,1,0,0:0:0:0:
156,148,70349,1,0,0:0:0:0:
126,120,70458,1,0,0:0:0:0:
84,114,70567,6,0,L|199:-12,1,100.625000959635,4|0,0:0|0:0,0:0:0:0:
475,144,70784,2,0,B|493:96|493:96|490:47,1,100.625000959635
401,108,71002,2,0,B|410:85|410:85|411:52,1,57.5,8|0,0:0|0:0,0:0:0:0:
469,125,71219,6,0,B|483:75|483:75|476:27,1,100.625000959635
393,95,71437,2,0,B|400:71|400:71|398:39,1,57.5,4|0,0:0|0:0,0:0:0:0:
463,106,71654,6,0,B|472:56|472:56|461:8,1,100.625000959635
384,84,71872,2,0,B|389:59|389:59|384:27,1,57.5,8|0,0:0|0:0,0:0:0:0:
455,88,72089,6,0,B|460:37|460:37|444:-8,1,100.625000959635
374,73,72307,2,0,B|377:48|377:48|369:16,3,57.5,4|0|0|0,0:0|0:0|0:0|0:0,0:0:0:0:
158,103,72741,2,0,B|103:105|103:105|18:66,1,100.625000959635
218,261,72958,2,0,B|273:259|273:259|358:298,1,100.625000959635
352,67,73176,5,0,0:0:0:0:
384,92,73284,1,0,0:0:0:0:
403,128,73393,1,0,0:0:0:0:
403,169,73502,1,0,0:0:0:0:
384,205,73610,1,4,0:0:0:0:
316,226,73719,1,0,0:0:0:0:
298,294,73828,1,0,0:0:0:0:
337,351,73936,1,0,0:0:0:0:
407,359,74045,6,0,P|366:280|313:273,1,100.625000959635,4|0,0:0|0:0,0:0:0:0:
32,223,74263,2,0,B|14:271|14:271|17:320,1,100.625000959635
106,259,74481,2,0,B|97:282|97:282|96:315,1,57.5,8|0,0:0|0:0,0:0:0:0:
37,241,74697,6,0,B|23:291|23:291|30:339,1,100.625000959635
113,271,74915,2,0,B|106:295|106:295|108:327,1,57.5,4|0,0:0|0:0,0:0:0:0:
43,260,75133,6,0,B|34:310|34:310|45:358,1,100.625000959635
122,282,75349,2,0,B|117:307|117:307|122:339,1,57.5,8|0,0:0|0:0,0:0:0:0:
51,278,75567,6,0,B|46:329|46:329|62:375,1,100.625000959635
132,293,75784,2,0,B|129:318|129:318|137:350,3,57.5,4|0|0|0,0:0|0:0|0:0|0:0,0:0:0:0:
287,313,76219,6,0,L|411:289,1,100.625000959635
213,172,76436,2,0,L|89:148,1,100.625000959635
242,14,76654,5,0,0:0:0:0:
282,18,76763,1,0,0:0:0:0:
319,32,76871,1,0,0:0:0:0:
338,67,76980,1,0,0:0:0:0:
346,106,77089,1,4,0:0:0:0:
376,169,77197,1,0,0:0:0:0:
440,196,77306,1,0,0:0:0:0:
510,192,77415,1,0,0:0:0:0:
493,259,77523,6,0,P|408:309|334:286,1,100.625000959635,4|0,0:0|0:0,0:0:0:0:
199,237,77741,6,0,B|185:187|185:187|192:139,1,100.625000959635
275,207,77959,2,0,B|268:183|268:183|270:151,1,57.5,8|0,0:0|0:0,0:0:0:0:
205,218,78176,6,0,B|196:168|196:168|207:120,1,100.625000959635
284,196,78394,2,0,B|279:171|279:171|284:139,1,57.5,4|0,0:0|0:0,0:0:0:0:
213,200,78611,6,0,B|208:149|208:149|224:103,1,100.625000959635
294,185,78829,2,0,B|291:160|291:160|299:128,1,57.5,8|0,0:0|0:0,0:0:0:0:
212,188,79045,6,0,B|220:138|220:138|248:97,1,100.625000959635
451,288,79263,6,0,B|398:293|398:293|337:286,1,86.2500032901765,4|0,0:0|0:0,0:0:0:0:
271,283,79480,2,0,B|218:278|218:278|157:285,1,86.2500032901765
147,206,79697,2,0,P|95:266|176:362,2,201.25000191927
187,200,80241,5,0,0:0:0:0:
226,203,80349,1,0,0:0:0:0:
263,189,80458,1,0,0:0:0:0:
286,156,80567,1,4,0:0:0:0:
337,107,80676,1,0,0:0:0:0:
403,127,80784,1,0,0:0:0:0:
455,174,80893,1,0,0:0:0:0:
475,241,81002,5,4,0:0:0:0:
214,335,81110,1,0,0:0:0:0:
108,251,81219,1,0,0:0:0:0:
108,251,81436,1,0,0:0:0:0:
108,251,81654,5,0,0:0:0:0:
369,157,81762,1,0,0:0:0:0:
475,241,81871,1,4,0:0:0:0:
475,241,82088,1,0,0:0:0:0:
482,229,82306,5,0,0:0:0:0:
395,281,82415,1,0,0:0:0:0:
295,281,82523,1,0,0:0:0:0:
208,333,82632,1,0,0:0:0:0:
107,332,82741,5,4,0:0:0:0:
117,315,82849,1,0,0:0:0:0:
125,285,82958,1,0,0:0:0:0:
123,244,83067,1,0,0:0:0:0:
103,197,83176,5,8,0:0:0:0:
135,146,83284,1,0,0:0:0:0:
203,130,83393,1,0,0:0:0:0:
248,170,83502,1,0,0:0:0:0:
292,192,83610,5,0,0:0:0:0:
332,189,83719,1,0,0:0:0:0:
360,178,83828,1,0,0:0:0:0:
374,163,83936,1,0,0:0:0:0:
378,154,84045,5,8,0:0:0:0:
378,143,84154,1,0,0:0:0:0:
371,135,84263,1,0,0:0:0:0:
361,133,84371,1,0,0:0:0:0:
353,139,84480,1,4,0:0:0:0:
