osu file format v14

[General]
AudioFilename: audio.mp3
AudioLeadIn: 0
PreviewTime: 73525
Countdown: 1
SampleSet: None
StackLeniency: 0
Mode: 0
LetterboxInBreaks: 0
WidescreenStoryboard: 0

[Editor]
Bookmarks: 525,7192,20525,31025,33858,50192,60525,61025,61525,61858,62025,62191,62691,63025,63191,63358,63525,63691,63692,63858,64358,64858,65191,65358,65524,66025,66358,66525,66691,66858,67025,67191,67691,68191,68524,68691,68858,69358,69691,69858,70024,70191,70358,70524,71024,71524,71858,72024,72191,72691,73024,73191,73358,73524,73858,74191,74358,74524,74858,75191,75524,75858,76024,76358,76524,76691,76858,77024,77191,77524,77691,78024,78191,78358,78524,78691,78858,79358,79691,79858,80024,80191,80358,80524,80858,81024,81358,81524,81858,82024,82191,82691,83191,83358,83524,83691,83858,84358,84858,85191,85358,85524,85858,86024,86358,86524,86691,86858,87191,87524,87691,88024,88191,88358,88524,88858
DistanceSpacing: 2.9
BeatDivisor: 8
GridSize: 16
TimelineZoom: 2.2

[Metadata]
Title:Kanpan Tasogare Shinbun
TitleUnicode:Kanpan Tasogare Shinbun
Artist:Akiyama Uni
ArtistUnicode:Akiyama Uni
Creator:Loki
Version:Lowkey
Source:
Tags:
BeatmapID:1861520
BeatmapSetID:890461

[Difficulty]
HPDrainRate:6
CircleSize:4
OverallDifficulty:8
ApproachRate:9.2
SliderMultiplier:1.4
SliderTickRate:1

[Events]
//Background and Video events
0,0,"2.jpg",0,0
//Break Periods
//Storyboard Layer 0 (Background)
//Storyboard Layer 1 (Fail)
//Storyboard Layer 2 (Pass)
//Storyboard Layer 3 (Foreground)
//Storyboard Sound Samples

[TimingPoints]
-1141,333.333333333333,5,1,0,60,1,0
525,-200,5,1,0,60,0,0
7192,-133.333333333333,5,1,0,60,0,0
33192,-100,5,1,0,60,0,0
33525,-83.3333333333333,5,1,0,60,0,0
37525,-166.666666666667,5,1,0,60,0,0
38858,-250,5,1,0,60,0,0
40692,-83.3333333333333,5,1,0,60,0,0
43858,-222.222222222222,5,1,0,60,0,0
45191,-250,5,1,0,60,0,0
47358,-83.3333333333333,5,1,0,60,0,0
50858,-166.666666666667,5,1,0,60,0,0
52191,-250,5,1,0,60,0,0
54025,-83.3333333333333,5,1,0,60,0,0
57192,-222.222222222222,5,1,0,60,0,0
58525,-250,5,1,0,60,0,0
59192,-333.333333333333,5,1,0,60,0,0
59525,-500,5,1,0,60,0,0
59858,-1000,5,1,0,60,0,0
60192,-66.6666666666667,5,1,0,60,0,0
60525,-1000,5,1,0,60,0,1
61858,-66.6666666666667,5,1,0,60,0,1
62192,-1000,5,1,0,60,0,1
63025,-66.6666666666667,5,1,0,60,0,1
63858,-1000,5,1,0,60,0,1
65192,-66.6666666666667,5,1,0,60,0,1
65525,-1000,5,1,0,60,0,1
66358,-66.6666666666667,5,1,0,60,0,1
67192,-1000,5,1,0,60,0,1
68525,-66.6666666666667,5,1,0,60,0,1
68858,-1000,5,1,0,60,0,1
69692,-66.6666666666667,5,1,0,60,0,1
70525,-1000,5,1,0,60,0,1
71858,-66.6666666666667,5,1,0,60,0,1
72192,-1000,5,1,0,60,0,1
73025,-66.6666666666667,5,1,0,60,0,1
73525,-1000,5,1,0,60,0,1
73858,666.666666666667,5,1,0,60,1,1
73858,-1000,5,1,0,60,0,1
73859,-1000,5,1,0,60,0,1
75191,-16.6666666666667,5,1,0,60,0,1
76024,-1000,5,1,0,60,0,1
76524,-16.6666666666667,5,1,0,60,0,1
77691,-1000,5,1,0,60,0,1
78524,-16.6666666666667,5,1,0,60,0,1
79358,-1000,5,1,0,60,0,1
79858,-16.6666666666667,5,1,0,60,0,1
80524,-1000,5,1,0,60,0,1
81858,-16.6666666666667,5,1,0,60,0,1
82691,-1000,5,1,0,60,0,1
83191,-16.6666666666667,5,1,0,60,0,1
84358,-1000,5,1,0,60,0,1
85191,-16.6666666666667,5,1,0,60,0,1
85524,-1000,5,1,0,60,0,1
86358,-16.6666666666667,5,1,0,60,0,1
86858,-1000,5,1,0,60,0,1
87191,-16.6666666666667,5,1,0,60,0,1
88024,-10,5,1,0,60,0,1
88524,-40,5,1,0,60,0,1
88858,-100,5,1,0,60,0,0

[HitObjects]
160,133,525,5,0,3:3:0:0:
259,96,692,1,0,3:3:0:0:
259,96,775,1,0,3:3:0:0:
259,96,858,1,0,3:3:0:0:
142,238,1025,2,0,P|169:215|202:203,1,70,0|0,3:3|3:3,3:3:0:0:
313,348,1525,1,0,3:3:0:0:
224,305,1692,1,0,3:3:0:0:
394,293,1858,5,0,3:3:0:0:
394,293,1942,1,0,3:3:0:0:
394,293,2025,1,0,3:3:0:0:
394,293,2108,1,0,3:3:0:0:
345,308,2192,1,0,3:3:0:0:
312,152,2358,1,0,3:3:0:0:
312,152,2442,1,0,3:3:0:0:
312,152,2525,1,0,3:3:0:0:
475,151,2692,2,0,P|472:185|457:217,1,70,0|0,3:3|3:3,3:3:0:0:
305,250,3192,5,0,3:3:0:0:
312,152,3358,1,0,3:3:0:0:
156,190,3525,1,0,3:3:0:0:
209,274,3692,1,0,3:3:0:0:
220,114,3858,5,0,3:3:0:0:
156,190,4025,1,0,3:3:0:0:
156,190,4108,1,0,3:3:0:0:
156,190,4192,1,0,3:3:0:0:
312,152,4358,2,0,P|297:182|294:218,1,70,0|0,3:3|3:3,3:3:0:0:
460,288,4858,1,0,3:3:0:0:
398,208,5025,1,0,3:3:0:0:
404,369,5192,5,0,3:3:0:0:
404,369,5276,1,0,3:3:0:0:
404,369,5359,1,0,3:3:0:0:
404,369,5442,1,0,3:3:0:0:
443,336,5526,1,0,3:3:0:0:
265,298,5692,1,0,3:3:0:0:
265,298,5775,1,0,3:3:0:0:
265,298,5858,1,0,3:3:0:0:
398,208,6025,2,0,P|415:237|421:272,1,70,0|0,3:3|3:3,3:3:0:0:
265,298,6525,5,0,3:3:0:0:
237,200,6691,1,0,3:3:0:0:
398,208,6858,1,0,3:3:0:0:
361,300,7025,1,0,3:3:0:0:
317,78,7192,5,0,3:3:0:0:
168,109,7358,2,0,L|132:118,2,26.2500010013581,0|0|0,3:3|3:3|3:3,3:3:0:0:
318,193,7692,2,0,P|314:257|264:297,1,131.25000500679,0|0,3:3|3:3,3:3:0:0:
188,286,8192,2,0,P|149:282|113:296,1,78.7500030040742,0|0,3:3|3:3,3:3:0:0:
160,355,8525,5,0,3:3:0:0:
239,218,8692,1,0,3:3:0:0:
81,219,8858,1,0,3:3:0:0:
168,109,9025,2,0,L|204:118,2,26.2500010013581,0|0|0,3:3|3:3|3:3,3:3:0:0:
2,193,9358,2,0,P|-2:232|12:268,1,78.7500030040742,0|0,3:3|3:3,3:3:0:0:
82,298,9692,2,0,P|95:294|108:293,1,26.2500010013581,0|0,3:3|3:3,3:3:0:0:
239,218,9858,5,0,3:3:0:0:
168,109,10025,1,0,3:3:0:0:
370,53,10192,1,0,3:3:0:0:
364,183,10358,1,0,3:3:0:0:
249,7,10525,5,0,3:3:0:0:
168,109,10692,2,0,L|132:118,2,26.2500010013581,0|0|0,3:3|3:3|3:3,3:3:0:0:
370,53,11025,2,0,P|423:88|433:151,1,131.25000500679,0|0,3:3|3:3,3:3:0:0:
385,212,11525,2,0,P|362:243|356:281,1,78.7500030040742,0|0,3:3|3:3,3:3:0:0:
431,270,11858,5,0,3:3:0:0:
352,133,12025,1,0,3:3:0:0:
274,271,12191,1,0,3:3:0:0:
168,109,12358,2,0,L|204:118,2,26.2500010013581,0|0|0,3:3|3:3|3:3,3:3:0:0:
348,244,12692,2,0,P|352:283|338:319,1,78.7500030040742,0|0,3:3|3:3,3:3:0:0:
267,349,13026,2,0,P|254:345|241:344,1,26.2500010013581,0|0,3:3|3:3,3:3:0:0:
83,293,13192,5,0,3:3:0:0:
0,191,13359,1,0,3:3:0:0:
195,115,13526,1,0,3:3:0:0:
203,244,13692,1,0,3:3:0:0:
70,81,13859,5,0,3:3:0:0:
0,191,14025,2,0,L|36:200,2,26.2500010013581,0|0|0,3:3|3:3|3:3,3:3:0:0:
203,244,14358,2,0,P|207:283|193:319,1,78.7500030040742,0|0,3:3|3:3,3:3:0:0:
122,349,14692,2,0,P|109:345|96:344,1,26.2500010013581,0|0,3:3|3:3,3:3:0:0:
87,160,14857,5,0,3:3:0:0:
8,297,15024,1,0,3:3:0:0:
203,244,15192,2,0,L|193:208,1,26.2500010013581,0|0,3:3|3:3,3:3:0:0:
160,91,15358,2,0,L|150:127,1,26.2500010013581,0|0,3:3|3:3,3:3:0:0:
122,349,15525,5,0,3:3:0:0:
0,191,15692,2,0,L|-36:200,2,26.2500010013581,0|0|0,3:3|3:3|3:3,3:3:0:0:
203,244,16025,2,0,P|200:204|180:171,1,78.7500030040742,0|0,3:3|3:3,3:3:0:0:
104,154,16359,2,0,P|92:159|79:163,1,26.2500010013581,0|0,3:3|3:3,3:3:0:0:
45,367,16525,5,0,3:3:0:0:
124,230,16692,1,0,3:3:0:0:
231,314,16858,2,0,L|194:322,1,26.2500010013581,0|0,3:3|3:3,3:3:0:0:
81,297,17025,2,0,L|117:305,1,26.2500010013581,0|0,3:3|3:3,3:3:0:0:
184,57,17192,5,0,3:3:0:0:
0,191,17358,2,0,L|36:200,2,26.2500010013581,0|0|0,3:3|3:3|3:3,3:3:0:0:
203,244,17692,2,0,P|225:275|231:313,1,78.7500030040742,0|0,3:3|3:3,3:3:0:0:
184,375,18026,2,0,P|171:378|159:383,1,26.2500010013581,0|0,3:3|3:3,3:3:0:0:
8,297,18192,2,0,P|21:300|33:305,1,26.2500010013581,0|0,3:3|3:3,3:3:0:0:
151,303,18358,1,0,3:3:0:0:
0,191,18525,2,0,L|-36:200,2,26.2500010013581,0|0|0,3:3|3:3|3:3,3:3:0:0:
225,277,18858,5,0,3:3:0:0:
0,97,19025,1,0,3:3:0:0:
290,0,19192,1,0,3:3:0:0:
350,237,19359,1,0,3:3:0:0:
32,304,19525,1,0,3:3:0:0:
92,67,19692,1,0,3:3:0:0:
388,20,19858,5,0,3:3:0:0:
194,357,20192,5,0,3:3:0:0:
0,20,20525,5,0,3:3:0:0:
126,10,20692,2,0,L|162:1,2,26.2500010013581,0|0|0,3:3|3:3|3:3,3:3:0:0:
144,133,21025,2,0,P|148:197|198:237,1,131.25000500679,0|0,3:3|3:3,3:3:0:0:
274,226,21525,2,0,P|313:222|349:236,1,78.7500030040742,0|0,3:3|3:3,3:3:0:0:
302,295,21858,5,0,3:3:0:0:
223,158,22025,1,0,3:3:0:0:
302,21,22192,1,0,3:3:0:0:
126,10,22358,2,0,L|90:1,2,26.2500010013581,0|0|0,3:3|3:3|3:3,3:3:0:0:
38,148,22692,2,0,P|15:179|9:217,1,78.7500030040742,0|0,3:3|3:3,3:3:0:0:
54,278,23026,2,0,P|67:281|79:286,1,26.2500010013581,0|0,3:3|3:3,3:3:0:0:
230,288,23192,5,0,3:3:0:0:
223,158,23359,1,0,3:3:0:0:
426,210,23526,1,0,3:3:0:0:
356,320,23692,1,0,3:3:0:0:
344,110,23859,5,0,3:3:0:0:
199,54,24025,2,0,L|235:45,2,26.2500010013581,0|0|0,3:3|3:3|3:3,3:3:0:0:
176,184,24358,2,0,P|180:248|230:288,1,131.25000500679,0|0,3:3|3:3,3:3:0:0:
306,277,24858,2,0,P|345:273|381:287,1,78.7500030040742,0|0,3:3|3:3,3:3:0:0:
334,346,25191,5,0,3:3:0:0:
256,206,25358,1,0,3:3:0:0:
176,346,25525,1,0,3:3:0:0:
63,202,25692,2,0,L|27:193,2,26.2500010013581,0|0|0,3:3|3:3|3:3,3:3:0:0:
256,206,26025,2,0,P|278:174|284:136,1,78.7500030040742,0|0,3:3|3:3,3:3:0:0:
240,76,26359,2,0,P|226:72|214:67,1,26.2500010013581,0|0,3:3|3:3,3:3:0:0:
256,206,26525,5,0,3:3:0:0:
263,336,26692,1,0,3:3:0:0:
60,284,26859,1,0,3:3:0:0:
130,174,27025,1,0,3:3:0:0:
142,384,27192,5,0,3:3:0:0:
130,174,27358,2,0,L|166:183,2,26.2500010013581,0|0|0,3:3|3:3|3:3,3:3:0:0:
344,231,27692,2,0,P|348:270|334:306,1,78.7500030040742,0|0,3:3|3:3,3:3:0:0:
263,336,28026,2,0,P|250:332|237:331,1,26.2500010013581,0|0,3:3|3:3,3:3:0:0:
155,180,28192,5,0,3:3:0:0:
33,78,28359,1,0,3:3:0:0:
51,279,28527,2,0,L|88:275,1,26.2500010013581,0|0,3:3|3:3,3:3:0:0:
209,263,28693,2,0,L|175:246,1,26.2500010013581,0|0,3:3|3:3,3:3:0:0:
247,4,28858,5,0,3:3:0:0:
383,120,29025,2,0,L|347:129,2,26.2500010013581,0|0|0,3:3|3:3|3:3,3:3:0:0:
251,107,29358,2,0,P|247:146|261:182,1,78.7500030040742,0|0,3:3|3:3,3:3:0:0:
332,212,29692,2,0,P|345:208|358:207,1,26.2500010013581,0|0,3:3|3:3,3:3:0:0:
512,79,29858,5,0,3:3:0:0:
433,216,30025,1,0,3:3:0:0:
326,132,30191,2,0,L|363:124,1,26.2500010013581,0|0,3:3|3:3,3:3:0:0:
476,149,30358,2,0,L|440:141,1,26.2500010013581,0|0,3:3|3:3,3:3:0:0:
369,358,30525,5,0,3:3:0:0:
458,222,30692,2,0,L|422:213,2,26.2500010013581,0|0|0,3:3|3:3|3:3,3:3:0:0:
263,262,31025,2,0,P|224:266|188:252,1,78.7500030040742,0|0,3:3|3:3,3:3:0:0:
158,181,31359,2,0,P|162:168|163:155,1,26.2500010013581,0|0,3:3|3:3,3:3:0:0:
0,65,31525,5,0,0:0:0:0:
341,36,31858,5,0,0:0:0:0:
433,350,32192,5,0,0:0:0:0:
288,268,32358,2,0,L|252:259,2,26.2500010013581,0|0|0,3:3|3:3|3:3,3:3:0:0:
458,222,32692,2,0,P|454:158|404:118,1,131.25000500679,0|0,3:3|3:3,3:3:0:0:
328,129,33192,6,0,P|276:134|228:115,1,105,0|0,3:3|3:3,3:3:0:0:
132,76,33525,6,0,P|80:70|9:111,1,125.999996154785,0|0,3:3|3:3,3:3:0:0:
97,182,33858,5,0,0:0:0:0:
286,55,34025,2,0,P|310:89|327:128,1,83.9999974365235
280,313,34358,2,0,P|277:271|281:229,1,83.9999974365235
444,177,34692,2,0,P|409:200|370:217,1,83.9999974365235
163,144,35025,2,0,P|204:141|246:145,1,83.9999974365235
370,217,35358,1,0,0:0:0:0:
165,305,35525,5,0,0:0:0:0:
247,146,35692,1,0,0:0:0:0:
100,49,35858,1,0,0:0:0:0:
23,282,36025,5,0,0:0:0:0:
209,223,36192,1,0,0:0:0:0:
283,55,36358,1,0,0:0:0:0:
293,319,36525,5,0,0:0:0:0:
424,100,36692,1,0,0:0:0:0:
512,327,36858,5,0,0:0:0:0:
282,231,37025,1,0,0:0:0:0:
357,18,37192,5,0,0:0:0:0:
512,190,37358,1,0,0:0:0:0:
259,301,37525,6,0,P|217:198|325:171,1,251.999992309571
282,231,38692,1,0,0:0:0:0:
512,190,38858,6,0,P|554:87|446:59,1,251.999992309571
489,119,40525,1,0,0:0:0:0:
218,126,40692,6,0,P|194:160|177:199,1,83.9999974365235
224,384,41025,2,0,P|227:342|223:300,1,83.9999974365235
60,248,41359,2,0,P|95:271|134:288,1,83.9999974365235
340,216,41692,2,0,P|299:213|257:217,1,83.9999974365235
134,288,42025,1,0,0:0:0:0:
276,55,42192,5,0,0:0:0:0:
340,216,42358,1,0,0:0:0:0:
226,342,42525,1,0,0:0:0:0:
218,126,42691,5,0,0:0:0:0:
303,294,42858,1,0,0:0:0:0:
464,230,43024,1,0,0:0:0:0:
276,55,43192,5,0,0:0:0:0:
303,294,43358,1,0,0:0:0:0:
57,340,43525,5,0,0:0:0:0:
84,101,43691,1,0,0:0:0:0:
303,294,43858,6,0,P|345:191|237:164,1,251.999992309571
280,224,45359,1,0,0:0:0:0:
61,172,45525,6,0,P|19:69|127:41,1,251.999992309571
84,101,47192,1,0,0:0:0:0:
290,350,47358,6,0,P|314:316|331:277,1,83.9999974365235
284,92,47691,2,0,P|281:134|285:176,1,83.9999974365235
448,228,48025,2,0,P|413:205|374:188,1,83.9999974365235
168,260,48358,2,0,P|209:263|251:259,1,83.9999974365235
374,188,48691,1,0,0:0:0:0:
168,260,48858,5,0,0:0:0:0:
250,101,49025,1,0,0:0:0:0:
353,298,49192,1,0,0:0:0:0:
512,149,49359,5,0,0:0:0:0:
381,25,49525,1,0,0:0:0:0:
284,175,49692,1,0,0:0:0:0:
485,338,49858,5,0,0:0:0:0:
251,326,50025,1,0,0:0:0:0:
50,187,50192,5,0,0:0:0:0:
284,175,50359,1,0,0:0:0:0:
485,36,50525,5,0,0:0:0:0:
251,24,50692,1,0,0:0:0:0:
17,12,50858,6,0,P|-25:115|83:142,1,251.999992309571
40,82,52025,1,0,0:0:0:0:
349,306,52192,6,0,P|391:203|283:175,1,251.999992309571
326,235,53859,1,0,0:0:0:0:
46,203,54025,6,0,P|81:180|120:163,1,83.9999974365235
326,235,54358,2,0,P|285:238|243:234,1,83.9999974365235
210,67,54692,2,0,P|213:109|209:151,1,83.9999974365235
204,325,55025,2,0,P|180:291|163:252,1,83.9999974365235
209,150,55358,1,0,0:0:0:0:
204,325,55525,5,0,0:0:0:0:
285,165,55692,1,0,0:0:0:0:
189,14,55858,1,0,0:0:0:0:
319,308,56025,5,0,0:0:0:0:
310,129,56192,1,0,0:0:0:0:
151,47,56358,1,0,0:0:0:0:
411,236,56525,5,0,0:0:0:0:
284,39,56692,1,0,0:0:0:0:
42,106,56858,5,0,0:0:0:0:
53,340,57025,1,0,0:0:0:0:
411,236,57192,6,0,P|453:133|345:106,1,251.999992309571
388,166,58693,1,0,0:0:0:0:
61,172,58858,6,0,L|67:136,1,28
168,213,59192,6,0,L|164:192,1,20.9999993591309
282,266,59525,6,0,L|285:248,1,14
427,320,59858,6,0,L|425:311,1,7
61,172,60192,6,0,P|36:164|9:162,1,52.5000020027161
282,266,60358,2,0,P|306:273|332:276,1,52.5000020027161
168,213,60525,6,0,L|159:232,2,21
168,213,61858,6,0,P|193:205|220:203,1,52.5000020027161
442,219,62025,2,0,P|419:204|394:195,1,52.5000020027161
242,75,62192,6,0,L|250:94,1,21
250,94,63025,6,0,P|275:86|302:84,1,52.5000020027161
495,129,63192,2,0,P|468:125|442:128,1,52.5000020027161
259,206,63358,2,0,P|279:189|304:178,1,52.5000020027161
442,219,63525,2,0,P|417:228|395:244,1,52.5000020027161
304,321,63692,2,0,P|307:347|304:373,1,52.5000020027161
495,129,63858,6,0,L|503:109,2,21
495,129,65192,6,0,P|487:154|485:181,1,52.5000020027161
388,295,65358,2,0,P|389:268|396:242,1,52.5000020027161
301,83,65525,6,0,L|281:74,1,21
281,74,66358,6,0,P|289:99|291:126,1,52.5000020027161
121,152,66525,2,0,P|103:171|80:186,1,52.5000020027161
212,145,66692,2,0,P|206:170|194:195,1,52.5000020027161
39,113,66858,2,0,P|14:120|-13:123,1,52.5000020027161
281,74,67025,2,0,P|306:66|333:64,1,52.5000020027161
136,265,67192,6,0,L|145:285,2,21
136,265,68525,6,0,P|111:257|84:255,1,52.5000020027161
212,145,68692,2,0,P|234:130|259:121,1,52.5000020027161
136,25,68858,6,0,L|116:16,1,21
116,16,69692,6,0,P|101:38|93:62,1,52.5000020027161
234,191,69858,2,0,P|223:166|219:141,1,52.5000020027161
352,16,70025,2,0,P|346:41|346:67,1,52.5000020027161
470,191,70192,2,0,P|468:164|473:139,1,52.5000020027161
234,191,70358,2,0,P|235:217|230:242,1,52.5000020027161
492,353,70525,6,0,L|512:344,2,21
492,353,71858,6,0,P|480:329|462:309,1,52.5000020027161
357,232,72025,2,0,P|334:217|310:209,1,52.5000020027161
179,194,72192,6,0,L|159:203,1,21
159,202,73025,6,0,P|144:224|136:248,1,52.5000020027161
273,46,73192,2,0,P|287:23|295:0,1,52.5000020027161
294,181,73358,2,0,P|316:195|340:203,1,52.5000020027161
138,67,73525,6,0,L|128:62,1,10.5
55,39,73858,6,0,L|53:42,1,5.25
140,164,74191,1,0,0:0:0:0:
144,170,74274,1,0,0:0:0:0:
148,176,74358,2,0,L|144:170,1,7
233,80,74774,1,0,0:0:0:0:
235,86,74858,2,0,L|234:90,1,5.25
292,188,75191,6,0,B|329:219|369:229|369:229|361:212|344:204,1,105.000004005432
235,86,75358,2,0,B|234:37|216:0|216:0|209:17|213:35,1,105.000004005432
148,176,75524,2,0,B|102:192|73:222|73:222|92:223|108:213,1,105.000004005432
242,293,75691,1,0,0:0:0:0:
260,298,75774,1,0,0:0:0:0:
278,303,75858,1,0,0:0:0:0:
86,343,76024,6,0,L|84:346,1,5.25
207,339,76358,1,0,0:0:0:0:
210,343,76441,1,0,0:0:0:0:
213,347,76524,2,0,P|223:296|203:249,1,105.000004005432
243,163,76691,2,0,P|192:152|145:172,1,105.000004005432
319,104,76858,2,0,P|339:151|329:202,1,105.000004005432
279,18,77024,2,0,P|329:7|376:27,1,105.000004005432
82,47,77191,5,0,0:0:0:0:
202,248,77358,1,0,0:0:0:0:
184,253,77441,1,0,0:0:0:0:
166,258,77524,1,0,0:0:0:0:
319,104,77691,6,0,L|321:107,1,5.25
419,287,78024,1,0,0:0:0:0:
422,283,78108,1,0,0:0:0:0:
425,279,78191,2,0,L|424:273,1,5.25
421,241,78524,6,0,L|316:230,1,105.000004005432
71,163,78691,2,0,L|175:152,1,105.000004005432
416,58,78858,2,0,L|426:162,1,105.000004005432
306,266,79024,1,0,0:0:0:0:
311,248,79107,1,0,0:0:0:0:
316,230,79191,1,0,0:0:0:0:
264,66,79358,6,0,L|261:64,1,5.25
71,163,79691,1,0,0:0:0:0:
68,167,79774,1,0,0:0:0:0:
65,171,79858,2,0,P|54:222|74:269,1,105.000004005432
189,355,80024,2,0,P|208:306|197:256,1,105.000004005432
332,132,80191,2,0,P|308:178|315:228,1,105.000004005432
463,330,80358,2,0,P|455:278|421:240,1,105.000004005432
209,113,80524,6,0,L|211:116,1,5.25
324,237,80858,1,0,0:0:0:0:
321,241,80941,1,0,0:0:0:0:
318,245,81024,2,0,L|313:250,1,7
150,263,81441,1,0,0:0:0:0:
152,257,81525,2,0,L|151:253,1,5.25
141,140,81858,6,0,B|178:109|218:99|218:99|210:116|193:124,1,105.000004005432
313,250,82024,2,0,B|321:297|310:337|310:337|299:321|300:303,1,105.000004005432
129,353,82191,2,0,B|83:336|54:306|54:306|73:305|89:315,1,105.000004005432
208,112,82358,1,0,0:0:0:0:
226,117,82441,1,0,0:0:0:0:
244,122,82525,1,0,0:0:0:0:
66,230,82691,6,0,L|65:234,1,5.25
205,353,83024,1,0,0:0:0:0:
209,350,83108,1,0,0:0:0:0:
213,347,83191,6,0,P|223:296|203:249,1,105.000004005432
28,317,83358,2,0,P|79:327|126:307,1,105.000004005432
241,162,83524,2,0,P|190:152|143:172,1,105.000004005432
56,132,83691,2,0,P|46:183|66:230,1,105.000004005432
244,166,83858,5,0,0:0:0:0:
408,71,84025,1,0,0:0:0:0:
426,76,84108,1,0,0:0:0:0:
444,81,84192,1,0,0:0:0:0:
142,172,84358,6,0,L|138:176,1,5.25
25,313,84691,1,0,0:0:0:0:
28,317,84774,1,0,0:0:0:0:
31,321,84858,2,0,L|34:326,1,5.25
230,317,85191,6,0,L|125:306,1,105.000004005432
37,182,85358,2,0,L|142:171,1,105.000004005432
305,144,85524,6,0,L|307:147,1,5.25
230,317,85857,1,0,0:0:0:0:
233,313,85941,1,0,0:0:0:0:
236,309,86024,2,0,L|235:303,1,5.25
191,45,86358,6,0,B|180:69|183:94|183:94|182:98|182:98|183:102|183:102|187:125|182:149,1,105.000004005432
54,354,86524,2,0,B|77:342|89:320|89:320|93:318|93:318|94:314|94:314|104:293|123:277,1,105.000004005432
346,184,86691,2,0,B|320:181|297:191|297:191|293:192|293:192|290:194|290:194|269:205|245:208,1,105.000004005432
10,150,86858,6,0,L|13:152,1,3.5
262,361,87108,1,0,0:0:0:0:
262,361,87191,6,0,B|341:291|341:291|388:286|423:264|423:264|413:260|407:262|373:260|335:226|320:171|354:120|411:102,1,420.000016021729
428,177,87608,1,0,0:0:0:0:
141,27,87691,2,0,B|153:79|144:131|144:131|109:167|119:232|119:232|153:204|199:207|236:233,1,315.000012016297
450,0,88024,6,0,P|499:70|512:156,1,175
262,361,88191,2,0,P|328:305|362:225,1,175
141,27,88358,2,0,P|219:63|272:131,1,175
8,332,88524,6,0,P|94:339|174:307,1,175
