osu file format v14

[General]
AudioFilename: audio.mp3
AudioLeadIn: 0
PreviewTime: 60189
Countdown: 0
SampleSet: Soft
StackLeniency: 0.7
Mode: 3
LetterboxInBreaks: 0
SpecialStyle: 0
WidescreenStoryboard: 1

[Editor]
Bookmarks: 87523
DistanceSpacing: 0.8
BeatDivisor: 3
GridSize: 16
TimelineZoom: 1.8

[Metadata]
Title:Kanpan Tasogare Shinbun
TitleUnicode:官板黄昏新聞
Artist:Akiyama Uni
ArtistUnicode:あきやまうに
Creator:Larc
Version:Normal
Source:東方心綺楼 ~ Hopeless Masquerade.
Tags:Twilight Frontier Tasofro 黄昏フロンティア th13.5 zun Touhou とうほうプロジェクト Officially-Sanctioned Twilight Newspaper 東方Project Video Game Instrumental U2
BeatmapID:2065369
BeatmapSetID:969976

[Difficulty]
HPDrainRate:7
CircleSize:4
OverallDifficulty:6.5
ApproachRate:5
SliderMultiplier:1.4
SliderTickRate:1

[Events]
//Background and Video events
0,0,"hnk4.jpg",0,0
//Break Periods
//Storyboard Layer 0 (Background)
//Storyboard Layer 1 (Fail)
//Storyboard Layer 2 (Pass)
//Storyboard Layer 3 (Foreground)
//Storyboard Layer 4 (Overlay)
//Storyboard Sound Samples

[TimingPoints]
523,333.333333333333,5,2,1,70,1,0
60522,-100,5,2,1,70,0,1
88856,-100,5,2,1,70,0,0

[HitObjects]
64,192,523,5,12,0:0:0:0:
320,192,856,1,0,0:0:0:0:
192,192,1022,1,8,0:0:0:0:
192,192,1522,1,8,0:0:0:0:
192,192,1856,1,8,0:0:0:0:
192,192,2189,1,8,0:0:0:0:
320,192,2522,1,0,0:0:0:0:
192,192,2689,1,8,0:0:0:0:
192,192,3189,1,8,0:0:0:0:
192,192,3522,1,8,0:0:0:0:
448,192,3856,1,12,0:0:0:0:
192,192,4189,1,0,0:0:0:0:
320,192,4356,1,8,0:0:0:0:
320,192,4856,1,8,0:0:0:0:
320,192,5189,1,8,0:0:0:0:
320,192,5522,1,8,0:0:0:0:
192,192,5856,1,0,0:0:0:0:
320,192,6022,1,8,0:0:0:0:
320,192,6522,1,8,0:0:0:0:
320,192,6856,1,8,0:0:0:0:
320,192,7189,1,8,0:0:0:0:
64,192,7189,1,4,0:0:0:0:
192,192,7689,1,0,0:0:0:0:
448,192,7689,1,8,0:0:0:0:
192,192,8189,1,8,0:0:0:0:
64,192,8189,1,0,0:0:0:0:
320,192,8522,1,8,0:0:0:0:
192,192,8689,1,0,0:0:0:0:
320,192,8856,1,0,0:0:0:0:
448,192,8856,1,8,0:0:0:0:
192,192,9356,1,0,0:0:0:0:
448,192,9356,1,8,0:0:0:0:
64,192,9689,1,0,0:0:0:0:
320,192,9856,1,8,0:0:0:0:
448,192,9856,1,0,0:0:0:0:
320,192,10189,1,8,0:0:0:0:
192,192,10522,1,0,0:0:0:0:
448,192,10522,1,8,0:0:0:0:
320,192,11022,1,0,0:0:0:0:
64,192,11022,1,8,0:0:0:0:
448,192,11522,1,0,0:0:0:0:
320,192,11522,1,8,0:0:0:0:
192,192,11856,1,8,0:0:0:0:
320,192,12022,1,0,0:0:0:0:
192,192,12189,1,0,0:0:0:0:
64,192,12189,1,8,0:0:0:0:
320,192,12689,1,8,0:0:0:0:
64,192,12689,1,0,0:0:0:0:
448,192,13022,1,0,0:0:0:0:
64,192,13189,1,8,0:0:0:0:
192,192,13189,1,2,0:0:0:0:
64,192,13522,1,8,0:0:0:0:
192,192,13856,1,8,0:0:0:0:
448,192,13856,1,4,0:0:0:0:
64,192,14356,1,0,0:0:0:0:
320,192,14356,1,8,0:0:0:0:
192,192,14689,1,0,0:0:0:0:
320,192,14856,1,0,0:0:0:0:
448,192,14856,1,8,0:0:0:0:
320,192,15189,1,8,0:0:0:0:
192,192,15522,1,0,0:0:0:0:
448,192,15522,1,8,0:0:0:0:
320,192,16022,1,8,0:0:0:0:
64,192,16022,1,0,0:0:0:0:
448,192,16356,1,0,0:0:0:0:
192,192,16522,1,0,0:0:0:0:
64,192,16522,1,8,0:0:0:0:
448,192,16856,1,0,0:0:0:0:
320,192,17189,1,2,0:0:0:0:
64,192,17189,1,8,0:0:0:0:
192,192,17689,1,0,0:0:0:0:
320,192,17689,1,8,0:0:0:0:
64,192,18022,1,0,0:0:0:0:
320,192,18189,1,0,0:0:0:0:
448,192,18189,1,8,0:0:0:0:
192,192,18522,1,0,0:0:0:0:
448,192,18522,1,8,0:0:0:0:
320,192,18856,1,0,0:0:0:0:
192,192,19022,1,0,0:0:0:0:
64,192,19189,1,0,0:0:0:0:
320,192,19356,1,0,0:0:0:0:
448,192,19522,1,0,0:0:0:0:
64,192,19689,1,0,0:0:0:0:
448,192,19856,1,2,0:0:0:0:
320,192,19856,1,0,0:0:0:0:
448,192,20189,1,2,0:0:0:0:
192,192,20189,1,0,0:0:0:0:
320,192,20522,1,8,0:0:0:0:
64,192,20522,1,4,0:0:0:0:
448,192,21022,1,8,0:0:0:0:
192,192,21022,1,0,0:0:0:0:
64,192,21522,1,0,0:0:0:0:
192,192,21522,1,8,0:0:0:0:
320,192,21856,1,8,0:0:0:0:
192,192,22022,1,0,0:0:0:0:
448,192,22189,1,8,0:0:0:0:
320,192,22189,1,0,0:0:0:0:
448,192,22689,1,0,0:0:0:0:
192,192,22689,1,8,0:0:0:0:
64,192,23022,1,0,0:0:0:0:
320,192,23189,1,8,0:0:0:0:
192,192,23189,1,0,0:0:0:0:
448,192,23522,1,10,0:0:0:0:
320,192,23856,1,0,0:0:0:0:
64,192,23856,1,8,0:0:0:0:
448,192,24356,1,8,0:0:0:0:
192,192,24356,1,0,0:0:0:0:
448,192,24856,1,8,0:0:0:0:
64,192,24856,1,2,0:0:0:0:
192,192,25189,1,8,0:0:0:0:
320,192,25356,1,0,0:0:0:0:
64,192,25522,1,8,0:0:0:0:
192,192,25522,1,0,0:0:0:0:
64,192,26022,1,0,0:0:0:0:
320,192,26022,1,8,0:0:0:0:
448,192,26356,1,0,0:0:0:0:
192,192,26522,1,0,0:0:0:0:
64,192,26522,1,8,0:0:0:0:
64,192,26856,1,8,0:0:0:0:
448,192,27189,1,8,0:0:0:0:
192,192,27189,1,4,0:0:0:0:
320,192,27689,1,8,0:0:0:0:
64,192,27689,1,0,0:0:0:0:
192,192,28022,1,0,0:0:0:0:
448,192,28189,1,8,0:0:0:0:
320,192,28189,1,2,0:0:0:0:
320,192,28522,1,8,0:0:0:0:
448,192,28856,1,8,0:0:0:0:
192,192,28856,1,0,0:0:0:0:
64,192,29356,1,8,0:0:0:0:
320,192,29356,1,0,0:0:0:0:
448,192,29689,1,0,0:0:0:0:
64,192,29856,1,2,0:0:0:0:
192,192,29856,1,8,0:0:0:0:
64,192,30189,1,8,0:0:0:0:
192,192,30522,1,0,0:0:0:0:
320,192,30522,1,8,0:0:0:0:
448,192,31022,1,8,0:0:0:0:
192,192,31022,1,0,0:0:0:0:
320,192,31356,1,0,0:0:0:0:
192,192,31522,1,8,0:0:0:0:
64,192,31522,1,2,0:0:0:0:
448,192,31856,1,2,0:0:0:0:
192,192,31856,1,8,0:0:0:0:
64,192,32189,1,4,0:0:0:0:
448,192,32189,1,8,0:0:0:0:
192,192,32689,1,0,0:0:0:0:
320,192,32689,1,8,0:0:0:0:
64,192,33189,1,0,0:0:0:0:
192,192,33411,1,0,0:0:0:0:
448,192,33522,1,0,0:0:0:0:
192,192,33745,1,0,0:0:0:0:
320,192,33856,1,12,0:0:0:0:
448,192,34022,1,0,0:0:0:0:
448,192,34189,128,0,35522:0:0:0:0:
192,192,35522,1,8,0:0:0:0:
320,192,35689,1,0,0:0:0:0:
64,192,35856,1,0,0:0:0:0:
448,192,36022,1,8,0:0:0:0:
320,192,36189,1,0,0:0:0:0:
192,192,36356,1,0,0:0:0:0:
448,192,36522,1,8,0:0:0:0:
320,192,36689,1,0,0:0:0:0:
64,192,36856,1,8,0:0:0:0:
448,192,37022,1,0,0:0:0:0:
320,192,37189,1,8,0:0:0:0:
192,192,37356,1,0,0:0:0:0:
64,192,37522,128,0,38522:0:0:0:0:
320,192,38522,1,8,0:0:0:0:
448,192,38689,1,0,0:0:0:0:
192,192,38856,128,8,40522:0:0:0:0:
64,192,40522,1,8,0:0:0:0:
448,192,40689,1,0,0:0:0:0:
448,192,40856,128,0,42189:0:0:0:0:
192,192,42189,1,8,0:0:0:0:
320,192,42356,1,0,0:0:0:0:
64,192,42522,1,0,0:0:0:0:
448,192,42689,1,8,0:0:0:0:
192,192,42856,1,0,0:0:0:0:
320,192,43022,1,0,0:0:0:0:
64,192,43189,1,8,0:0:0:0:
192,192,43356,1,0,0:0:0:0:
448,192,43522,1,8,0:0:0:0:
192,192,43689,1,0,0:0:0:0:
320,192,43856,128,8,45189:0:0:0:0:
448,192,45189,1,8,0:0:0:0:
192,192,45356,1,0,0:0:0:0:
64,192,45522,128,8,47189:0:0:0:0:
320,192,47189,1,12,0:0:0:0:
448,192,47356,1,0,0:0:0:0:
448,192,47522,128,0,48856:0:0:0:0:
192,192,48856,1,8,0:0:0:0:
320,192,49022,1,0,0:0:0:0:
64,192,49189,1,0,0:0:0:0:
448,192,49356,1,8,0:0:0:0:
320,192,49522,1,0,0:0:0:0:
192,192,49689,1,0,0:0:0:0:
448,192,49856,1,8,0:0:0:0:
320,192,50022,1,0,0:0:0:0:
64,192,50189,1,8,0:0:0:0:
448,192,50356,1,0,0:0:0:0:
320,192,50522,1,8,0:0:0:0:
192,192,50689,1,0,0:0:0:0:
64,192,50856,128,0,51856:0:0:0:0:
320,192,51856,1,8,0:0:0:0:
448,192,52022,1,0,0:0:0:0:
192,192,52189,128,8,53856:0:0:0:0:
64,192,53856,1,8,0:0:0:0:
448,192,54022,1,0,0:0:0:0:
448,192,54189,128,0,55522:0:0:0:0:
192,192,55522,1,8,0:0:0:0:
320,192,55689,1,0,0:0:0:0:
64,192,55856,1,0,0:0:0:0:
448,192,56022,1,8,0:0:0:0:
192,192,56189,1,0,0:0:0:0:
320,192,56356,1,0,0:0:0:0:
64,192,56522,1,8,0:0:0:0:
192,192,56689,1,0,0:0:0:0:
448,192,56856,1,8,0:0:0:0:
192,192,57022,1,0,0:0:0:0:
320,192,57189,128,8,58522:0:0:0:0:
64,192,58522,1,8,0:0:0:0:
192,192,58689,1,0,0:0:0:0:
448,192,58856,128,8,60522:0:0:0:0:
64,192,60522,1,4,0:0:0:0:
192,192,60522,1,8,0:0:0:0:
320,192,61022,1,8,0:0:0:0:
192,192,61356,1,0,0:0:0:0:
448,192,61522,1,8,0:0:0:0:
64,192,61856,1,8,0:0:0:0:
448,192,62022,1,0,0:0:0:0:
320,192,62189,1,8,0:0:0:0:
64,192,62689,1,8,0:0:0:0:
448,192,63022,1,0,0:0:0:0:
320,192,63189,1,8,0:0:0:0:
64,192,63522,1,8,0:0:0:0:
192,192,63689,1,0,0:0:0:0:
320,192,63856,1,4,0:0:0:0:
448,192,63856,1,8,0:0:0:0:
64,192,64356,1,8,0:0:0:0:
448,192,64856,1,8,0:0:0:0:
192,192,65189,1,8,0:0:0:0:
320,192,65356,1,0,0:0:0:0:
448,192,65522,1,8,0:0:0:0:
64,192,66022,1,8,0:0:0:0:
320,192,66356,1,0,0:0:0:0:
192,192,66522,1,8,0:0:0:0:
320,192,66689,1,0,0:0:0:0:
448,192,66856,1,8,0:0:0:0:
448,192,67189,1,4,0:0:0:0:
320,192,67189,1,8,0:0:0:0:
192,192,67689,1,8,0:0:0:0:
320,192,68022,1,0,0:0:0:0:
64,192,68189,1,8,0:0:0:0:
448,192,68522,1,8,0:0:0:0:
64,192,68689,1,0,0:0:0:0:
192,192,68856,1,8,0:0:0:0:
448,192,69356,1,8,0:0:0:0:
64,192,69689,1,0,0:0:0:0:
192,192,69856,1,8,0:0:0:0:
448,192,70189,1,8,0:0:0:0:
320,192,70356,1,0,0:0:0:0:
192,192,70522,1,4,0:0:0:0:
64,192,70522,1,8,0:0:0:0:
448,192,71022,1,8,0:0:0:0:
64,192,71522,1,8,0:0:0:0:
320,192,71856,1,8,0:0:0:0:
192,192,72022,1,0,0:0:0:0:
64,192,72189,1,8,0:0:0:0:
448,192,72689,1,8,0:0:0:0:
192,192,73022,1,0,0:0:0:0:
448,192,73189,1,8,0:0:0:0:
320,192,73356,1,0,0:0:0:0:
64,192,73522,1,8,0:0:0:0:
192,192,73856,1,4,0:0:0:0:
64,192,73856,1,8,0:0:0:0:
320,192,74356,1,8,0:0:0:0:
192,192,74689,1,0,0:0:0:0:
448,192,74856,1,8,0:0:0:0:
64,192,75189,1,8,0:0:0:0:
448,192,75356,1,0,0:0:0:0:
320,192,75522,1,8,0:0:0:0:
64,192,76022,1,8,0:0:0:0:
448,192,76356,1,0,0:0:0:0:
320,192,76522,1,8,0:0:0:0:
64,192,76856,1,8,0:0:0:0:
192,192,77022,1,0,0:0:0:0:
320,192,77189,1,4,0:0:0:0:
448,192,77189,1,8,0:0:0:0:
64,192,77689,1,8,0:0:0:0:
448,192,78189,1,8,0:0:0:0:
192,192,78522,1,8,0:0:0:0:
320,192,78689,1,0,0:0:0:0:
448,192,78856,1,8,0:0:0:0:
64,192,79356,1,8,0:0:0:0:
320,192,79689,1,0,0:0:0:0:
192,192,79856,1,8,0:0:0:0:
320,192,80022,1,0,0:0:0:0:
448,192,80189,1,8,0:0:0:0:
448,192,80522,1,4,0:0:0:0:
320,192,80522,1,8,0:0:0:0:
192,192,81022,1,8,0:0:0:0:
320,192,81356,1,0,0:0:0:0:
64,192,81522,1,8,0:0:0:0:
448,192,81856,1,8,0:0:0:0:
64,192,82022,1,0,0:0:0:0:
192,192,82189,1,8,0:0:0:0:
448,192,82689,1,8,0:0:0:0:
64,192,83022,1,0,0:0:0:0:
192,192,83189,1,8,0:0:0:0:
448,192,83522,1,8,0:0:0:0:
320,192,83689,1,0,0:0:0:0:
192,192,83856,1,4,0:0:0:0:
64,192,83856,1,8,0:0:0:0:
448,192,84356,1,8,0:0:0:0:
64,192,84856,1,8,0:0:0:0:
320,192,85189,1,8,0:0:0:0:
192,192,85356,1,0,0:0:0:0:
64,192,85522,1,8,0:0:0:0:
448,192,86022,1,8,0:0:0:0:
192,192,86356,1,0,0:0:0:0:
448,192,86522,1,8,0:0:0:0:
320,192,86689,1,0,0:0:0:0:
64,192,86856,1,8,0:0:0:0:
64,192,87189,1,4,0:0:0:0:
192,192,87189,1,8,0:0:0:0:
320,192,87689,1,8,0:0:0:0:
192,192,88022,1,0,0:0:0:0:
64,192,88189,1,8,0:0:0:0:
320,192,88356,1,0,0:0:0:0:
448,192,88522,1,8,0:0:0:0:
64,192,88856,1,4,0:0:0:0:
192,192,88856,1,8,0:0:0:0:
64,192,89356,1,8,0:0:0:0:
64,192,89856,1,8,0:0:0:0:
64,192,90189,1,8,0:0:0:0:
192,192,90522,1,8,0:0:0:0:
192,192,91022,1,8,0:0:0:0:
192,192,91522,1,8,0:0:0:0:
192,192,91856,1,8,0:0:0:0:
320,192,92189,1,0,0:0:0:0:
448,192,92189,1,8,0:0:0:0:
64,192,92522,1,0,0:0:0:0:
320,192,92689,1,8,0:0:0:0:
64,192,93022,1,0,0:0:0:0:
320,192,93189,1,8,0:0:0:0:
320,192,93522,1,8,0:0:0:0:
64,192,93856,1,0,0:0:0:0:
448,192,93856,1,8,0:0:0:0:
192,192,94189,1,0,0:0:0:0:
448,192,94356,1,8,0:0:0:0:
192,192,94689,1,0,0:0:0:0:
448,192,94856,1,8,0:0:0:0:
448,192,95189,1,8,0:0:0:0:
