osu file format v14

[General]
AudioFilename: audio.mp3
AudioLeadIn: 0
PreviewTime: 572
Countdown: 0
SampleSet: Soft
StackLeniency: 0.4
Mode: 0
LetterboxInBreaks: 0
WidescreenStoryboard: 1

[Editor]
Bookmarks: 27844,63844,91117,126026
DistanceSpacing: 0.8
BeatDivisor: 4
GridSize: 32
TimelineZoom: 1.8

[Metadata]
Title:Kanjou no Matenrou ~ Cosmic Mind
TitleUnicode:感情の摩天楼 ~ Cosmic Mind
Artist:Akiyama Uni
ArtistUnicode:あきやまうに
Creator:Shurelia
Version:Collab Lunatic
Source:東方心綺楼 ~ Hopeless Masquerade.
Tags:Touhou project 東方Project team shanghai alice zun twilight frontier tasofro Shinkirou th13.5 HM byakuren hijiri 聖 白蓮 Emotional Skyscraper u2 instrumental jazz video game hollow wings advent supav nik nikolomara wring
BeatmapID:4422422
BeatmapSetID:2097827

[Difficulty]
HPDrainRate:5
CircleSize:4
OverallDifficulty:8
ApproachRate:8.5
SliderMultiplier:1.48
SliderTickRate:1

[Events]
//Background and Video events
0,0,"byakurenbg.jpg",0,0
//Break Periods
//Storyboard Layer 0 (Background)
//Storyboard Layer 1 (Fail)
//Storyboard Layer 2 (Pass)
//Storyboard Layer 3 (Foreground)
//Storyboard Layer 4 (Overlay)
//Storyboard Sound Samples

[TimingPoints]
572,272.727272727273,4,2,1,59,1,0
572,-142.857142857143,4,2,1,59,0,0
7117,-111.111111111111,4,2,1,69,0,0
10390,-100,4,2,1,59,0,0
25662,-125,4,2,1,59,0,0
34390,-99.9999999999999,4,2,1,69,0,0
38753,-99.9999999999999,4,2,1,74,0,0
43117,-111.111111111111,4,2,1,79,0,0
58390,-100,4,2,1,79,0,0
63844,-125,4,2,1,69,0,0
70390,-111.111111111111,4,2,1,69,0,0
73662,-142.857142857143,4,2,1,59,0,0
91117,-100,4,2,1,79,0,0
126026,-111.111111111111,4,2,1,69,0,0
132572,-100,4,2,1,69,0,0
136935,-100,4,2,1,59,0,0
138026,-100,4,2,1,49,0,0
139117,-100,4,2,1,39,0,0
140208,-100,4,2,1,29,0,0

[Colours]
Combo1 : 0,64,128
Combo2 : 87,0,174
Combo3 : 168,84,0
Combo4 : 192,192,192

[HitObjects]
477,3,572,6,0,P|476:106|478:210,1,207.199993676758,6|0,0:0|3:2,0:0:0:0:
512,291,1390,1,0,0:0:0:0:
397,383,1662,2,0,P|396:279|393:175,1,207.199993676758,6|0,0:0|3:2,0:0:0:0:
311,1,2753,6,0,P|312:78|312:156,1,155.399995257569,6|0,0:0|0:0,0:0:0:0:
291,308,3299,2,0,P|286:269|284:230,2,77.6999976287843,2|0|0,3:2|0:0|0:0,0:0:0:0:
216,178,3844,2,0,P|216:100|214:22,1,155.399995257569,6|0,0:0|0:0,0:0:0:0:
124,50,4390,2,0,P|125:127|125:205,1,155.399995257569,2|0,3:2|0:0,0:0:0:0:
28,0,4935,6,0,P|31:103|32:207,1,207.199993676758,6|0,0:0|3:2,0:0:0:0:
6,291,5753,1,2,0:0:0:0:
92,363,6026,2,0,P|95:337|96:311,1,51.7999984191895,6|0,0:0|0:0,0:0:0:0:
189,366,6299,2,0,P|192:340|193:314,1,51.7999984191895
294,368,6572,2,0,P|297:342|298:316,1,51.7999984191895,0|0,3:2|0:0,0:0:0:0:
408,370,6844,1,8,0:0:0:0:
408,370,7117,6,0,P|404:336|404:303,2,66.5999979675294,6|2|10,0:0|0:0|0:0,0:0:0:0:
483,205,7526,2,0,P|483:238|479:271,2,66.5999979675294,4|2|0,0:0|0:0|3:2,0:0:0:0:
412,155,7935,1,8,3:2:0:0:
364,223,8072,1,14,3:2:0:0:
256,192,8140,12,12,10117,0:0:0:0:
364,223,10390,6,0,P|290:217|216:211,1,148,6|10,3:2|0:1,0:0:0:0:
124,216,10799,1,0,0:0:0:0:
124,216,10935,1,2,3:2:0:0:
242,122,11072,2,0,P|205:130|169:136,1,74,0|10,0:0|0:1,0:0:0:0:
319,37,11344,2,0,P|245:42|171:48,1,148,0|0,3:2|3:2,0:0:0:0:
20,22,11890,1,0,3:2:0:0:
2,103,12026,1,2,0:0:0:0:
55,167,12162,2,0,L|66:314,1,148,0|0,3:2|3:2,0:0:0:0:
5,366,12572,5,2,3:2:0:0:
216,365,12844,2,0,L|311:390,1,74,10|0,0:1|0:0,0:0:0:0:
408,357,13117,1,2,3:2:0:0:
408,357,13253,2,0,L|480:373,1,74,0|10,0:0|0:1,0:0:0:0:
323,294,13526,2,0,L|251:278,1,74,0|2,3:2|0:0,0:0:0:0:
413,244,13799,1,0,3:2:0:0:
501,281,13935,2,0,L|498:207,2,74,10|0|2,0:1|3:2|0:0,0:0:0:0:
413,244,14344,1,0,3:2:0:0:
426,159,14481,1,10,0:1:0:0:
426,158,14753,6,0,P|427:85|426:11,1,148,2|10,3:2|0:1,0:0:0:0:
350,0,15162,1,0,0:0:0:0:
350,0,15298,1,2,3:2:0:0:
302,124,15435,2,0,P|300:88|297:51,1,74,0|10,0:0|0:1,0:0:0:0:
221,187,15708,2,0,P|221:113|215:39,1,148,0|0,3:2|3:2,0:0:0:0:
111,186,16253,1,0,3:2:0:0:
143,259,16389,1,2,0:0:0:0:
227,285,16525,2,0,L|211:357,1,74,0|10,3:2|0:1,0:0:0:0:
131,380,16799,1,0,3:2:0:0:
131,380,17072,5,0,0:0:0:0:
86,315,17208,1,10,0:1:0:0:
143,259,17344,1,0,0:0:0:0:
111,186,17481,2,0,L|1:203,2,111,2|2|2,3:2|0:0|3:2,0:0:0:0:
111,186,18162,1,0,3:2:0:0:
81,106,18299,2,0,P|45:112|8:117,1,74,10|0,0:1|3:2,0:0:0:0:
143,41,18572,2,0,P|179:45|216:52,1,74,2|0,0:0|3:2,0:0:0:0:
279,113,18844,1,10,0:1:0:0:
279,113,18981,1,0,0:0:0:0:
349,55,19117,5,6,3:2:0:0:
411,164,19253,2,0,P|414:127|420:90,1,74,0|10,0:0|0:1,0:0:0:0:
324,182,19526,2,0,P|329:218|333:255,1,74,0|2,0:0|3:2,0:0:0:0:
414,305,19799,1,8,0:0:0:0:
207,383,20072,1,2,3:2:0:0:
207,383,20344,1,0,3:2:0:0:
164,341,20481,1,10,0:1:0:0:
107,325,20617,1,0,3:2:0:0:
48,332,20753,1,2,0:0:0:0:
4,372,20890,1,8,3:2:0:0:
4,372,21162,1,0,3:2:0:0:
33,285,21299,6,0,P|26:248|21:211,1,74,2|0,3:2|0:0,0:0:0:0:
124,215,21572,2,0,P|130:178|135:141,1,74,10|0,0:1|0:0,0:0:0:0:
210,253,21844,1,2,3:2:0:0:
210,253,21981,1,0,0:0:0:0:
298,214,22117,1,10,0:1:0:0:
298,214,22253,1,0,3:2:0:0:
370,273,22390,2,0,L|448:282,2,74,2|0|10,0:0|3:2|0:1,0:0:0:0:
282,331,22799,1,0,3:2:0:0:
282,331,22935,2,0,L|189:341,2,74,2|0|10,0:0|3:2|0:1,0:0:0:0:
365,384,23344,1,0,0:0:0:0:
365,384,23481,5,6,3:2:0:0:
447,355,23617,2,0,L|443:281,1,74,0|10,0:0|0:1,0:0:0:0:
504,226,23890,2,0,P|505:189|505:152,1,74,0|2,0:0|3:2,0:0:0:0:
421,47,24162,2,0,P|418:120|415:194,1,148,0|8,0:0|3:2,0:0:0:0:
115,176,24708,1,2,3:2:0:0:
115,176,24981,1,0,3:2:0:0:
145,108,25117,1,2,0:0:0:0:
144,32,25253,1,10,3:2:0:0:
0,127,25526,1,0,3:2:0:0:
0,127,25594,1,8,3:3:0:0:
0,127,25662,6,0,L|2:186,1,59.2,6|8,3:2|0:3,0:0:0:0:
65,239,25935,1,8,0:3:0:0:
115,176,26072,1,4,0:0:0:0:
115,176,26344,1,8,0:3:0:0:
177,225,26481,1,8,0:0:0:0:
0,327,26753,2,0,B|94:362|167:278|290:317,1,296,4|0,0:0|3:2,0:0:0:0:
359,373,27572,1,8,0:0:0:0:
316,234,27844,6,0,P|404:232|493:225,1,177.6,4|0,0:0|3:2,0:0:0:0:
485,71,28526,1,0,3:2:0:0:
485,71,28662,2,0,L|426:79,1,59.2,8|0,0:0|3:2,0:0:0:0:
364,30,28935,2,0,P|275:38|186:38,1,177.6,0|0,3:2|3:2,0:0:0:0:
107,199,29617,1,0,3:2:0:0:
107,199,29753,2,0,L|48:190,1,59.2,8|0,0:0|3:2,0:0:0:0:
17,119,30026,6,0,P|105:123|192:142,1,177.6,4|0,0:0|3:2,0:0:0:0:
266,191,30572,2,0,L|324:198,1,59.2,0|0,0:0|3:2,0:0:0:0:
411,186,30844,1,8,0:0:0:0:
482,354,31117,2,0,P|424:344|365:341,1,118.4,0|8,3:2|0:0,0:0:0:0:
296,303,31526,1,0,3:2:0:0:
296,303,31662,2,0,L|237:311,1,59.2,0|0,0:0|3:2,0:0:0:0:
168,364,31935,1,8,0:0:0:0:
16,215,32208,6,0,P|103:231|191:238,1,177.6,4|0,0:0|3:2,0:0:0:0:
46,124,32890,1,0,3:2:0:0:
46,124,33026,2,0,L|114:114,1,59.2,8|0,0:0|3:2,0:0:0:0:
169,159,33299,2,0,P|227:151|284:136,1,118.4,4|8,3:2|0:0,0:0:0:0:
365,333,33844,2,0,P|423:340|482:337,1,118.4,4|8,0:0|0:0,0:0:0:0:
485,50,34390,6,0,L|483:123,2,74,6|2|10,0:0|0:0|0:0,0:0:0:0:
405,151,34799,1,4,0:0:0:0:
405,151,34935,2,0,L|392:78,2,74,2|8|8,0:0|3:2|3:2,0:0:0:0:
329,25,35344,2,0,L|295:38,1,37,2|2,3:2|0:0,0:0:0:0:
314,54,35481,6,0,L|312:136,2,74,6|2|10,0:0|0:0|0:0,0:0:0:0:
233,162,35890,1,4,0:0:0:0:
233,162,36026,2,0,L|224:88,2,74,2|8|8,0:0|3:2|3:2,0:0:0:0:
148,250,36435,2,0,L|111:250,1,37,2|2,3:2|0:0,0:0:0:0:
140,220,36572,6,0,L|145:146,2,74,6|2|10,0:0|0:0|0:0,0:0:0:0:
46,105,36981,1,4,0:0:0:0:
46,105,37117,2,0,L|63:182,2,74,2|8|8,0:0|3:2|3:2,0:0:0:0:
15,240,37526,2,0,L|37:278,1,37,2|2,3:2|0:0,0:0:0:0:
23,317,37662,6,0,P|96:324|170:333,1,148,6|10,0:0|0:0,0:0:0:0:
313,335,38072,2,0,P|239:344|167:360,1,148,4|8,0:0|3:2,0:0:0:0:
114,251,38481,1,8,3:2:0:0:
114,251,38617,2,0,L|149:239,1,37,2|2,3:2|0:0,0:0:0:0:
165,193,38753,5,6,0:0:0:0:
165,193,38890,2,0,P|201:195|238:195,1,74,2|10,0:0|0:0,0:0:0:0:
301,121,39162,1,4,0:0:0:0:
301,121,39298,1,2,0:0:0:0:
300,121,39435,2,0,P|263:117|226:110,1,74,8|8,3:2|3:2,0:0:0:0:
360,68,39707,2,0,L|396:61,1,37,2|2,3:2|0:0,0:0:0:0:
446,74,39844,5,6,0:0:0:0:
445,74,39980,2,0,P|409:84|376:101,1,74,2|10,0:0|0:0,0:0:0:0:
307,170,40253,1,4,0:0:0:0:
307,170,40389,1,2,0:0:0:0:
307,169,40526,2,0,P|343:176|377:189,1,74,8|8,3:2|3:2,0:0:0:0:
470,218,40798,2,0,L|438:238,1,37,2|2,3:2|0:0,0:0:0:0:
461,282,40935,5,6,0:0:0:0:
461,281,41071,2,0,P|424:288|387:289,1,74,2|10,0:0|0:0,0:0:0:0:
261,364,41344,1,4,0:0:0:0:
261,364,41480,1,2,0:0:0:0:
261,364,41617,2,0,P|297:358|332:346,1,74,8|8,3:2|3:2,0:0:0:0:
247,284,41889,2,0,L|219:258,1,37,2|2,3:2|0:0,0:0:0:0:
178,264,42025,6,0,P|187:190|203:118,1,148,6|10,0:0|0:0,0:0:0:0:
138,25,42435,2,0,P|155:96|161:170,1,148,4|8,0:0|3:2,0:0:0:0:
97,295,42844,1,8,3:2:0:0:
97,295,43117,6,0,P|106:229|108:162,1,133.199995935059,6|10,3:2|0:1,0:0:0:0:
26,21,43662,2,0,L|50:83,2,66.5999979675294,2|0|10,3:2|0:0|0:1,0:0:0:0:
131,83,44072,1,0,3:2:0:0:
222,28,44208,2,0,P|205:92|194:158,1,133.199995935059,2|10,0:0|0:1,0:0:0:0:
257,213,44617,1,0,3:2:0:0:
333,186,44753,2,0,L|321:120,1,66.5999979675294,2|0,0:0|3:2,0:0:0:0:
409,102,45026,2,0,L|409:35,1,66.5999979675294,10|0,0:1|3:2,0:0:0:0:
461,177,45299,6,0,P|475:241|491:306,1,133.199995935059,2|10,3:2|0:1,0:0:0:0:
397,241,45708,2,0,P|331:251|265:264,2,133.199995935059,2|2|2,0:0|0:0|3:2,0:0:0:0:
232,342,46526,1,0,3:2:0:0:
155,308,46662,2,0,L|176:244,1,66.5999979675294,10|0,0:1|3:2,0:0:0:0:
68,329,46935,1,2,0:0:0:0:
86,288,47072,1,2,3:2:0:0:
92,224,47208,1,10,0:1:0:0:
70,153,47344,1,2,0:0:0:0:
11,86,47481,6,0,P|26:150|48:213,1,133.199995935059,2|10,3:2|0:1,0:0:0:0:
30,372,48026,2,0,L|40:306,1,66.5999979675294,2|0,3:2|0:0,0:0:0:0:
122,267,48299,1,10,0:1:0:0:
149,345,48435,1,0,3:2:0:0:
234,355,48572,2,0,P|213:291|199:226,1,133.199995935059,2|10,0:0|0:1,0:0:0:0:
243,71,49117,1,2,0:0:0:0:
284,137,49253,2,0,L|272:202,1,66.5999979675294,0|10,3:2|0:1,0:0:0:0:
350,88,49526,2,0,L|340:22,1,66.5999979675294,0|2,3:2|3:2,0:0:0:0:
431,72,49799,5,0,0:0:0:0:
495,122,49935,1,10,0:1:0:0:
465,191,50072,1,0,0:0:0:0:
465,191,50208,2,0,P|461:240|453:290,2,99.899996951294,2|2|2,3:2|0:0|3:2,0:0:0:0:
386,360,50890,1,0,3:2:0:0:
386,360,51026,2,0,L|364:296,1,66.5999979675294,10|0,0:1|3:2,0:0:0:0:
340,118,51436,1,0,3:2:0:0:
340,118,51572,1,10,0:1:0:0:
378,185,51708,1,0,0:0:0:0:
317,236,51844,6,0,L|251:247,1,66.5999979675294,6|0,3:2|0:0,0:0:0:0:
216,319,52117,2,0,L|149:319,1,66.5999979675294,10|0,0:1|0:0,0:0:0:0:
80,354,52390,1,2,3:2:0:0:
80,354,52526,2,0,L|18:329,1,66.5999979675294,0|10,0:0|0:1,0:0:0:0:
8,223,52799,2,0,L|140:234,1,133.199995935059,0|0,3:2|3:2,0:0:0:0:
158,151,53208,2,0,L|223:141,1,66.5999979675294,10|0,0:1|3:2,0:0:0:0:
261,73,53481,1,2,0:0:0:0:
261,73,53617,2,0,L|322:47,1,66.5999979675294,0|10,3:2|0:1,0:0:0:0:
415,91,53890,1,0,3:2:0:0:
415,91,54026,6,0,L|349:81,1,66.5999979675294,2|0,3:2|0:0,0:0:0:0:
272,105,54299,2,0,L|262:170,1,66.5999979675294,10|0,0:1|0:0,0:0:0:0:
295,247,54572,2,0,L|360:256,1,66.5999979675294,2|0,3:2|0:0,0:0:0:0:
438,233,54845,2,0,L|447:167,1,66.5999979675294,10|0,0:1|3:2,0:0:0:0:
360,167,55117,2,0,B|287:222|394:294|317:346,2,199.799993902588,2|2|10,0:0|3:2|0:1,0:0:0:0:
415,91,56072,1,0,0:0:0:0:
415,91,56208,6,0,L|389:29,1,66.5999979675294,6|0,3:2|0:0,0:0:0:0:
336,129,56481,2,0,L|328:195,1,66.5999979675294,10|0,0:1|0:0,0:0:0:0:
270,78,56753,1,2,3:2:0:0:
270,78,56890,2,0,L|242:5,1,66.5999979675294,0|10,0:0|0:1,0:0:0:0:
190,115,57162,2,0,L|119:228,1,133.199995935059,0|0,3:2|3:2,0:0:0:0:
34,238,57572,2,0,L|53:301,1,66.5999979675294,10|0,0:1|3:2,0:0:0:0:
122,373,57844,1,2,0:0:0:0:
122,373,57981,2,0,L|137:308,1,66.5999979675294,0|10,3:2|0:1,0:0:0:0:
210,255,58253,1,0,3:2:0:0:
210,255,58390,6,0,L|282:241,2,74,6|8|8,3:2|0:3|0:3,0:0:0:0:
295,318,58799,2,0,P|368:329|438:350,1,148,4|8,0:0|0:3,0:0:0:0:
472,275,59208,1,8,0:0:0:0:
450,186,59344,1,4,0:3:0:0:
450,186,59412,1,8,0:3:0:0:
450,186,59481,6,0,L|376:177,2,74,4|0|8,0:0|3:2|0:0,0:0:0:0:
361,251,59890,2,0,P|288:263|216:281,1,148,0|0,3:2|3:2,0:0:0:0:
155,195,60299,1,8,0:0:0:0:
193,87,60435,1,8,0:0:0:0:
193,87,60503,1,8,0:0:0:0:
193,87,60572,6,0,L|266:95,2,74,6|8|8,3:2|0:3|0:3,0:0:0:0:
264,172,60981,2,0,P|334:197|401:227,1,148,4|8,0:0|0:3,0:0:0:0:
408,302,61390,2,0,L|459:354,1,74,8|4,0:0|0:3,0:0:0:0:
353,354,61662,5,4,0:0:0:0:
177,313,61935,1,8,0:0:0:0:
177,313,62072,2,0,L|152:243,1,74,0|0,3:2|0:0,0:0:0:0:
87,298,62344,1,0,3:2:0:0:
87,298,62481,2,0,L|64:368,1,74,8|8,0:0|0:0,0:0:0:0:
29,234,62753,1,4,0:0:0:0:
191,176,63026,1,8,0:0:0:0:
54,152,63299,1,8,0:0:0:0:
196,45,63572,1,8,0:0:0:0:
323,130,63844,6,0,P|381:121|440:114,1,118.4,14|8,3:2|0:0,0:0:0:0:
365,206,64253,2,0,P|423:197|482:190,1,118.4,0|0,3:2|3:2,0:0:0:0:
397,287,64662,1,8,0:0:0:0:
397,287,64799,1,0,3:2:0:0:
443,369,64935,2,0,P|384:362|325:353,1,118.4,2|8,3:2|0:0,0:0:0:0:
291,270,65344,2,0,P|232:276|173:285,1,118.4,0|0,3:2|3:2,0:0:0:0:
116,355,65753,1,8,0:0:0:0:
116,355,65890,1,0,3:2:0:0:
0,205,66026,6,0,P|58:214|117:220,1,118.4,2|8,3:2|0:0,0:0:0:0:
214,215,66435,2,0,P|240:162|265:108,1,118.4,0|0,3:2|3:2,0:0:0:0:
252,30,66844,1,8,0:0:0:0:
252,30,66981,1,0,3:2:0:0:
166,40,67117,2,0,P|107:34|48:26,1,118.4,2|8,3:2|0:0,0:0:0:0:
98,139,67526,2,0,P|156:144|215:152,1,118.4,0|0,3:2|3:2,0:0:0:0:
302,183,67935,1,8,0:0:0:0:
302,183,68072,1,0,3:2:0:0:
332,55,68208,6,0,L|448:33,1,118.4,2|8,3:2|0:0,0:0:0:0:
503,114,68617,2,0,L|386:135,1,118.4,0|0,3:2|3:2,0:0:0:0:
376,228,69026,1,8,0:0:0:0:
376,228,69163,1,0,3:2:0:0:
479,324,69299,2,0,P|473:265|462:206,1,118.4,2|8,3:2|0:0,0:0:0:0:
388,311,69708,1,0,3:2:0:0:
293,270,69844,2,0,P|234:263|175:258,1,118.4,2|8,0:0|0:0,0:0:0:0:
82,269,70253,1,0,3:2:0:0:
0,180,70390,6,0,P|66:177|132:172,1,133.199995935059,6|8,3:2|0:0,0:0:0:0:
218,156,70799,1,4,3:2:0:0:
94,95,70935,1,2,0:0:0:0:
94,95,71208,1,8,0:0:0:0:
191,64,71345,1,4,3:2:0:0:
33,35,71481,2,0,L|50:167,1,133.199995935059,6|8,3:2|0:0,0:0:0:0:
3,247,71890,1,0,3:2:0:0:
3,247,72162,1,0,3:2:0:0:
56,327,72299,1,8,0:0:0:0:
143,292,72435,1,0,3:2:0:0:
204,355,72572,6,0,L|269:345,1,66.5999979675294,2|0,3:2|3:2,0:0:0:0:
315,281,72844,2,0,L|380:290,1,66.5999979675294,8|0,0:0|3:2,0:0:0:0:
463,357,73117,1,10,0:0:0:0:
463,357,73253,1,0,3:2:0:0:
500,279,73390,2,0,L|508:247,3,33.2999989837647,10|8|8|8,0:0|0:0|3:2|0:0,0:0:0:0:
483,266,73662,6,0,P|481:168|390:132,1,207.199993676758,4|0,3:2|3:2,0:0:0:0:
391,133,74481,1,2,0:0:0:0:
319,185,74617,1,2,0:0:0:0:
239,145,74753,2,0,B|149:176|135:147|112:119|38:128,1,207.199993676758,0|0,3:2|3:2,0:0:0:0:
38,128,75572,1,2,0:0:0:0:
0,0,75844,6,0,P|76:13|153:7,1,155.399995257568,2|2,3:2|0:0,0:0:0:0:
232,48,76390,2,0,P|309:45|386:32,1,155.399995257568,2|0,3:2|0:0,0:0:0:0:
484,0,76935,1,0,3:2:0:0:
484,0,77481,1,2,3:2:0:0:
441,124,77753,1,2,0:0:0:0:
505,223,78026,6,0,P|509:300|511:378,1,155.399995257568,2|0,3:2|0:0,0:0:0:0:
435,379,78572,1,0,3:2:0:0:
299,199,78844,1,2,0:0:0:0:
299,199,79117,1,2,3:2:0:0:
267,252,79253,1,2,0:0:0:0:
206,239,79390,1,2,0:0:0:0:
201,177,79526,1,2,0:0:0:0:
258,152,79662,2,0,P|273:116|288:80,2,77.6999976287842,2|2|2,3:2|0:0|0:0,0:0:0:0:
127,207,80208,5,2,3:2:0:0:
127,207,80753,1,0,3:2:0:0:
127,207,81299,1,0,3:2:0:0:
126,206,81844,2,0,L|113:257,1,51.7999984191895,2|0,3:2|0:0,0:0:0:0:
58,316,82117,2,0,L|82:361,1,51.7999984191895,2|0,3:2|0:0,0:0:0:0:
166,384,82390,6,0,P|240:363|317:353,1,155.399995257568,2|0,3:2|0:0,0:0:0:0:
397,380,82935,1,0,3:2:0:0:
396,380,83208,2,0,P|433:367|465:346,1,77.6999976287842,2|0,0:0|0:0,0:0:0:0:
479,337,83481,2,0,P|481:260|489:183,1,155.399995257568,2|2,3:2|0:0,0:0:0:0:
491,9,84299,1,2,0:0:0:0:
491,9,84435,1,2,0:0:0:0:
433,75,84572,6,0,P|427:100|426:126,2,51.7999984191895,2|2|2,3:2|0:0|0:0,0:0:0:0:
349,150,84981,2,0,P|354:175|355:201,2,51.7999984191895,2|2|2,0:0|3:2|0:0,0:0:0:0:
174,44,85526,1,2,0:0:0:0:
174,44,85799,1,2,0:0:0:0:
132,39,85935,1,2,0:0:0:0:
90,33,86072,1,2,0:0:0:0:
48,30,86208,1,2,3:2:0:0:
6,25,86344,1,2,0:0:0:0:
6,25,86617,1,2,0:0:0:0:
0,115,86753,6,0,P|7:218|12:321,1,207.199993676758,0|0,3:2|3:2,0:0:0:0:
12,321,87572,1,2,0:0:0:0:
88,353,87708,1,2,0:0:0:0:
168,331,87844,2,0,P|173:227|180:124,1,207.199993676758,2|0,3:2|3:2,0:0:0:0:
180,124,88662,1,2,0:0:0:0:
339,194,88935,6,0,P|262:201|204:251,2,155.399995257568,2|2|2,3:2|0:0|0:0,0:0:0:0:
431,149,90026,2,0,L|480:163,3,51.7999984191895,0|0|0|0,3:2|3:2|3:2|3:2,0:0:0:0:
361,102,90572,1,6,3:2:0:0:
289,124,90708,1,4,0:3:0:0:
222,80,90844,1,10,0:0:0:0:
150,110,90981,1,4,0:3:0:0:
88,58,91117,6,0,P|107:130|118:203,2,148,6|10|2,3:2|0:1|3:2,0:0:0:0:
150,110,91799,1,0,0:0:0:0:
222,80,91935,1,10,0:1:0:0:
289,124,92072,1,0,3:2:0:0:
366,94,92208,1,2,0:0:0:0:
366,94,92344,1,0,3:2:0:0:
366,93,92481,2,0,P|362:129|361:166,1,74,10|0,0:1|3:2,0:0:0:0:
474,348,92890,1,0,3:2:0:0:
474,348,93027,2,0,P|467:311|463:274,1,74,10|0,0:1|3:2,0:0:0:0:
393,354,93299,6,0,P|319:361|245:361,1,148,2|10,3:2|0:1,0:0:0:0:
218,201,93708,1,0,0:0:0:0:
218,201,93844,2,0,P|254:204|291:208,1,74,2|0,3:2|0:0,0:0:0:0:
255,282,94117,1,10,0:1:0:0:
255,282,94253,2,0,P|181:286|108:301,1,148,0|0,3:2|3:2,0:0:0:0:
39,358,94662,1,10,0:1:0:0:
78,279,94799,1,0,3:2:0:0:
26,202,94935,2,0,P|62:201|99:207,1,74,2|0,0:0|3:2,0:0:0:0:
180,212,95208,2,0,P|213:196|245:178,1,74,10|0,0:1|0:0,0:0:0:0:
363,57,95481,6,0,P|339:127|320:198,2,148,6|10|2,3:2|0:1|3:2,0:0:0:0:
438,16,96163,1,0,0:0:0:0:
438,16,96299,2,0,P|443:52|455:87,1,74,10|0,0:1|3:2,0:0:0:0:
414,162,96572,1,2,0:0:0:0:
487,211,96709,1,0,3:2:0:0:
431,278,96845,1,10,0:1:0:0:
467,358,96981,1,0,3:2:0:0:
378,370,97117,2,0,P|322:366|267:368,2,111,2|0|0,0:0|0:0|3:2,0:0:0:0:
467,358,97662,6,0,P|464:321|469:284,1,74,2|0,3:2|0:0,0:0:0:0:
383,285,97935,2,0,P|380:248|375:211,1,74,10|0,0:1|0:0,0:0:0:0:
287,239,98208,1,2,3:2:0:0:
287,238,98344,2,0,P|290:202|295:165,1,74,0|10,0:0|0:1,0:0:0:0:
210,158,98617,2,0,P|204:84|194:10,1,148,0|0,3:2|3:2,0:0:0:0:
111,21,99026,1,10,0:1:0:0:
111,21,99162,1,0,3:2:0:0:
27,15,99299,2,0,P|29:51|39:87,1,74,2|0,0:0|3:2,0:0:0:0:
111,130,99572,2,0,P|101:165|89:200,1,74,10|0,0:1|0:0,0:0:0:0:
36,327,99844,6,0,P|23:254|6:182,3,148,6|10|2|10,3:2|0:1|3:2|0:1,0:0:0:0:
89,200,100799,1,0,3:2:0:0:
120,282,100935,2,0,P|116:318|116:355,2,74,2|0|10,0:0|3:2|0:1,0:0:0:0:
213,274,101344,2,0,P|215:200|211:126,1,148,0|0,3:2|3:2,0:0:0:0:
170,45,101753,1,10,0:1:0:0:
256,51,101890,1,0,3:2:0:0:
342,20,102026,5,2,3:2:0:0:
336,72,102162,1,0,0:0:0:0:
359,117,102299,1,10,0:1:0:0:
303,181,102435,1,0,0:0:0:0:
332,226,102572,1,2,3:2:0:0:
327,277,102708,2,0,P|331:313|340:349,1,74,0|10,0:0|0:1,0:0:0:0:
253,274,102981,2,0,P|195:228|130:194,1,148,0|0,3:2|3:2,0:0:0:0:
64,137,103390,1,10,0:1:0:0:
51,223,103526,1,0,3:2:0:0:
77,268,103662,1,2,0:0:0:0:
66,318,103799,2,0,P|140:325|211:346,1,148,0|0,3:2|0:0,0:0:0:0:
253,274,104208,6,0,P|324:253|393:227,2,148,6|10|2,3:2|0:1|3:2,0:0:0:0:
152,111,105026,1,10,0:1:0:0:
152,111,105162,1,0,3:2:0:0:
152,111,105299,2,0,P|187:121|223:128,3,74,2|0|10|0,0:0|3:2|0:1|3:2,0:0:0:0:
158,299,105981,1,0,3:2:0:0:
158,298,106117,2,0,P|166:262|177:227,1,74,10|0,0:1|3:2,0:0:0:0:
271,204,106390,6,0,P|342:226|410:256,1,148,2|10,3:2|0:1,0:0:0:0:
357,322,106799,2,0,P|428:303|501:288,1,148
479,206,107208,2,0,P|472:170|468:134,1,74,10|0,0:1|3:2,0:0:0:0:
484,42,107481,1,2,0:0:0:0:
484,42,107617,1,0,3:2:0:0:
402,78,107753,1,10,0:1:0:0:
402,78,107890,1,0,3:2:0:0:
344,147,108026,2,0,L|354:182,2,37,10|8|8,0:3|0:3|3:2,0:0:0:0:
263,109,108299,2,0,P|227:104|192:93,1,74,10|8,0:1|0:3,0:0:0:0:
159,22,108572,6,0,P|86:34|14:54,2,148,6|10|0,3:2|0:1|3:2,0:0:0:0:
19,142,109390,1,8,0:0:0:0:
19,142,109526,2,0,L|92:124,1,74,2|0,3:1|0:0,0:0:0:0:
163,172,109799,2,0,L|235:157,1,74,2|8,3:1|0:0,0:0:0:0:
302,107,110072,2,0,L|360:152,1,74,2|0,3:1|0:0,0:0:0:0:
418,208,110344,2,0,L|490:193,1,74,2|8,3:1|0:0,0:0:0:0:
509,124,110617,1,2,3:1:0:0:
508,124,110753,6,0,P|489:195|480:268,2,148,2|10|0,3:1|0:1|3:2,0:0:0:0:
401,312,111572,1,8,0:0:0:0:
401,312,111708,2,0,P|394:238|395:164,1,148,2|2,3:1|3:1,0:0:0:0:
315,233,112117,1,8,0:0:0:0:
322,364,112253,2,0,P|300:293|284:220,1,148,2|2,3:1|3:1,0:0:0:0:
195,191,112662,1,8,0:0:0:0:
97,195,112799,2,0,L|62:207,1,37,2|2,3:1|0:0,0:0:0:0:
60,244,112935,6,0,P|132:257|203:280,2,148,6|10|0,3:2|0:1|3:2,0:0:0:0:
21,67,113753,1,8,0:0:0:0:
154,33,113890,2,0,L|100:84,1,74,2|0,3:1|0:0,0:0:0:0:
113,173,114162,2,0,L|178:139,1,74,2|8,3:1|0:0,0:0:0:0:
249,42,114435,2,0,L|259:115,1,74,2|0,3:1|0:0,0:0:0:0:
374,165,114708,2,0,L|343:97,1,74,2|8,3:1|0:0,0:0:0:0:
468,139,114981,1,2,3:1:0:0:
467,139,115117,6,0,P|413:189|366:246,2,148,6|10|0,3:2|0:1|3:2,0:0:0:0:
297,210,115935,1,8,0:0:0:0:
289,339,116072,2,0,P|275:265|251:196,1,148,2|2,3:1|3:1,0:0:0:0:
166,211,116481,1,8,0:0:0:0:
166,211,116617,2,0,P|123:150|70:99,1,148,2|2,3:1|3:1,0:0:0:0:
32,25,117026,1,8,0:0:0:0:
32,25,117162,1,2,3:1:0:0:
120,35,117299,5,2,3:1:0:0:
205,18,117435,2,0,L|192:90,1,74,0|10,0:0|0:1,0:0:0:0:
267,186,117708,2,0,L|261:112,1,74,2|0,0:1|3:2,0:0:0:0:
354,29,117981,2,0,L|341:101,1,74,2|8,0:1|0:0,0:0:0:0:
416,197,118254,2,0,L|410:123,1,74,2|0,3:1|0:0,0:0:0:0:
495,33,118526,1,2,3:1:0:0:
483,80,118662,1,8,0:0:0:0:
502,129,118799,1,2,3:1:0:0:
499,212,118935,1,2,0:0:0:0:
491,264,119072,1,2,3:1:0:0:
475,296,119208,1,8,0:0:0:0:
462,312,119344,1,2,3:1:0:0:
454,318,119481,6,0,L|389:282,1,74,2|2,3:1|0:0,0:0:0:0:
332,220,119753,2,0,L|279:271,1,74,10|2,0:1|0:1,0:0:0:0:
222,348,120026,1,0,3:2:0:0:
222,348,120162,2,0,L|199:277,1,74,2|8,0:1|0:0,0:0:0:0:
256,182,120435,1,2,3:1:0:0:
256,182,120572,2,0,L|183:193,1,74,2|2,0:0|3:1,0:0:0:0:
65,193,120844,1,8,0:0:0:0:
65,193,120981,2,0,L|115:247,1,74,2|2,3:1|0:0,0:0:0:0:
90,113,121253,1,2,3:1:0:0:
48,36,121390,1,8,0:0:0:0:
61,38,121458,1,0,0:0:0:0:
76,36,121526,1,2,3:1:0:0:
88,29,121594,1,2,0:0:0:0:
97,18,121662,6,0,L|131:32,7,37,6|2|2|2|10|2|2|2,3:2|0:0|0:0|0:0|0:1|0:0|0:1|0:0,0:0:0:0:
165,35,122208,2,0,L|196:76,7,37,0|2|2|2|8|2|2|2,3:2|0:0|0:1|0:0|0:0|0:0|3:1|0:0,0:0:0:0:
218,78,122753,2,0,L|225:114,7,37,2|2|2|2|8|2|2|2,0:0|0:0|3:1|0:0|0:0|0:0|3:1|0:0,0:0:0:0:
249,137,123299,2,0,L|235:210,1,74,2|2,0:0|3:1,0:0:0:0:
264,294,123572,2,0,L|317:241,1,74,8|2,0:0|3:1,0:0:0:0:
330,158,123844,5,2,3:1:0:0:
320,77,123981,1,0,0:0:0:0:
371,17,124117,1,10,0:1:0:0:
445,44,124253,1,2,0:1:0:0:
482,118,124390,1,0,3:2:0:0:
406,191,124526,2,0,L|479:193,1,74,2|8,0:1|0:0,0:0:0:0:
352,316,124799,2,0,L|411:272,2,74,6|0|2,3:2|0:0|3:1,0:0:0:0:
264,294,125208,1,8,0:0:0:0:
264,294,125344,1,2,3:1:0:0:
193,356,125481,2,0,L|157:366,2,37,2|10|2,0:0|0:3|3:1,0:0:0:0:
112,304,125753,2,0,P|84:281|59:254,1,74,8|2,0:0|3:1,0:0:0:0:
98,187,126026,6,0,P|119:113|123:38,1,133.199995935059,14|8,3:2|0:0,0:0:0:0:
256,6,126435,2,0,P|262:72|281:135,1,133.199995935059,0|0,3:2|3:2,0:0:0:0:
333,222,126844,1,10,0:0:0:0:
393,54,126981,1,0,3:2:0:0:
512,169,127117,2,0,P|448:149|382:143,1,133.199995935059,2|8,3:2|0:0,0:0:0:0:
203,196,127526,2,0,P|266:215|332:221,1,133.199995935059,0|0,3:2|3:2,0:0:0:0:
422,245,127935,1,8,0:0:0:0:
358,314,128072,1,0,3:2:0:0:
426,378,128208,6,0,P|362:358|296:352,1,133.199995935059,2|8,3:2|0:0,0:0:0:0:
235,293,128617,1,0,3:2:0:0:
128,371,128753,2,0,P|144:323|153:274,2,99.899996951294,2|2|2,0:0|0:0|3:2,0:0:0:0:
51,383,129299,2,0,P|29:320|0:261,1,133.199995935059,2|8,3:2|0:0,0:0:0:0:
43,194,129708,1,0,3:2:0:0:
0,127,129844,2,0,P|1:62|47:16,1,133.199995935059,2|8,0:0|0:0,0:0:0:0:
127,46,130253,1,0,3:2:0:0:
216,150,130390,6,0,P|152:130|86:124,1,133.199995935059,2|8,3:2|0:0,0:0:0:0:
152,274,130799,2,0,P|219:282|283:300,1,133.199995935059,0|0,3:2|3:2,0:0:0:0:
335,355,131208,1,10,0:0:0:0:
409,342,131345,1,0,3:2:0:0:
481,362,131481,5,2,3:2:0:0:
421,250,131753,1,10,0:0:0:0:
472,146,132026,1,2,0:0:0:0:
413,56,132299,1,10,0:0:0:0:
413,56,132572,6,0,L|339:64,2,74,6|2|10,3:2|0:0|0:0,0:0:0:0:
334,138,132981,2,0,L|260:146,2,74,6|2|10,3:2|0:0|3:2,0:0:0:0:
200,82,133390,1,8,0:0:0:0:
107,109,133526,2,0,P|266:210|112:319,1,444,4|0,3:2|3:2,0:0:0:0:
44,268,134481,1,8,0:0:0:0:
44,268,134753,6,0,P|45:232|50:195,1,74,2|8,3:2|3:2,0:0:0:0:
138,94,135026,2,0,P|136:130|131:167,1,74,8|8,0:0|3:2,0:0:0:0:
200,286,135299,2,0,P|201:249|206:212,1,74,10|8,0:0|3:2,0:0:0:0:
266,150,135572,2,0,L|278:102,3,37,10|8|8|8,0:0|0:0|3:2|0:0,0:0:0:0:
287,165,135844,5,4,3:2:0:0:
256,192,135912,12,0,140208,0:0:0:0:
