osu file format v14

[General]
AudioFilename: audio.mp3
AudioLeadIn: 0
PreviewTime: 85188
Countdown: 0
SampleSet: Normal
StackLeniency: 0.7
Mode: 1
LetterboxInBreaks: 0
WidescreenStoryboard: 1

[Editor]
Bookmarks: 50350,73703,96028,118354
DistanceSpacing: 0.8
BeatDivisor: 12
GridSize: 16
TimelineZoom: 2.7

[Metadata]
Title:Hartmann no Youkai Shoujo
TitleUnicode:ハルトマンの妖怪少女
Artist:Akiyama Uni
ArtistUnicode:あきやまうに
Creator:CallMeLyra
Version:Oni
Source:東方心綺楼 ~ Hopeless Masquerade.
Tags:Instrumental Video Game th13.5 koishi komeiji 古明地 こいし Twilight Frontier Tasofro 黄昏フロンティア U2 jun ZUN Palace of the Earth Spirits 地霊殿 Chireiden 東方project touhou shinkirou team shanghai alice
BeatmapID:2520856
BeatmapSetID:1209517

[Difficulty]
HPDrainRate:5.5
CircleSize:5
OverallDifficulty:5.5
ApproachRate:5
SliderMultiplier:1.4
SliderTickRate:1

[Events]
//Background and Video events
0,0,"Violinist Koishi and Co.jpg",0,0
//Break Periods
//Storyboard Layer 0 (Background)
//Storyboard Layer 1 (Fail)
//Storyboard Layer 2 (Pass)
//Storyboard Layer 3 (Foreground)
//Storyboard Layer 4 (Overlay)
//Storyboard Sound Samples

[TimingPoints]
860,348.837209302326,7,1,0,70,1,0
20394,348.837209302326,4,1,0,80,1,0
31556,348.837209302326,7,1,0,70,1,0
51090,348.837209302326,4,1,0,80,1,0
62252,348.837209302326,4,1,0,40,1,8
62557,-100,7,1,0,70,0,0
62776,-100,7,1,0,80,0,0
62950,348.837209302326,4,1,0,80,1,1
74112,-100,4,1,0,80,0,0
85275,-100,4,1,0,80,0,1
96438,-100,4,1,0,80,0,0
107601,-100,4,1,0,80,0,1
118763,-100,4,1,0,80,0,0

[HitObjects]
256,192,511,5,0,0:0:0:0:
256,192,598,1,0,0:0:0:0:
256,192,685,1,0,0:0:0:0:
256,192,860,1,12,0:0:0:0:
256,192,1034,1,8,0:0:0:0:
256,192,1121,1,0,0:0:0:0:
256,192,1208,1,0,0:0:0:0:
256,192,1383,1,8,0:0:0:0:
256,192,1557,1,8,0:0:0:0:
256,192,1644,1,0,0:0:0:0:
256,192,1906,1,8,0:0:0:0:
256,192,2080,1,0,0:0:0:0:
256,192,2255,1,0,0:0:0:0:
256,192,2342,1,0,0:0:0:0:
256,192,2429,1,0,0:0:0:0:
256,192,2604,1,8,0:0:0:0:
256,192,2778,1,0,0:0:0:0:
256,192,2953,1,0,0:0:0:0:
256,192,3127,1,8,0:0:0:0:
256,192,3301,1,8,0:0:0:0:
256,192,3476,1,8,0:0:0:0:
256,192,3563,1,0,0:0:0:0:
256,192,3650,1,0,0:0:0:0:
256,192,3825,1,8,0:0:0:0:
256,192,3999,1,8,0:0:0:0:
256,192,4086,1,0,0:0:0:0:
256,192,4348,1,8,0:0:0:0:
256,192,4522,1,0,0:0:0:0:
256,192,4697,1,0,0:0:0:0:
256,192,4784,1,0,0:0:0:0:
256,192,4871,1,0,0:0:0:0:
256,192,5046,1,8,0:0:0:0:
256,192,5394,1,0,0:0:0:0:
256,192,5569,1,8,0:0:0:0:
256,192,5743,1,0,0:0:0:0:
256,192,5918,1,0,0:0:0:0:
256,192,6005,1,0,0:0:0:0:
256,192,6092,1,0,0:0:0:0:
256,192,6266,1,8,0:0:0:0:
256,192,6441,1,8,0:0:0:0:
256,192,6528,1,0,0:0:0:0:
256,192,6790,1,8,0:0:0:0:
256,192,6964,1,0,0:0:0:0:
256,192,7139,1,0,0:0:0:0:
256,192,7226,1,0,0:0:0:0:
256,192,7313,1,0,0:0:0:0:
256,192,7487,1,8,0:0:0:0:
256,192,7662,1,0,0:0:0:0:
256,192,7836,1,0,0:0:0:0:
256,192,8011,1,8,0:0:0:0:
256,192,8185,1,0,0:0:0:0:
256,192,8360,1,0,0:0:0:0:
256,192,8447,1,0,0:0:0:0:
256,192,8534,1,0,0:0:0:0:
256,192,8708,1,8,0:0:0:0:
256,192,8883,1,8,0:0:0:0:
256,192,8970,1,0,0:0:0:0:
256,192,9232,1,8,0:0:0:0:
256,192,9406,1,0,0:0:0:0:
256,192,9580,1,0,0:0:0:0:
256,192,9668,1,0,0:0:0:0:
256,192,9755,1,0,0:0:0:0:
256,192,9929,1,8,0:0:0:0:
256,192,10278,1,0,0:0:0:0:
256,192,10453,1,0,0:0:0:0:
256,192,10627,5,12,0:0:0:0:
256,192,10801,1,8,0:0:0:0:
256,192,10889,1,0,0:0:0:0:
256,192,10976,1,0,0:0:0:0:
256,192,11150,1,8,0:0:0:0:
256,192,11325,1,8,0:0:0:0:
256,192,11412,1,0,0:0:0:0:
256,192,11673,1,8,0:0:0:0:
256,192,11848,1,0,0:0:0:0:
256,192,12022,1,0,0:0:0:0:
256,192,12110,1,0,0:0:0:0:
256,192,12197,1,0,0:0:0:0:
256,192,12371,1,8,0:0:0:0:
256,192,12546,1,0,0:0:0:0:
256,192,12720,1,0,0:0:0:0:
256,192,12894,1,8,0:0:0:0:
256,192,13069,1,8,0:0:0:0:
256,192,13243,1,8,0:0:0:0:
256,192,13330,1,0,0:0:0:0:
256,192,13418,1,0,0:0:0:0:
256,192,13592,1,8,0:0:0:0:
256,192,13766,1,8,0:0:0:0:
256,192,13854,1,0,0:0:0:0:
256,192,14115,1,8,0:0:0:0:
256,192,14290,1,0,0:0:0:0:
256,192,14464,1,0,0:0:0:0:
256,192,14551,1,0,0:0:0:0:
256,192,14639,1,0,0:0:0:0:
256,192,14813,1,8,0:0:0:0:
256,192,15162,1,0,0:0:0:0:
256,192,15336,1,8,0:0:0:0:
256,192,15511,1,0,0:0:0:0:
256,192,15685,1,0,0:0:0:0:
256,192,15772,1,0,0:0:0:0:
256,192,15860,1,0,0:0:0:0:
256,192,16034,1,8,0:0:0:0:
256,192,16208,1,8,0:0:0:0:
256,192,16296,1,0,0:0:0:0:
256,192,16557,1,8,0:0:0:0:
256,192,16732,1,0,0:0:0:0:
256,192,16906,1,0,0:0:0:0:
256,192,16993,1,0,0:0:0:0:
256,192,17080,1,0,0:0:0:0:
256,192,17255,1,8,0:0:0:0:
256,192,17429,1,0,0:0:0:0:
256,192,17604,1,0,0:0:0:0:
256,192,17778,1,8,0:0:0:0:
256,192,17953,1,0,0:0:0:0:
256,192,18127,1,0,0:0:0:0:
256,192,18214,1,0,0:0:0:0:
256,192,18301,1,0,0:0:0:0:
256,192,18476,1,8,0:0:0:0:
256,192,18650,1,8,0:0:0:0:
256,192,18737,1,0,0:0:0:0:
256,192,18999,1,8,0:0:0:0:
256,192,19173,1,0,0:0:0:0:
256,192,19348,1,0,0:0:0:0:
256,192,19435,1,0,0:0:0:0:
256,192,19522,1,0,0:0:0:0:
256,192,19697,1,8,0:0:0:0:
256,192,19871,1,0,0:0:0:0:
256,192,20046,1,0,0:0:0:0:
256,192,20220,1,8,0:0:0:0:
256,192,20394,5,4,0:0:0:0:
256,192,20568,1,0,0:0:0:0:
256,192,20742,1,8,0:0:0:0:
256,192,21091,1,0,0:0:0:0:
256,192,21178,1,0,0:0:0:0:
256,192,21266,1,0,0:0:0:0:
256,192,21440,1,8,0:0:0:0:
256,192,21789,1,0,0:0:0:0:
256,192,21963,1,0,0:0:0:0:
256,192,22138,1,8,0:0:0:0:
256,192,22487,1,0,0:0:0:0:
256,192,22574,1,0,0:0:0:0:
256,192,22661,1,0,0:0:0:0:
256,192,22835,1,8,0:0:0:0:
256,192,23184,1,0,0:0:0:0:
256,192,23359,1,8,0:0:0:0:
256,192,23533,1,8,0:0:0:0:
256,192,23882,1,0,0:0:0:0:
256,192,23969,1,0,0:0:0:0:
256,192,24056,1,8,0:0:0:0:
256,192,24231,1,8,0:0:0:0:
256,192,24580,1,0,0:0:0:0:
256,192,24754,1,8,0:0:0:0:
256,192,24928,1,8,0:0:0:0:
256,192,25277,1,0,0:0:0:0:
256,192,25364,1,0,0:0:0:0:
256,192,25452,1,8,0:0:0:0:
256,192,25626,1,8,0:0:0:0:
256,192,25975,1,0,0:0:0:0:
256,192,26149,1,0,0:0:0:0:
256,192,26324,1,8,0:0:0:0:
256,192,26673,1,0,0:0:0:0:
256,192,26760,1,0,0:0:0:0:
256,192,26847,1,0,0:0:0:0:
256,192,27021,1,8,0:0:0:0:
256,192,27370,1,0,0:0:0:0:
256,192,27545,1,0,0:0:0:0:
256,192,27719,1,8,0:0:0:0:
256,192,28068,1,0,0:0:0:0:
256,192,28155,1,0,0:0:0:0:
256,192,28242,1,0,0:0:0:0:
256,192,28417,1,8,0:0:0:0:
256,192,28766,1,0,0:0:0:0:
256,192,28940,1,8,0:0:0:0:
256,192,29114,1,8,0:0:0:0:
256,192,29463,1,0,0:0:0:0:
256,192,29550,1,0,0:0:0:0:
256,192,29638,1,8,0:0:0:0:
256,192,29812,1,8,0:0:0:0:
256,192,30161,1,0,0:0:0:0:
256,192,30335,1,8,0:0:0:0:
256,192,30510,1,8,0:0:0:0:
256,192,30859,1,0,0:0:0:0:
256,192,30946,1,0,0:0:0:0:
256,192,31033,1,8,0:0:0:0:
256,192,31207,1,8,0:0:0:0:
256,192,31295,1,8,0:0:0:0:
256,192,31556,5,12,0:0:0:0:
256,192,31730,1,8,0:0:0:0:
256,192,31817,1,8,0:0:0:0:
256,192,31904,1,0,0:0:0:0:
256,192,32079,1,8,0:0:0:0:
256,192,32253,1,8,0:0:0:0:
256,192,32340,1,8,0:0:0:0:
256,192,32602,1,8,0:0:0:0:
256,192,32776,1,8,0:0:0:0:
256,192,32951,1,8,0:0:0:0:
256,192,33038,1,0,0:0:0:0:
256,192,33125,1,0,0:0:0:0:
256,192,33300,1,8,0:0:0:0:
256,192,33474,1,0,0:0:0:0:
256,192,33649,1,0,0:0:0:0:
256,192,33823,1,8,0:0:0:0:
256,192,33997,1,8,0:0:0:0:
256,192,34172,1,8,0:0:0:0:
256,192,34259,1,8,0:0:0:0:
256,192,34346,1,0,0:0:0:0:
256,192,34521,1,8,0:0:0:0:
256,192,34695,1,8,0:0:0:0:
256,192,34782,1,8,0:0:0:0:
256,192,35044,1,8,0:0:0:0:
256,192,35218,1,8,0:0:0:0:
256,192,35393,1,8,0:0:0:0:
256,192,35480,1,0,0:0:0:0:
256,192,35567,1,0,0:0:0:0:
256,192,35742,1,8,0:0:0:0:
256,192,36090,1,0,0:0:0:0:
256,192,36265,1,0,0:0:0:0:
256,192,36439,1,8,0:0:0:0:
256,192,36614,1,0,0:0:0:0:
256,192,36701,1,8,0:0:0:0:
256,192,36788,1,0,0:0:0:0:
256,192,36962,1,8,0:0:0:0:
256,192,37137,1,8,0:0:0:0:
256,192,37224,1,8,0:0:0:0:
256,192,37486,1,8,0:0:0:0:
256,192,37660,1,8,0:0:0:0:
256,192,37835,1,8,0:0:0:0:
256,192,37922,1,0,0:0:0:0:
256,192,38009,1,0,0:0:0:0:
256,192,38183,1,8,0:0:0:0:
256,192,38358,1,0,0:0:0:0:
256,192,38532,1,0,0:0:0:0:
256,192,38707,1,0,0:0:0:0:
256,192,38881,1,8,0:0:0:0:
256,192,39056,1,0,0:0:0:0:
256,192,39143,1,8,0:0:0:0:
256,192,39230,1,0,0:0:0:0:
256,192,39404,1,8,0:0:0:0:
256,192,39579,1,8,0:0:0:0:
256,192,39666,1,8,0:0:0:0:
256,192,39928,1,8,0:0:0:0:
256,192,40102,1,8,0:0:0:0:
256,192,40276,1,8,0:0:0:0:
256,192,40364,1,0,0:0:0:0:
256,192,40451,1,0,0:0:0:0:
256,192,40625,1,8,0:0:0:0:
256,192,40974,1,0,0:0:0:0:
256,192,41149,1,0,0:0:0:0:
256,192,41323,5,12,0:0:0:0:
256,192,41497,1,8,0:0:0:0:
256,192,41585,1,8,0:0:0:0:
256,192,41672,1,0,0:0:0:0:
256,192,41846,1,8,0:0:0:0:
256,192,42021,1,8,0:0:0:0:
256,192,42108,1,8,0:0:0:0:
256,192,42369,1,8,0:0:0:0:
256,192,42544,1,8,0:0:0:0:
256,192,42718,1,8,0:0:0:0:
256,192,42806,1,0,0:0:0:0:
256,192,42893,1,0,0:0:0:0:
256,192,43067,1,8,0:0:0:0:
256,192,43242,1,0,0:0:0:0:
256,192,43416,1,0,0:0:0:0:
256,192,43590,1,8,0:0:0:0:
256,192,43765,1,8,0:0:0:0:
256,192,43939,1,8,0:0:0:0:
256,192,44026,1,8,0:0:0:0:
256,192,44114,1,0,0:0:0:0:
256,192,44288,1,8,0:0:0:0:
256,192,44462,1,8,0:0:0:0:
256,192,44550,1,8,0:0:0:0:
256,192,44811,1,8,0:0:0:0:
256,192,44986,1,8,0:0:0:0:
256,192,45160,1,8,0:0:0:0:
256,192,45247,1,0,0:0:0:0:
256,192,45335,1,0,0:0:0:0:
256,192,45509,1,8,0:0:0:0:
256,192,45858,1,0,0:0:0:0:
256,192,46032,1,0,0:0:0:0:
256,192,46207,1,8,0:0:0:0:
256,192,46381,1,0,0:0:0:0:
256,192,46468,1,8,0:0:0:0:
256,192,46556,1,0,0:0:0:0:
256,192,46730,1,8,0:0:0:0:
256,192,46904,1,8,0:0:0:0:
256,192,46992,1,8,0:0:0:0:
256,192,47253,1,8,0:0:0:0:
256,192,47428,1,8,0:0:0:0:
256,192,47602,1,8,0:0:0:0:
256,192,47689,1,0,0:0:0:0:
256,192,47776,1,0,0:0:0:0:
256,192,47951,1,8,0:0:0:0:
256,192,48125,1,0,0:0:0:0:
256,192,48300,1,0,0:0:0:0:
256,192,48474,1,0,0:0:0:0:
256,192,48649,1,8,0:0:0:0:
256,192,48823,1,0,0:0:0:0:
256,192,48910,1,8,0:0:0:0:
256,192,48997,1,0,0:0:0:0:
256,192,49172,1,8,0:0:0:0:
256,192,49346,1,8,0:0:0:0:
256,192,49433,1,8,0:0:0:0:
256,192,49695,1,8,0:0:0:0:
256,192,49869,1,0,0:0:0:0:
256,192,50044,1,0,0:0:0:0:
256,192,50131,1,0,0:0:0:0:
256,192,50218,1,8,0:0:0:0:
256,192,50393,1,8,0:0:0:0:
256,192,50567,1,0,0:0:0:0:
256,192,50742,1,8,0:0:0:0:
256,192,51090,5,4,0:0:0:0:
256,192,51264,1,0,0:0:0:0:
256,192,51438,1,8,0:0:0:0:
256,192,51787,1,0,0:0:0:0:
256,192,51874,1,0,0:0:0:0:
256,192,51962,1,8,0:0:0:0:
256,192,52136,1,8,0:0:0:0:
256,192,52223,1,0,0:0:0:0:
256,192,52485,1,8,0:0:0:0:
256,192,52659,1,0,0:0:0:0:
256,192,52834,1,8,0:0:0:0:
256,192,53183,1,0,0:0:0:0:
256,192,53270,1,0,0:0:0:0:
256,192,53357,1,8,0:0:0:0:
256,192,53531,1,8,0:0:0:0:
256,192,53619,1,0,0:0:0:0:
256,192,53880,1,0,0:0:0:0:
256,192,54055,1,8,0:0:0:0:
256,192,54229,1,8,0:0:0:0:
256,192,54578,1,8,0:0:0:0:
256,192,54665,1,0,0:0:0:0:
256,192,54752,1,8,0:0:0:0:
256,192,54927,1,8,0:0:0:0:
256,192,55014,1,0,0:0:0:0:
256,192,55276,1,8,0:0:0:0:
256,192,55450,1,0,0:0:0:0:
256,192,55624,1,8,0:0:0:0:
256,192,55973,1,8,0:0:0:0:
256,192,56060,1,0,0:0:0:0:
256,192,56148,1,8,0:0:0:0:
256,192,56322,1,8,0:0:0:0:
256,192,56409,1,0,0:0:0:0:
256,192,56671,1,0,0:0:0:0:
256,192,56845,1,0,0:0:0:0:
256,192,57020,1,8,0:0:0:0:
256,192,57369,1,0,0:0:0:0:
256,192,57456,1,0,0:0:0:0:
256,192,57543,1,8,0:0:0:0:
256,192,57717,1,8,0:0:0:0:
256,192,57805,1,0,0:0:0:0:
256,192,58066,1,8,0:0:0:0:
256,192,58241,1,0,0:0:0:0:
256,192,58415,1,8,0:0:0:0:
256,192,58764,1,0,0:0:0:0:
256,192,58851,1,0,0:0:0:0:
256,192,58938,1,8,0:0:0:0:
256,192,59113,1,8,0:0:0:0:
256,192,59200,1,0,0:0:0:0:
256,192,59462,1,0,0:0:0:0:
256,192,59636,1,8,0:0:0:0:
256,192,59810,1,8,0:0:0:0:
256,192,60159,1,8,0:0:0:0:
256,192,60246,1,0,0:0:0:0:
256,192,60334,1,8,0:0:0:0:
256,192,60508,1,8,0:0:0:0:
256,192,60595,1,0,0:0:0:0:
256,192,60857,1,8,0:0:0:0:
256,192,61031,1,0,0:0:0:0:
256,192,61206,1,8,0:0:0:0:
256,192,61380,1,0,0:0:0:0:
256,192,61467,1,0,0:0:0:0:
256,192,61555,1,8,0:0:0:0:
256,192,61642,1,0,0:0:0:0:
256,192,61729,1,8,0:0:0:0:
256,192,61903,1,8,0:0:0:0:
256,192,61991,1,0,0:0:0:0:
256,192,62426,5,0,0:0:0:0:
256,192,62600,1,12,0:0:0:0:
256,192,62775,5,0,0:0:0:0:
256,192,62862,1,0,0:0:0:0:
256,192,62949,1,8,0:0:0:0:
256,192,63124,1,0,0:0:0:0:
256,192,63298,1,8,0:0:0:0:
256,192,63473,1,0,0:0:0:0:
256,192,63647,1,0,0:0:0:0:
256,192,63822,1,8,0:0:0:0:
256,192,63909,1,0,0:0:0:0:
256,192,63996,1,8,0:0:0:0:
256,192,64170,1,0,0:0:0:0:
256,192,64258,1,8,0:0:0:0:
256,192,64345,1,0,0:0:0:0:
256,192,64519,1,0,0:0:0:0:
256,192,64694,1,8,0:0:0:0:
256,192,64868,1,0,0:0:0:0:
256,192,64955,1,0,0:0:0:0:
256,192,65043,1,8,0:0:0:0:
256,192,65217,1,0,0:0:0:0:
256,192,65304,1,0,0:0:0:0:
256,192,65391,1,8,0:0:0:0:
256,192,65479,1,8,0:0:0:0:
256,192,65566,1,0,0:0:0:0:
256,192,65740,1,8,0:0:0:0:
256,192,65915,1,8,0:0:0:0:
256,192,66089,1,0,0:0:0:0:
256,192,66263,1,8,0:0:0:0:
256,192,66351,1,8,0:0:0:0:
256,192,66438,1,0,0:0:0:0:
256,192,66612,1,8,0:0:0:0:
256,192,66787,1,8,0:0:0:0:
256,192,66961,1,0,0:0:0:0:
256,192,67048,1,8,0:0:0:0:
256,192,67136,1,0,0:0:0:0:
256,192,67310,1,0,0:0:0:0:
256,192,67484,1,8,0:0:0:0:
256,192,67659,1,0,0:0:0:0:
256,192,67833,1,8,0:0:0:0:
256,192,68008,1,0,0:0:0:0:
256,192,68182,1,0,0:0:0:0:
256,192,68531,1,8,0:0:0:0:
256,192,68705,1,0,0:0:0:0:
256,192,68793,1,0,0:0:0:0:
256,192,68880,1,8,0:0:0:0:
256,192,69054,1,0,0:0:0:0:
256,192,69229,1,8,0:0:0:0:
256,192,69403,1,0,0:0:0:0:
256,192,69490,1,0,0:0:0:0:
256,192,69577,1,8,0:0:0:0:
256,192,69752,1,0,0:0:0:0:
256,192,69926,1,8,0:0:0:0:
256,192,70013,1,8,0:0:0:0:
256,192,70101,1,0,0:0:0:0:
256,192,70188,1,0,0:0:0:0:
256,192,70275,1,8,0:0:0:0:
256,192,70450,1,8,0:0:0:0:
256,192,70624,1,0,0:0:0:0:
256,192,70798,1,8,0:0:0:0:
256,192,70886,1,8,0:0:0:0:
256,192,70973,1,0,0:0:0:0:
256,192,71322,1,0,0:0:0:0:
256,192,71496,1,0,0:0:0:0:
256,192,71583,1,0,0:0:0:0:
256,192,71670,1,8,0:0:0:0:
256,192,71845,1,0,0:0:0:0:
256,192,72019,1,0,0:0:0:0:
256,192,72194,1,8,0:0:0:0:
256,192,72281,1,0,0:0:0:0:
256,192,72368,1,8,0:0:0:0:
256,192,72543,1,0,0:0:0:0:
256,192,72717,1,0,0:0:0:0:
256,192,72891,1,8,0:0:0:0:
256,192,72979,1,0,0:0:0:0:
256,192,73066,1,0,0:0:0:0:
256,192,73240,1,0,0:0:0:0:
256,192,73415,1,0,0:0:0:0:
256,192,73763,1,8,0:0:0:0:
256,192,73851,1,8,0:0:0:0:
256,192,73938,1,0,0:0:0:0:
256,192,74025,1,0,0:0:0:0:
256,192,74112,5,8,0:0:0:0:
256,192,74287,1,0,0:0:0:0:
256,192,74461,1,8,0:0:0:0:
256,192,74636,1,0,0:0:0:0:
256,192,74810,1,0,0:0:0:0:
256,192,74984,1,8,0:0:0:0:
256,192,75072,1,0,0:0:0:0:
256,192,75159,1,8,0:0:0:0:
256,192,75333,1,0,0:0:0:0:
256,192,75420,1,8,0:0:0:0:
256,192,75508,1,0,0:0:0:0:
256,192,75682,1,0,0:0:0:0:
256,192,75856,1,8,0:0:0:0:
256,192,76031,1,0,0:0:0:0:
256,192,76118,1,8,0:0:0:0:
256,192,76205,1,8,0:0:0:0:
256,192,76380,1,8,0:0:0:0:
256,192,76467,1,8,0:0:0:0:
256,192,76554,1,0,0:0:0:0:
256,192,76641,1,0,0:0:0:0:
256,192,76729,1,8,0:0:0:0:
256,192,76903,1,0,0:0:0:0:
256,192,77077,1,8,0:0:0:0:
256,192,77252,1,8,0:0:0:0:
256,192,77426,1,8,0:0:0:0:
256,192,77513,1,8,0:0:0:0:
256,192,77601,1,0,0:0:0:0:
256,192,77775,1,8,0:0:0:0:
256,192,77862,1,0,0:0:0:0:
256,192,77950,1,8,0:0:0:0:
256,192,78124,1,0,0:0:0:0:
256,192,78211,1,8,0:0:0:0:
256,192,78298,1,0,0:0:0:0:
256,192,78473,1,0,0:0:0:0:
256,192,78647,1,8,0:0:0:0:
256,192,78734,1,8,0:0:0:0:
256,192,78822,1,0,0:0:0:0:
256,192,78996,1,8,0:0:0:0:
256,192,79170,1,0,0:0:0:0:
256,192,79345,1,0,0:0:0:0:
256,192,79694,1,8,0:0:0:0:
256,192,79868,1,0,0:0:0:0:
256,192,79955,1,0,0:0:0:0:
256,192,80043,1,8,0:0:0:0:
256,192,80217,1,0,0:0:0:0:
256,192,80391,1,8,0:0:0:0:
256,192,80566,1,0,0:0:0:0:
256,192,80653,1,0,0:0:0:0:
256,192,80740,1,8,0:0:0:0:
256,192,80915,1,0,0:0:0:0:
256,192,81089,1,8,0:0:0:0:
256,192,81176,1,0,0:0:0:0:
256,192,81263,1,8,0:0:0:0:
256,192,81351,1,8,0:0:0:0:
256,192,81438,1,0,0:0:0:0:
256,192,81612,1,0,0:0:0:0:
256,192,81787,1,0,0:0:0:0:
256,192,81874,1,0,0:0:0:0:
256,192,81961,1,0,0:0:0:0:
256,192,82136,1,8,0:0:0:0:
256,192,82484,1,0,0:0:0:0:
256,192,82659,1,0,0:0:0:0:
256,192,82746,1,0,0:0:0:0:
256,192,82833,1,8,0:0:0:0:
256,192,83008,1,8,0:0:0:0:
256,192,83182,1,0,0:0:0:0:
256,192,83356,1,0,0:0:0:0:
256,192,83531,1,8,0:0:0:0:
256,192,83618,1,0,0:0:0:0:
256,192,83705,1,8,0:0:0:0:
256,192,83880,1,8,0:0:0:0:
256,192,84054,1,8,0:0:0:0:
256,192,84141,1,8,0:0:0:0:
256,192,84229,1,0,0:0:0:0:
256,192,84403,1,0,0:0:0:0:
256,192,84577,1,8,0:0:0:0:
256,192,84926,1,4,0:0:0:0:
256,192,85101,1,8,0:0:0:0:
256,192,85275,5,12,0:0:0:0:
256,192,85450,1,0,0:0:0:0:
256,192,85537,1,0,0:0:0:0:
256,192,85624,1,8,0:0:0:0:
256,192,85798,1,0,0:0:0:0:
256,192,85973,1,0,0:0:0:0:
256,192,86147,1,8,0:0:0:0:
256,192,86234,1,0,0:0:0:0:
256,192,86322,1,8,0:0:0:0:
256,192,86496,1,0,0:0:0:0:
256,192,86583,1,8,0:0:0:0:
256,192,86670,1,0,0:0:0:0:
256,192,86845,1,0,0:0:0:0:
256,192,87019,1,8,0:0:0:0:
256,192,87194,1,0,0:0:0:0:
256,192,87281,1,0,0:0:0:0:
256,192,87368,1,8,0:0:0:0:
256,192,87543,1,0,0:0:0:0:
256,192,87630,1,0,0:0:0:0:
256,192,87717,1,8,0:0:0:0:
256,192,87804,1,8,0:0:0:0:
256,192,87891,1,0,0:0:0:0:
256,192,88066,1,8,0:0:0:0:
256,192,88240,1,8,0:0:0:0:
256,192,88415,1,0,0:0:0:0:
256,192,88589,1,8,0:0:0:0:
256,192,88676,1,8,0:0:0:0:
256,192,88763,1,0,0:0:0:0:
256,192,88938,1,8,0:0:0:0:
256,192,89112,1,8,0:0:0:0:
256,192,89287,1,0,0:0:0:0:
256,192,89374,1,8,0:0:0:0:
256,192,89461,1,0,0:0:0:0:
256,192,89636,1,0,0:0:0:0:
256,192,89810,1,8,0:0:0:0:
256,192,89984,1,0,0:0:0:0:
256,192,90159,1,8,0:0:0:0:
256,192,90333,1,0,0:0:0:0:
256,192,90508,1,0,0:0:0:0:
256,192,90856,1,8,0:0:0:0:
256,192,91031,1,0,0:0:0:0:
256,192,91118,1,0,0:0:0:0:
256,192,91205,1,8,0:0:0:0:
256,192,91380,1,0,0:0:0:0:
256,192,91554,1,8,0:0:0:0:
256,192,91729,1,0,0:0:0:0:
256,192,91816,1,0,0:0:0:0:
256,192,91903,1,8,0:0:0:0:
256,192,92077,1,0,0:0:0:0:
256,192,92252,1,8,0:0:0:0:
256,192,92339,1,8,0:0:0:0:
256,192,92426,1,0,0:0:0:0:
256,192,92513,1,0,0:0:0:0:
256,192,92601,1,8,0:0:0:0:
256,192,92775,1,8,0:0:0:0:
256,192,92950,1,0,0:0:0:0:
256,192,93124,1,8,0:0:0:0:
256,192,93211,1,8,0:0:0:0:
256,192,93298,1,0,0:0:0:0:
256,192,93647,1,0,0:0:0:0:
256,192,93822,1,0,0:0:0:0:
256,192,93909,1,0,0:0:0:0:
256,192,93996,1,8,0:0:0:0:
256,192,94170,1,0,0:0:0:0:
256,192,94345,1,0,0:0:0:0:
256,192,94519,1,8,0:0:0:0:
256,192,94606,1,0,0:0:0:0:
256,192,94694,1,8,0:0:0:0:
256,192,94868,1,0,0:0:0:0:
256,192,95043,1,0,0:0:0:0:
256,192,95217,1,8,0:0:0:0:
256,192,95304,1,0,0:0:0:0:
256,192,95391,1,0,0:0:0:0:
256,192,95566,1,0,0:0:0:0:
256,192,95740,1,0,0:0:0:0:
256,192,96089,1,8,0:0:0:0:
256,192,96176,1,8,0:0:0:0:
256,192,96263,1,0,0:0:0:0:
256,192,96351,1,0,0:0:0:0:
256,192,96438,5,8,0:0:0:0:
256,192,96612,1,0,0:0:0:0:
256,192,96787,1,8,0:0:0:0:
256,192,96961,1,0,0:0:0:0:
256,192,97136,1,0,0:0:0:0:
256,192,97310,1,8,0:0:0:0:
256,192,97397,1,0,0:0:0:0:
256,192,97484,1,8,0:0:0:0:
256,192,97659,1,0,0:0:0:0:
256,192,97746,1,8,0:0:0:0:
256,192,97833,1,0,0:0:0:0:
256,192,98008,1,0,0:0:0:0:
256,192,98182,1,8,0:0:0:0:
256,192,98356,1,0,0:0:0:0:
256,192,98444,1,8,0:0:0:0:
256,192,98531,1,8,0:0:0:0:
256,192,98705,1,8,0:0:0:0:
256,192,98793,1,8,0:0:0:0:
256,192,98880,1,0,0:0:0:0:
256,192,98967,1,0,0:0:0:0:
256,192,99054,1,8,0:0:0:0:
256,192,99229,1,0,0:0:0:0:
256,192,99403,1,8,0:0:0:0:
256,192,99577,1,8,0:0:0:0:
256,192,99752,1,8,0:0:0:0:
256,192,99839,1,8,0:0:0:0:
256,192,99926,1,0,0:0:0:0:
256,192,100101,1,8,0:0:0:0:
256,192,100188,1,0,0:0:0:0:
256,192,100275,1,8,0:0:0:0:
256,192,100450,1,0,0:0:0:0:
256,192,100537,1,8,0:0:0:0:
256,192,100624,1,0,0:0:0:0:
256,192,100798,1,0,0:0:0:0:
256,192,100973,1,8,0:0:0:0:
256,192,101060,1,8,0:0:0:0:
256,192,101147,1,0,0:0:0:0:
256,192,101322,1,8,0:0:0:0:
256,192,101496,1,0,0:0:0:0:
256,192,101670,1,0,0:0:0:0:
256,192,102019,1,8,0:0:0:0:
256,192,102194,1,0,0:0:0:0:
256,192,102281,1,0,0:0:0:0:
256,192,102368,1,8,0:0:0:0:
256,192,102543,1,0,0:0:0:0:
256,192,102717,1,8,0:0:0:0:
256,192,102891,1,0,0:0:0:0:
256,192,102979,1,0,0:0:0:0:
256,192,103066,1,8,0:0:0:0:
256,192,103240,1,0,0:0:0:0:
256,192,103415,1,8,0:0:0:0:
256,192,103502,1,0,0:0:0:0:
256,192,103589,1,8,0:0:0:0:
256,192,103676,1,8,0:0:0:0:
256,192,103763,1,0,0:0:0:0:
256,192,103938,1,0,0:0:0:0:
256,192,104112,1,0,0:0:0:0:
256,192,104200,1,0,0:0:0:0:
256,192,104287,1,0,0:0:0:0:
256,192,104461,1,8,0:0:0:0:
256,192,104810,1,0,0:0:0:0:
256,192,104984,1,0,0:0:0:0:
256,192,105072,1,0,0:0:0:0:
256,192,105159,1,8,0:0:0:0:
256,192,105333,1,8,0:0:0:0:
256,192,105508,1,0,0:0:0:0:
256,192,105682,1,0,0:0:0:0:
256,192,105856,1,8,0:0:0:0:
256,192,105944,1,0,0:0:0:0:
256,192,106031,1,8,0:0:0:0:
256,192,106205,1,0,0:0:0:0:
256,192,106380,1,8,0:0:0:0:
256,192,106467,1,8,0:0:0:0:
256,192,106554,1,0,0:0:0:0:
256,192,106729,1,0,0:0:0:0:
256,192,106903,1,8,0:0:0:0:
256,192,106990,1,8,0:0:0:0:
256,192,107077,1,8,0:0:0:0:
256,192,107252,1,4,0:0:0:0:
256,192,107426,1,8,0:0:0:0:
256,192,107601,5,12,0:0:0:0:
256,192,107775,1,0,0:0:0:0:
256,192,107950,1,0,0:0:0:0:
256,192,108037,1,0,0:0:0:0:
256,192,108124,1,8,0:0:0:0:
256,192,108211,1,8,0:0:0:0:
256,192,108298,1,0,0:0:0:0:
256,192,108647,1,0,0:0:0:0:
256,192,108822,1,0,0:0:0:0:
256,192,108909,1,0,0:0:0:0:
256,192,108996,1,8,0:0:0:0:
256,192,109170,1,8,0:0:0:0:
256,192,109258,1,8,0:0:0:0:
256,192,109345,1,8,0:0:0:0:
256,192,109519,1,8,0:0:0:0:
256,192,109694,1,0,0:0:0:0:
256,192,109868,1,8,0:0:0:0:
256,192,110043,1,0,0:0:0:0:
256,192,110130,1,8,0:0:0:0:
256,192,110217,1,0,0:0:0:0:
256,192,110391,1,0,0:0:0:0:
256,192,110566,1,0,0:0:0:0:
256,192,110653,1,0,0:0:0:0:
256,192,110740,1,8,0:0:0:0:
256,192,110915,1,0,0:0:0:0:
256,192,111089,1,0,0:0:0:0:
256,192,111263,1,8,0:0:0:0:
256,192,111351,1,0,0:0:0:0:
256,192,111438,1,8,0:0:0:0:
256,192,111612,1,8,0:0:0:0:
256,192,111787,1,0,0:0:0:0:
256,192,112136,1,8,0:0:0:0:
256,192,112310,1,0,0:0:0:0:
256,192,112484,1,8,0:0:0:0:
256,192,112572,1,8,0:0:0:0:
256,192,112659,1,0,0:0:0:0:
256,192,112833,1,8,0:0:0:0:
256,192,113008,1,0,0:0:0:0:
256,192,113095,1,0,0:0:0:0:
256,192,113182,1,8,0:0:0:0:
256,192,113356,1,8,0:0:0:0:
256,192,113444,1,8,0:0:0:0:
256,192,113531,1,0,0:0:0:0:
256,192,113705,1,0,0:0:0:0:
256,192,113880,1,0,0:0:0:0:
256,192,114054,1,0,0:0:0:0:
256,192,114141,1,0,0:0:0:0:
256,192,114229,1,8,0:0:0:0:
256,192,114403,1,8,0:0:0:0:
256,192,114490,1,0,0:0:0:0:
256,192,114577,1,8,0:0:0:0:
256,192,114752,1,0,0:0:0:0:
256,192,114839,1,0,0:0:0:0:
256,192,114926,1,8,0:0:0:0:
256,192,115013,1,8,0:0:0:0:
256,192,115101,1,0,0:0:0:0:
256,192,115275,1,8,0:0:0:0:
256,192,115450,1,0,0:0:0:0:
256,192,115624,1,0,0:0:0:0:
256,192,115798,1,8,0:0:0:0:
256,192,115886,1,0,0:0:0:0:
256,192,115973,1,8,0:0:0:0:
256,192,116147,1,0,0:0:0:0:
256,192,116322,1,0,0:0:0:0:
256,192,116496,1,0,0:0:0:0:
256,192,116583,1,0,0:0:0:0:
256,192,116670,1,8,0:0:0:0:
256,192,116845,1,8,0:0:0:0:
256,192,116932,1,0,0:0:0:0:
256,192,117019,1,8,0:0:0:0:
256,192,117106,1,8,0:0:0:0:
256,192,117194,1,0,0:0:0:0:
256,192,117368,1,0,0:0:0:0:
256,192,117543,1,8,0:0:0:0:
256,192,117630,1,8,0:0:0:0:
256,192,117717,1,8,0:0:0:0:
256,192,117891,1,8,0:0:0:0:
256,192,118066,1,4,0:0:0:0:
256,192,118415,1,12,0:0:0:0:
256,192,118763,1,4,0:0:0:0:
