osu file format v14

[General]
AudioFilename: audio.mp3
AudioLeadIn: 0
PreviewTime: 85188
Countdown: 0
SampleSet: Normal
StackLeniency: 0.7
Mode: 1
LetterboxInBreaks: 0
WidescreenStoryboard: 1

[Editor]
Bookmarks: 50350,73703,96028,118354
DistanceSpacing: 0.8
BeatDivisor: 4
GridSize: 16
TimelineZoom: 1.4

[Metadata]
Title:Hartmann no Youkai Shoujo
TitleUnicode:ハルトマンの妖怪少女
Artist:Akiyama Uni
ArtistUnicode:あきやまうに
Creator:CallMeLyra
Version:Futsuu
Source:東方心綺楼 ~ Hopeless Masquerade.
Tags:Instrumental Video Game th13.5 koishi komeiji 古明地 こいし Twilight Frontier Tasofro 黄昏フロンティア U2 jun ZUN Palace of the Earth Spirits 地霊殿 Chireiden 東方project touhou shinkirou team shanghai alice
BeatmapID:2519701
BeatmapSetID:1209517

[Difficulty]
HPDrainRate:7
CircleSize:5
OverallDifficulty:4
ApproachRate:5
SliderMultiplier:1.4
SliderTickRate:1

[Events]
//Background and Video events
0,0,"Violinist Koishi and Co.jpg",0,0
//Break Periods
//Storyboard Layer 0 (Background)
//Storyboard Layer 1 (Fail)
//Storyboard Layer 2 (Pass)
//Storyboard Layer 3 (Foreground)
//Storyboard Layer 4 (Overlay)
//Storyboard Sound Samples

[TimingPoints]
860,348.837209302326,7,1,0,70,1,0
20394,348.837209302326,4,1,0,80,1,0
31556,348.837209302326,7,1,0,70,1,0
51090,348.837209302326,4,1,0,80,1,0
62252,348.837209302326,4,1,0,80,1,8
62950,348.837209302326,4,1,0,80,1,1
74112,-100,4,1,0,80,0,0
85275,-100,4,1,0,80,0,1
96438,-100,4,1,0,80,0,0
107601,-100,4,1,0,80,0,1
118763,-100,4,1,0,80,0,0

[HitObjects]
256,192,511,5,4,0:0:0:0:
256,192,860,1,12,0:0:0:0:
256,192,1208,1,0,0:0:0:0:
256,192,1383,1,8,0:0:0:0:
256,192,1906,1,8,0:0:0:0:
256,192,2080,1,0,0:0:0:0:
256,192,2255,1,0,0:0:0:0:
256,192,2604,1,8,0:0:0:0:
256,192,3127,1,0,0:0:0:0:
256,192,3301,1,8,0:0:0:0:
256,192,3650,1,0,0:0:0:0:
256,192,3825,1,8,0:0:0:0:
256,192,4348,1,8,0:0:0:0:
256,192,4522,1,0,0:0:0:0:
256,192,4697,1,0,0:0:0:0:
256,192,5046,1,8,0:0:0:0:
256,192,5743,1,0,0:0:0:0:
256,192,6092,1,0,0:0:0:0:
256,192,6266,1,8,0:0:0:0:
256,192,6790,1,8,0:0:0:0:
256,192,6964,1,0,0:0:0:0:
256,192,7139,1,0,0:0:0:0:
256,192,7487,1,8,0:0:0:0:
256,192,8011,1,0,0:0:0:0:
256,192,8185,1,0,0:0:0:0:
256,192,8534,1,0,0:0:0:0:
256,192,8708,1,8,0:0:0:0:
256,192,9232,1,8,0:0:0:0:
256,192,9406,1,0,0:0:0:0:
256,192,9580,1,0,0:0:0:0:
256,192,9929,1,8,0:0:0:0:
256,192,10627,5,12,0:0:0:0:
256,192,10976,1,0,0:0:0:0:
256,192,11150,1,8,0:0:0:0:
256,192,11673,1,8,0:0:0:0:
256,192,11848,1,0,0:0:0:0:
256,192,12022,1,0,0:0:0:0:
256,192,12371,1,8,0:0:0:0:
256,192,12894,1,0,0:0:0:0:
256,192,13069,1,8,0:0:0:0:
256,192,13418,1,0,0:0:0:0:
256,192,13592,1,8,0:0:0:0:
256,192,14115,1,8,0:0:0:0:
256,192,14290,1,0,0:0:0:0:
256,192,14464,1,0,0:0:0:0:
256,192,14813,1,8,0:0:0:0:
256,192,15511,1,0,0:0:0:0:
256,192,15860,1,0,0:0:0:0:
256,192,16034,1,8,0:0:0:0:
256,192,16557,1,8,0:0:0:0:
256,192,16732,1,0,0:0:0:0:
256,192,16906,1,0,0:0:0:0:
256,192,17255,1,8,0:0:0:0:
256,192,17778,1,0,0:0:0:0:
256,192,17953,1,0,0:0:0:0:
256,192,18301,1,0,0:0:0:0:
256,192,18476,1,8,0:0:0:0:
256,192,18999,1,8,0:0:0:0:
256,192,19173,1,0,0:0:0:0:
256,192,19348,1,0,0:0:0:0:
256,192,19697,1,8,0:0:0:0:
256,192,20046,1,0,0:0:0:0:
256,192,20220,1,8,0:0:0:0:
256,192,20394,5,4,0:0:0:0:
256,192,21091,1,0,0:0:0:0:
256,192,21789,1,0,0:0:0:0:
256,192,22138,1,0,0:0:0:0:
256,192,22487,1,0,0:0:0:0:
256,192,22835,1,8,0:0:0:0:
256,192,23184,1,0,0:0:0:0:
256,192,23882,1,8,0:0:0:0:
256,192,24580,1,0,0:0:0:0:
256,192,24928,1,8,0:0:0:0:
256,192,25277,1,0,0:0:0:0:
256,192,25626,1,8,0:0:0:0:
256,192,25975,1,0,0:0:0:0:
256,192,26673,1,0,0:0:0:0:
256,192,27370,1,0,0:0:0:0:
256,192,27719,1,0,0:0:0:0:
256,192,28068,1,0,0:0:0:0:
256,192,28417,1,8,0:0:0:0:
256,192,28766,1,0,0:0:0:0:
256,192,29463,1,8,0:0:0:0:
256,192,30161,1,0,0:0:0:0:
256,192,30510,1,8,0:0:0:0:
256,192,30859,1,0,0:0:0:0:
256,192,31207,1,8,0:0:0:0:
256,192,31556,5,12,0:0:0:0:
256,192,31904,1,0,0:0:0:0:
256,192,32079,1,8,0:0:0:0:
256,192,32602,1,8,0:0:0:0:
256,192,32776,1,8,0:0:0:0:
256,192,32951,1,0,0:0:0:0:
256,192,33300,1,8,0:0:0:0:
256,192,33823,1,0,0:0:0:0:
256,192,33997,1,8,0:0:0:0:
256,192,34346,1,0,0:0:0:0:
256,192,34521,1,8,0:0:0:0:
256,192,35044,1,8,0:0:0:0:
256,192,35218,1,8,0:0:0:0:
256,192,35393,1,0,0:0:0:0:
256,192,35742,1,8,0:0:0:0:
256,192,36439,1,8,0:0:0:0:
256,192,36788,1,0,0:0:0:0:
256,192,36962,1,8,0:0:0:0:
256,192,37486,1,8,0:0:0:0:
256,192,37660,1,0,0:0:0:0:
256,192,37835,1,0,0:0:0:0:
256,192,38183,1,8,0:0:0:0:
256,192,38707,1,0,0:0:0:0:
256,192,38881,1,8,0:0:0:0:
256,192,39230,1,0,0:0:0:0:
256,192,39404,1,8,0:0:0:0:
256,192,39928,1,8,0:0:0:0:
256,192,40102,1,0,0:0:0:0:
256,192,40276,1,0,0:0:0:0:
256,192,40625,1,8,0:0:0:0:
256,192,41323,5,12,0:0:0:0:
256,192,41672,1,0,0:0:0:0:
256,192,41846,1,8,0:0:0:0:
256,192,42369,1,8,0:0:0:0:
256,192,42544,1,8,0:0:0:0:
256,192,42718,1,0,0:0:0:0:
256,192,43067,1,8,0:0:0:0:
256,192,43590,1,0,0:0:0:0:
256,192,43765,1,8,0:0:0:0:
256,192,44114,1,0,0:0:0:0:
256,192,44288,1,8,0:0:0:0:
256,192,44811,1,8,0:0:0:0:
256,192,44986,1,8,0:0:0:0:
256,192,45160,1,0,0:0:0:0:
256,192,45509,1,8,0:0:0:0:
256,192,46207,1,8,0:0:0:0:
256,192,46556,1,0,0:0:0:0:
256,192,46730,1,8,0:0:0:0:
256,192,47253,1,8,0:0:0:0:
256,192,47428,1,0,0:0:0:0:
256,192,47602,1,0,0:0:0:0:
256,192,47951,1,8,0:0:0:0:
256,192,48474,1,0,0:0:0:0:
256,192,48649,1,8,0:0:0:0:
256,192,48997,1,0,0:0:0:0:
256,192,49172,1,8,0:0:0:0:
256,192,49695,1,8,0:0:0:0:
256,192,49869,1,0,0:0:0:0:
256,192,50044,1,0,0:0:0:0:
256,192,50393,1,8,0:0:0:0:
256,192,50742,1,8,0:0:0:0:
256,192,51090,5,4,0:0:0:0:
256,192,51787,1,0,0:0:0:0:
256,192,52136,1,8,0:0:0:0:
256,192,52485,1,0,0:0:0:0:
256,192,52834,1,8,0:0:0:0:
256,192,53183,1,0,0:0:0:0:
256,192,53357,1,0,0:0:0:0:
256,192,53531,1,8,0:0:0:0:
256,192,53880,1,0,0:0:0:0:
256,192,54578,1,8,0:0:0:0:
256,192,54927,1,8,0:0:0:0:
256,192,55276,1,0,0:0:0:0:
256,192,55624,1,8,0:0:0:0:
256,192,55973,1,0,0:0:0:0:
256,192,56148,1,8,0:0:0:0:
256,192,56322,1,8,0:0:0:0:
256,192,56671,1,0,0:0:0:0:
256,192,57369,1,0,0:0:0:0:
256,192,57717,1,8,0:0:0:0:
256,192,58066,1,0,0:0:0:0:
256,192,58415,1,8,0:0:0:0:
256,192,58764,1,0,0:0:0:0:
256,192,58938,1,0,0:0:0:0:
256,192,59113,1,8,0:0:0:0:
256,192,59462,1,0,0:0:0:0:
256,192,60159,1,8,0:0:0:0:
256,192,60508,1,8,0:0:0:0:
256,192,60857,1,0,0:0:0:0:
256,192,61031,1,8,0:0:0:0:
256,192,61206,1,8,0:0:0:0:
256,192,61555,1,8,0:0:0:0:
256,192,61729,1,0,0:0:0:0:
256,192,61903,1,8,0:0:0:0:
256,192,62600,5,12,0:0:0:0:
256,192,62949,5,12,0:0:0:0:
256,192,63298,1,8,0:0:0:0:
256,192,63647,1,0,0:0:0:0:
256,192,63822,1,0,0:0:0:0:
256,192,63996,1,0,0:0:0:0:
256,192,64345,1,0,0:0:0:0:
256,192,64694,1,8,0:0:0:0:
256,192,65043,1,8,0:0:0:0:
256,192,65391,1,0,0:0:0:0:
256,192,65740,1,8,0:0:0:0:
256,192,65915,1,8,0:0:0:0:
256,192,66089,1,0,0:0:0:0:
256,192,66438,1,0,0:0:0:0:
256,192,66612,1,8,0:0:0:0:
256,192,66787,1,8,0:0:0:0:
256,192,67136,1,0,0:0:0:0:
256,192,67484,1,8,0:0:0:0:
256,192,67833,1,8,0:0:0:0:
256,192,68531,1,8,0:0:0:0:
256,192,68880,1,0,0:0:0:0:
256,192,69229,1,8,0:0:0:0:
256,192,69403,1,0,0:0:0:0:
256,192,69577,1,8,0:0:0:0:
256,192,69926,1,8,0:0:0:0:
256,192,70101,1,8,0:0:0:0:
256,192,70275,1,8,0:0:0:0:
256,192,70450,1,0,0:0:0:0:
256,192,70624,1,0,0:0:0:0:
256,192,70973,1,0,0:0:0:0:
256,192,71322,1,0,0:0:0:0:
256,192,71496,1,0,0:0:0:0:
256,192,71670,1,8,0:0:0:0:
256,192,72019,1,0,0:0:0:0:
256,192,72368,1,8,0:0:0:0:
256,192,72717,1,0,0:0:0:0:
256,192,72891,1,0,0:0:0:0:
256,192,73066,1,8,0:0:0:0:
256,192,73240,1,0,0:0:0:0:
256,192,73415,1,0,0:0:0:0:
256,192,74112,5,12,0:0:0:0:
256,192,74461,1,8,0:0:0:0:
256,192,74810,1,0,0:0:0:0:
256,192,74984,1,8,0:0:0:0:
256,192,75159,1,8,0:0:0:0:
256,192,75508,1,0,0:0:0:0:
256,192,75856,1,8,0:0:0:0:
256,192,76205,1,8,0:0:0:0:
256,192,76554,1,0,0:0:0:0:
256,192,76903,1,0,0:0:0:0:
256,192,77077,1,8,0:0:0:0:
256,192,77252,1,8,0:0:0:0:
256,192,77601,1,0,0:0:0:0:
256,192,77775,1,8,0:0:0:0:
256,192,77950,1,0,0:0:0:0:
256,192,78298,1,0,0:0:0:0:
256,192,78647,1,8,0:0:0:0:
256,192,78996,1,8,0:0:0:0:
256,192,79694,1,8,0:0:0:0:
256,192,80043,1,0,0:0:0:0:
256,192,80391,1,8,0:0:0:0:
256,192,80566,1,0,0:0:0:0:
256,192,80740,1,8,0:0:0:0:
256,192,81089,1,8,0:0:0:0:
256,192,81263,1,8,0:0:0:0:
256,192,81438,1,0,0:0:0:0:
256,192,81612,1,0,0:0:0:0:
256,192,81787,1,0,0:0:0:0:
256,192,82136,1,8,0:0:0:0:
256,192,82484,1,0,0:0:0:0:
256,192,82659,1,0,0:0:0:0:
256,192,82833,1,8,0:0:0:0:
256,192,83182,1,0,0:0:0:0:
256,192,83531,1,8,0:0:0:0:
256,192,83880,1,8,0:0:0:0:
256,192,84054,1,8,0:0:0:0:
256,192,84229,1,0,0:0:0:0:
256,192,84403,1,0,0:0:0:0:
256,192,84577,1,8,0:0:0:0:
256,192,85275,1,12,0:0:0:0:
256,192,85624,5,8,0:0:0:0:
256,192,85973,1,0,0:0:0:0:
256,192,86147,1,0,0:0:0:0:
256,192,86322,1,0,0:0:0:0:
256,192,86670,1,0,0:0:0:0:
256,192,87019,1,8,0:0:0:0:
256,192,87368,1,8,0:0:0:0:
256,192,87717,1,0,0:0:0:0:
256,192,88066,1,8,0:0:0:0:
256,192,88240,1,8,0:0:0:0:
256,192,88415,1,0,0:0:0:0:
256,192,88763,1,0,0:0:0:0:
256,192,88938,1,8,0:0:0:0:
256,192,89112,1,8,0:0:0:0:
256,192,89461,1,0,0:0:0:0:
256,192,89810,1,8,0:0:0:0:
256,192,90159,1,8,0:0:0:0:
256,192,90856,1,8,0:0:0:0:
256,192,91205,1,0,0:0:0:0:
256,192,91554,1,8,0:0:0:0:
256,192,91729,1,0,0:0:0:0:
256,192,91903,1,8,0:0:0:0:
256,192,92252,1,8,0:0:0:0:
256,192,92426,1,8,0:0:0:0:
256,192,92601,1,8,0:0:0:0:
256,192,92775,1,0,0:0:0:0:
256,192,92950,1,0,0:0:0:0:
256,192,93298,1,0,0:0:0:0:
256,192,93647,1,0,0:0:0:0:
256,192,93822,1,0,0:0:0:0:
256,192,93996,1,8,0:0:0:0:
256,192,94345,1,0,0:0:0:0:
256,192,94694,1,8,0:0:0:0:
256,192,95043,1,0,0:0:0:0:
256,192,95217,1,0,0:0:0:0:
256,192,95391,1,8,0:0:0:0:
256,192,95566,1,0,0:0:0:0:
256,192,95740,1,0,0:0:0:0:
256,192,96438,5,12,0:0:0:0:
256,192,96787,1,8,0:0:0:0:
256,192,97136,1,0,0:0:0:0:
256,192,97310,1,8,0:0:0:0:
256,192,97484,1,8,0:0:0:0:
256,192,97833,1,0,0:0:0:0:
256,192,98182,1,8,0:0:0:0:
256,192,98531,1,8,0:0:0:0:
256,192,98880,1,0,0:0:0:0:
256,192,99229,1,0,0:0:0:0:
256,192,99403,1,8,0:0:0:0:
256,192,99577,1,8,0:0:0:0:
256,192,99926,1,0,0:0:0:0:
256,192,100101,1,8,0:0:0:0:
256,192,100275,1,0,0:0:0:0:
256,192,100624,1,0,0:0:0:0:
256,192,100973,1,8,0:0:0:0:
256,192,101322,1,8,0:0:0:0:
256,192,102019,1,8,0:0:0:0:
256,192,102368,1,0,0:0:0:0:
256,192,102717,1,8,0:0:0:0:
256,192,102891,1,0,0:0:0:0:
256,192,103066,1,8,0:0:0:0:
256,192,103415,1,8,0:0:0:0:
256,192,103589,1,8,0:0:0:0:
256,192,103763,1,0,0:0:0:0:
256,192,103938,1,0,0:0:0:0:
256,192,104112,1,0,0:0:0:0:
256,192,104461,1,8,0:0:0:0:
256,192,104810,1,0,0:0:0:0:
256,192,104984,1,0,0:0:0:0:
256,192,105159,1,8,0:0:0:0:
256,192,105508,1,0,0:0:0:0:
256,192,105856,1,8,0:0:0:0:
256,192,106205,1,8,0:0:0:0:
256,192,106380,1,8,0:0:0:0:
256,192,106554,1,0,0:0:0:0:
256,192,106729,1,0,0:0:0:0:
256,192,106903,1,8,0:0:0:0:
256,192,107252,1,4,0:0:0:0:
256,192,107601,5,12,0:0:0:0:
256,192,108298,1,0,0:0:0:0:
256,192,108647,1,0,0:0:0:0:
256,192,108822,1,0,0:0:0:0:
256,192,108996,1,8,0:0:0:0:
256,192,109345,1,8,0:0:0:0:
256,192,109519,1,8,0:0:0:0:
256,192,109694,1,0,0:0:0:0:
256,192,110043,1,0,0:0:0:0:
256,192,110391,1,0,0:0:0:0:
256,192,110740,1,0,0:0:0:0:
256,192,110915,1,0,0:0:0:0:
256,192,111089,1,0,0:0:0:0:
256,192,111438,1,8,0:0:0:0:
256,192,111612,1,8,0:0:0:0:
256,192,111787,1,0,0:0:0:0:
256,192,112310,1,8,0:0:0:0:
256,192,112484,1,8,0:0:0:0:
256,192,113182,1,8,0:0:0:0:
256,192,113531,1,0,0:0:0:0:
256,192,113705,1,0,0:0:0:0:
256,192,113880,1,8,0:0:0:0:
256,192,114229,1,8,0:0:0:0:
256,192,114403,1,8,0:0:0:0:
256,192,114577,1,8,0:0:0:0:
256,192,114926,1,8,0:0:0:0:
256,192,115101,1,0,0:0:0:0:
256,192,115275,1,8,0:0:0:0:
256,192,115973,1,8,0:0:0:0:
256,192,116322,1,0,0:0:0:0:
256,192,116670,1,8,0:0:0:0:
256,192,116845,1,0,0:0:0:0:
256,192,117019,1,8,0:0:0:0:
256,192,117368,1,0,0:0:0:0:
256,192,117543,1,8,0:0:0:0:
256,192,117717,1,8,0:0:0:0:
256,192,117891,1,8,0:0:0:0:
256,192,118066,1,4,0:0:0:0:
256,192,118415,1,12,0:0:0:0:
256,192,118763,1,4,0:0:0:0:
