osu file format v14

[General]
AudioFilename: audio.mp3
AudioLeadIn: 0
PreviewTime: 0
Countdown: 1
SampleSet: Soft
StackLeniency: 0.2
Mode: 0
LetterboxInBreaks: 0
WidescreenStoryboard: 0

[Editor]
Bookmarks: 73810
DistanceSpacing: 1.2
BeatDivisor: 4
GridSize: 8
TimelineZoom: 2.3

[Metadata]
Title:Darkening Dusk
TitleUnicode:Darkening Dusk
Artist:Akiyama Uni
ArtistUnicode:Akiyama Uni
Creator:Xilver
Version:Sky Child
Source:東方緋想天 ~ Scarlet Weather Rhapsody.
Tags:touhou project u2 akiyama 10.5 broken moon ZUN twilight frontier hollow wings
BeatmapID:1324824
BeatmapSetID:628388

[Difficulty]
HPDrainRate:6
CircleSize:3.9
OverallDifficulty:8
ApproachRate:8
SliderMultiplier:0.99999997615814
SliderTickRate:1

[Events]
//Background and Video events
0,0,"dusk.jpg",0,0
//Break Periods
//Storyboard Layer 0 (Background)
//Storyboard Layer 1 (Fail)
//Storyboard Layer 2 (Pass)
//Storyboard Layer 3 (Foreground)
//Storyboard Sound Samples

[TimingPoints]
320,750,4,2,1,40,1,0
320,-100,4,2,1,40,0,0
1070,-200,4,2,2,40,0,0
1810,750,4,2,1,40,1,0
1810,-66.6666666666667,4,2,1,40,0,0
19810,-58.8235294117647,4,2,1,40,0,0
22810,-66.6666666666667,4,2,1,40,0,0
24310,-133.333333333333,4,2,1,40,0,0
25810,-58.8235294117647,4,2,1,50,0,0
48310,-125,4,2,1,50,0,0
49810,-62.5,4,2,1,60,0,0
52810,-50,4,2,1,60,0,0
53560,-40,4,2,1,60,0,0
54310,-66.6666666666667,4,2,1,60,0,0
58810,-50,4,2,1,60,0,0
59560,-40,4,2,1,60,0,0
60310,-66.6666666666667,4,2,1,60,0,0
61810,-50,4,2,1,70,0,0
63310,-66.6666666666667,4,2,1,70,0,0
64810,-50,4,2,1,70,0,0
65560,-40,4,2,1,70,0,0
66310,-66.6666666666667,4,2,1,60,0,0
69310,-50,4,2,1,60,0,0
70060,-40,4,2,1,60,0,0
72310,-80,4,2,1,60,0,0
74560,-80,4,2,1,50,0,0
77560,-50,4,2,1,40,0,0
78310,-100,4,2,1,40,0,0
79810,-66.6666666666667,4,2,1,40,0,0
82810,-33.3333333333333,4,2,1,40,0,0
83560,-66.6666666666667,4,2,1,40,0,0
84685,-80,4,2,1,40,0,0
85060,-50,4,2,1,40,0,0
85810,-100,4,2,1,40,0,0
87310,-66.6666666666667,4,2,1,40,0,0
89372,-50,4,2,1,40,0,0
90310,-100,4,2,1,40,0,0
94810,-66.6666666666667,4,2,1,40,0,0
96310,-133.333333333333,4,2,1,40,0,0
97810,-133.333333333333,4,2,1,50,0,0
100810,-40,4,2,1,50,0,0
102310,-80,4,2,1,50,0,0
103060,-40,4,2,1,50,0,0
103810,-50,4,2,1,50,0,0
106810,-33.3333333333333,4,2,1,50,0,0
108310,-66.6666666666667,4,2,1,50,0,0
112810,-33.3333333333333,4,2,1,50,0,0
114310,-100,4,2,1,50,0,0
115060,-50,4,2,1,50,0,0
115810,-66.6666666666667,4,2,1,50,0,0
120310,-100,4,2,1,50,0,0
121810,-100,4,2,1,60,0,0
122560,-50,4,2,1,60,0,0
133810,-50,4,2,1,70,0,0
134185,-40,4,2,1,70,0,0
135310,-33.3333333333333,4,2,1,70,0,0
138310,-66.6666666666667,4,2,1,60,0,0
141310,-33.3333333333333,4,2,1,60,0,0
144310,-66.6666666666667,4,2,1,60,0,0
145810,-66.6666666666667,4,2,2,40,0,0

[Colours]
Combo1 : 240,222,0
Combo2 : 223,32,32

[HitObjects]
93,76,1070,6,0,L|101:113,1,37.5,2|0,2:0|2:1,2:0:0:0:
58,185,1810,6,0,B|86:160|122:173|122:173|124:182|124:182|170:190|198:231,1,150.000005722046,4|8,0:0|0:0,0:0:0:0:
241,234,3122,1,0,0:0:0:0:
241,234,3310,2,0,L|200:172,1,75.0000028610231,4|2,0:0|0:0,0:0:0:0:
294,163,4060,2,0,L|326:144,1,37.5000014305115,8|0,0:0|0:0,0:0:0:0:
298,24,4435,2,0,L|287:60,1,37.5000014305115,2|0,0:0|0:0,0:0:0:0:
402,77,4810,5,4,0:0:0:0:
436,98,5185,2,0,L|431:130,2,25.0000009536744,2|0|0,0:0|0:0|0:0,0:0:0:0:
492,192,5560,2,0,P|438:199|414:215,1,75.0000028610231,8|0,0:0|0:0,0:0:0:0:
344,289,6310,2,0,P|379:299|402:328,1,75.0000028610231,0|2,0:0|0:0,0:0:0:0:
297,384,7060,6,0,L|348:364,1,37.5000014305115,8|0,0:0|0:0,0:0:0:0:
156,244,7435,2,0,L|147:298,1,37.5000014305115,2|0,0:0|0:0,0:0:0:0:
103,367,7810,6,0,B|133:329|133:329|160:329|160:329|188:303|235:325,1,150.000005722046,4|8,0:0|0:0,0:0:0:0:
305,266,9122,1,0,0:0:0:0:
305,266,9310,2,0,L|269:357,1,75.0000028610231,4|0,0:0|0:0,0:0:0:0:
192,197,10060,2,0,P|198:214|216:228,1,37.5000014305115,8|0,0:0|0:0,0:0:0:0:
220,92,10435,2,0,P|202:88|181:97,1,37.5000014305115,2|0,0:0|0:0,0:0:0:0:
390,144,10810,6,0,B|370:133|351:137|351:137|339:159|308:169,2,75.0000028610231,4|0|8,0:0|0:0|0:0,0:0:0:0:
469,42,11935,1,0,0:0:0:0:
431,222,12310,1,0,0:0:0:0:
475,208,12685,2,0,L|479:175,2,25.0000009536744
400,282,13060,2,0,L|416:248,1,37.5000014305115,8|0,0:0|0:0,0:0:0:0:
438,368,13435,2,0,L|400:370,1,37.5000014305115,2|0,0:0|0:0,0:0:0:0:
168,297,13810,6,0,B|222:282|243:323|243:323|253:317|253:317|272:330|316:321,1,150.000005722046,4|8,0:0|0:0,0:0:0:0:
238,201,15122,1,0,0:0:0:0:
238,201,15310,2,0,P|262:228|258:278,1,75.0000028610231,4|0,0:0|0:0,0:0:0:0:
135,154,16060,2,0,P|131:174|136:191,1,37.5000014305115,8|0,0:0|0:0,0:0:0:0:
231,129,16435,2,0,P|251:122|262:109,1,37.5000014305115,2|0,0:0|0:0,0:0:0:0:
157,46,16810,5,4,0:0:0:0:
91,56,17185,6,0,L|113:45,2,18.7500007152558,2|0|0,0:0|0:0|0:0,0:0:0:0:
58,159,17560,2,0,L|40:125,1,37.5000014305115,8|0,0:0|0:0,0:0:0:0:
140,207,17935,2,0,L|110:254,1,37.5000014305115,2|0,0:0|0:0,0:0:0:0:
36,254,18310,1,4,0:0:0:0:
41,285,18685,1,2,0:0:0:0:
266,358,19060,2,0,P|229:310|170:313,1,112.500004291535
225,221,19810,6,0,L|233:262,1,42.5000008106232,4|0,0:0|0:0,0:0:0:0:
358,91,20185,2,0,L|317:77,1,42.5000008106232,2|0,0:0|0:0,0:0:0:0:
72,99,20560,2,0,B|102:83|102:83|129:94|156:90,1,85.0000016212464,8|0,0:0|0:0,0:0:0:0:
246,150,21310,6,0,L|206:137,1,42.5000008106232,4|0,0:0|0:0,0:0:0:0:
298,288,21685,2,0,L|329:259,1,42.5000008106232,2|0,0:0|0:0,0:0:0:0:
372,69,22060,2,0,B|370:102|370:102|347:120|336:146,1,85.0000016212464,8|0,0:0|0:0,0:0:0:0:
452,250,22810,6,0,B|443:279|443:279|455:303|454:324,1,75.0000028610231,2|0,0:0|0:0,0:0:0:0:
452,250,23560,2,0,B|431:227|431:227|404:226|385:214,1,75.0000028610231
452,250,24310,6,0,B|481:243|481:243|496:220|515:210,1,75.0000028610231,4|2,0:0|0:0,0:0:0:0:
158,384,25810,6,0,P|192:335|118:347,1,170.000003242493,4|8,1:2|0:0,0:0:0:0:
136,173,27122,1,0,0:0:0:0:
136,173,27310,2,0,B|140:210|118:214|127:258,1,85.0000016212464,4|0,0:0|0:0,0:0:0:0:
27,129,28060,2,0,L|33:176,1,42.5000008106232,8|0,0:0|0:0,0:0:0:0:
234,230,28435,2,0,L|239:187,1,42.5000008106232,2|0,0:0|0:0,0:0:0:0:
129,46,28810,5,4,0:0:0:0:
194,77,29185,2,0,P|185:62|177:50,2,28.3333338737488,2|0|0,0:0|0:0|0:0,0:0:0:0:
130,172,29560,2,0,L|125:129,1,42.5000008106232,8|0,0:0|0:0,0:0:0:0:
236,238,29935,2,0,L|201:263,1,42.5000008106232,2|0,0:0|0:0,0:0:0:0:
47,333,30310,2,0,P|55:291|98:282,2,85.0000016212464,4|2|8,0:0|0:0|0:0,0:0:0:0:
21,242,31435,1,0,0:0:0:0:
262,366,31810,6,0,B|270:325|270:325|242:315|242:315|251:287|251:287|248:246|199:224,1,170.000003242493,4|8,0:0|0:0,0:0:0:0:
356,241,33122,1,0,0:0:0:0:
356,241,33310,2,0,P|315:250|292:294,1,85.0000016212464,4|0,0:0|0:0,0:0:0:0:
364,346,34060,2,0,L|352:305,1,42.5000008106232,8|0,0:0|0:0,0:0:0:0:
481,261,34435,2,0,L|451:291,1,42.5000008106232,2|0,0:0|0:0,0:0:0:0:
329,138,34810,6,0,B|362:133|362:133|385:153|420:160,2,85.0000016212464,4|0|8,0:0|0:0|0:0,0:0:0:0:
454,137,35935,1,2,0:0:0:0:
208,80,36310,1,4,0:0:0:0:
240,131,36685,2,0,L|245:98,2,28.3333338737488,2|0|0,0:0|0:0|0:0,0:0:0:0:
157,157,37060,2,0,L|145:197,1,42.5000008106232,8|0,0:0|0:0,0:0:0:0:
292,262,37435,2,0,L|262:231,1,42.5000008106232,2|0,0:0|0:0,0:0:0:0:
59,312,37810,6,0,B|81:303|81:303|74:324|74:324|142:283|209:315,1,170.000003242493,4|8,0:0|0:0,0:0:0:0:
74,191,39122,1,0,0:0:0:0:
73,191,39310,2,0,P|66:232|87:267,1,85.0000016212464,4|0,0:0|0:0,0:0:0:0:
25,159,40060,2,0,P|13:137|13:118,1,42.5000008106232,8|0,0:0|0:0,0:0:0:0:
182,30,40435,2,0,P|168:51|152:60,1,42.5000008106232,2|0,0:0|0:0,0:0:0:0:
214,174,40810,6,0,P|240:135|220:102,2,85.0000016212464,4|0|8,0:0|0:0|0:0,0:0:0:0:
272,248,41935,1,0,0:0:0:0:
394,268,42310,2,0,P|332:256|284:299,1,127.50000243187,4|0,0:0|0:0,0:0:0:0:
334,19,43060,2,0,L|347:64,1,42.5000008106232,8|0,0:0|0:0,0:0:0:0:
240,121,43435,2,0,L|272:87,1,42.5000008106232,2|0,0:0|0:0,0:0:0:0:
461,155,43810,6,0,B|441:138|414:137|414:137|364:162|391:134|331:153,1,127.50000243187,4|0,0:0|0:0,0:0:0:0:
222,214,44560,2,0,L|254:180,1,42.5000008106232,8|0,0:0|0:0,0:0:0:0:
421,358,44935,2,0,L|375:346,1,42.5000008106232,2|0,0:0|0:0,0:0:0:0:
340,150,45310,6,0,B|335:175|348:199|348:199|395:229|356:220|403:263,1,127.50000243187,4|0,0:0|0:0,0:0:0:0:
345,377,46060,2,0,L|339:334,1,42.5000008106232,8|0,0:0|0:0,0:0:0:0:
247,180,46435,2,0,L|241:222,1,42.5000008106232,2|0,0:0|0:0,0:0:0:0:
198,270,46810,6,0,P|217:260|237:255,2,42.5000008106232,4|0|0,0:0|0:0|0:0,0:0:0:0:
175,310,47560,1,8,0:0:0:0:
167,332,47935,1,2,0:0:0:0:
32,384,48310,2,0,B|24:364|5:347|5:347|0:314,1,80
8,240,49435,1,0,0:0:0:0:
203,335,49810,6,0,P|241:309|254:230,1,120,4|0,0:0|0:0,0:0:0:0:
327,290,50560,2,0,L|288:298,1,40,8|0,0:0|0:0,0:0:0:0:
284,119,50935,2,0,L|309:149,1,40,2|0,0:0|0:0,0:0:0:0:
469,244,51310,6,0,P|431:226|377:221,2,80,4|0|8,0:0|0:0|0:0,0:0:0:0:
477,156,52435,1,0,0:0:0:0:
301,348,52810,6,0,P|286:328|279:303,1,50,4|0,0:0|0:0,0:0:0:0:
337,222,53185,2,0,P|351:241|358:266,1,50,2|0,0:0|0:0,0:0:0:0:
218,215,53560,6,0,P|240:185|251:147,1,62.5,8|0,0:0|0:0,0:0:0:0:
185,79,53935,2,0,P|167:103|158:134,1,62.5,2|0,0:0|0:0,0:0:0:0:
366,101,54310,2,0,P|326:100|290:79,2,75.0000028610231,4|0|8,0:0|0:0|0:0,0:0:0:0:
433,42,55435,1,0,0:0:0:0:
438,185,55810,6,0,P|446:236|498:242,1,112.500004291535,4|0,0:0|0:0,0:0:0:0:
352,172,56560,2,0,L|370:207,1,37.5000014305115,8|0,0:0|0:0,0:0:0:0:
412,378,56935,2,0,L|374:379,1,37.5000014305115,2|0,0:0|0:0,0:0:0:0:
267,382,57310,2,0,B|269:363|283:349|283:349|293:344|293:344|296:329|305:317,2,75.0000028610231,4|0|8,0:0|0:0|0:0,0:0:0:0:
250,254,58435,1,2,0:0:0:0:
16,133,58810,6,0,P|38:120|64:117,1,50,4|0,0:0|0:0,0:0:0:0:
142,190,59185,2,0,P|121:203|95:206,1,50,2|0,0:0|0:0,0:0:0:0:
119,246,59560,6,0,P|125:216|143:189,1,62.5,8|0,0:0|0:0,0:0:0:0:
277,152,59935,2,0,P|271:182|253:209,1,62.5,2|0,0:0|0:0,0:0:0:0:
218,366,60310,6,8,B|205:338|205:338|213:320|206:291,2,75.0000028610231,4|0|8,0:0|0:0|0:0,0:0:0:0:
218,366,61435,1,0,0:0:0:0:
492,142,61810,6,0,P|432:175|475:222,1,150,4|0,1:2|0:0,0:0:0:0:
489,284,62560,2,0,L|441:269,1,50,8|0,0:0|0:0,0:0:0:0:
344,242,62935,2,0,L|354:290,1,50,2|0,0:0|0:0,0:0:0:0:
404,25,63310,6,0,B|383:41|398:68|380:94,2,75.0000028610231,4|0|8,1:2|0:0|0:0,0:0:0:0:
129,60,64435,1,0,0:0:0:0:
76,165,64810,6,0,P|61:142|58:118,1,50,4|0,1:2|0:0,0:0:0:0:
155,260,65185,2,0,P|170:237|172:213,1,50,2|0,0:0|0:0,0:0:0:0:
282,8,65560,6,0,P|302:32|308:63,1,62.5,12|0,1:2|0:0,0:0:0:0:
256,147,65935,2,0,P|235:120|230:90,1,62.5
358,322,66310,6,0,P|363:285|392:264,2,75.0000028610231,4|2|8,0:0|0:0|0:0,0:0:0:0:
425,371,67435,1,2,0:0:0:0:
176,283,67810,6,0,P|245:283|258:351,1,150.000005722046,4|8,0:0|0:0,0:0:0:0:
212,216,68935,1,2,0:0:0:0:
34,34,69310,6,0,P|40:59|51:80,1,50,4|0,0:0|0:0,0:0:0:0:
154,96,69685,2,0,P|147:70|136:49,1,50,2|0,0:0|0:0,0:0:0:0:
166,250,70060,2,0,P|189:226|206:200,1,62.5,8|0,0:0|0:0,0:0:0:0:
154,96,70435,2,0,P|130:119|113:145,1,62.5,2|0,0:0|0:0,0:0:0:0:
426,115,70810,6,0,B|429:93|429:93|451:81|455:63,1,62.5,4|0,0:0|0:0,0:0:0:0:
290,202,71185,2,0,B|274:217|274:217|249:213|235:226,1,62.5,2|0,0:0|0:0,0:0:0:0:
455,202,71560,2,0,B|476:198|476:198|494:216|513:214,1,62.5,8|0,0:0|0:0,0:0:0:0:
318,114,71935,2,0,B|298:103|298:103|294:79|278:70,1,62.5,2|0,0:0|0:0,0:0:0:0:
379,315,72310,6,0,B|362:279|385:232|385:232|365:192,2,125,4|0|4,1:2|0:0|1:2,0:0:0:0:
367,197,74560,1,8,0:0:0:0:
404,112,75122,1,0,0:0:0:0:
213,156,75310,5,4,0:0:0:0:
242,77,75685,1,2,0:0:0:0:
159,91,76060,1,8,0:0:0:0:
205,114,76435,1,2,0:0:0:0:
56,267,76810,5,4,0:0:0:0:
82,304,77185,5,6,0:0:0:0:
5,268,77310,1,2,0:0:0:0:
74,219,77435,2,0,L|90:211,1,10.4166666666667
161,261,77560,6,0,P|183:251|199:232,1,50,8|0,0:0|0:0,0:0:0:0:
334,281,77935,2,0,P|313:266|289:262,1,50,2|0,0:0|0:0,0:0:0:0:
263,121,78310,6,0,P|260:145|268:169,2,50,4|0|0,0:0|0:0|0:0,0:0:0:0:
263,121,79435,1,0,0:0:0:0:
30,93,79810,6,0,P|75:112|120:159,1,112.500004291535,4|0,0:0|0:0,0:0:0:0:
112,257,80560,1,8,0:0:0:0:
112,257,81122,1,2,0:0:0:0:
276,339,81310,2,0,P|257:294|210:249,1,112.500004291535,4|0,0:0|0:0,0:0:0:0:
112,257,82060,1,8,0:0:0:0:
243,48,82435,1,0,0:0:0:0:
415,68,82810,6,0,P|409:110|381:166,1,75.0000028610231,4|0,0:0|0:0,0:0:0:0:
351,233,83185,2,0,P|330:201|285:174,1,75.0000028610231,2|0,0:0|0:0,0:0:0:0:
243,48,83560,2,0,P|276:47|315:67,2,75.0000028610231,8|2|4,0:0|0:0|0:0,0:0:0:0:
243,48,84685,5,6,0:0:0:0:
168,6,84810,1,2,0:0:0:0:
169,91,84935,2,0,L|171:108,1,10.4166666666667
254,137,85060,6,0,P|258:160|252:184,1,50,8|0,0:0|0:0,0:0:0:0:
372,265,85435,2,0,P|347:256|330:239,1,50,2|0,0:0|0:0,0:0:0:0:
201,301,85810,6,0,P|218:284|242:276,2,50,4|0|8,0:0|0:0|0:0,0:0:0:0:
201,301,87122,1,0,0:0:0:0:
64,342,87310,2,0,P|84:322|106:277,1,75.0000028610231,4|0,0:0|0:0,0:0:0:0:
130,196,87872,1,2,0:0:0:0:
162,57,88060,2,0,P|169:84|196:126,1,75.0000028610231,8|0,0:0|0:0,0:0:0:0:
130,196,88622,1,0,0:0:0:0:
246,230,88810,1,4,0:0:0:0:
246,230,89185,5,2,0:0:0:0:
321,199,89278,1,0,0:0:0:0:
311,280,89372,1,0,0:0:0:0:
336,321,89560,6,0,P|318:301|310:278,1,50,8|0,0:0|0:0,0:0:0:0:
344,156,89935,2,0,P|335:181|319:199,1,50,2|0,0:0|0:0,0:0:0:0:
197,231,90310,2,0,P|223:225|246:230,2,50,4|0|8,0:0|0:0|0:0,0:0:0:0:
235,118,91435,1,2,0:0:0:0:
453,340,91810,5,4,0:0:0:0:
368,192,92560,1,8,0:0:0:0:
368,340,93122,1,0,0:0:0:0:
453,192,93310,1,4,0:0:0:0:
325,266,94060,1,8,0:0:0:0:
495,266,94435,1,0,0:0:0:0:
367,191,94810,6,0,P|368:154|389:123,1,75.0000028610231,4|0,0:0|0:0,0:0:0:0:
244,63,95560,2,0,P|275:82|292:115,1,75.0000028610231,2|0,0:0|0:0,0:0:0:0:
417,20,96310,2,0,P|384:37|347:35,2,75.0000028610231,4|2|4,0:0|0:0|1:2,0:0:0:0:
347,35,98560,1,8,0:0:0:0:
252,78,99122,1,0,0:0:0:0:
435,263,99310,1,4,0:0:0:0:
475,130,99685,1,2,0:0:0:0:
435,263,100060,2,0,L|438:233,1,18.7500007152558,8|0,0:0|0:0,0:0:0:0:
475,130,100435,2,0,L|466:158,1,18.7500007152558,2|0,0:0|0:0,0:0:0:0:
232,101,100810,6,0,B|237:61|237:61|254:81,1,62.5,4|0,0:0|0:0,0:0:0:0:
351,225,101185,2,0,B|360:242|360:242|347:239,2,31.25,2|0|0,0:0|0:0|0:0,0:0:0:0:
182,192,101560,2,0,B|145:174|145:174|169:164,1,62.5,8|0,0:0|0:0,0:0:0:0:
337,120,101935,2,0,B|376:112|376:112|362:134,1,62.5,2|0,0:0|0:0,0:0:0:0:
255,270,102310,2,0,B|227:299|227:299|225:273,1,62.5,4|0,0:0|0:0,0:0:0:0:
126,299,103060,2,0,P|141:274|149:240,1,62.5,8|0,0:0|0:0,0:0:0:0:
32,137,103435,2,0,P|47:162|55:195,1,62.5,2|0,0:0|0:0,0:0:0:0:
282,138,103810,6,0,P|212:113|141:132,1,150,4|0,0:0|0:0,0:0:0:0:
301,265,104560,2,0,P|312:244|312:219,1,50,8|0,0:0|0:0,0:0:0:0:
310,43,104935,2,0,P|322:64|344:76,1,50,2|0,0:0|0:0,0:0:0:0:
494,163,105310,2,0,B|461:173|421:175|421:175|432:156|457:162,2,99.999997615814,4|0|8,0:0|0:0|0:0,0:0:0:0:
494,163,106435,1,0,0:0:0:0:
120,289,106810,6,0,P|94:259|80:225,1,75.0000028610231,4|0,0:0|0:0,0:0:0:0:
257,197,107185,2,0,P|283:227|296:260,1,75.0000028610231,2|0,0:0|0:0,0:0:0:0:
177,211,107560,2,0,P|151:181|137:147,1,75.0000028610231,8|0,0:0|0:0,0:0:0:0:
314,119,107935,2,0,P|340:149|353:182,1,75.0000028610231,2|0,0:0|0:0,0:0:0:0:
407,338,108310,6,0,P|410:303|446:289,2,75.0000028610231,4|0|8,0:0|0:0|0:0,0:0:0:0:
444,288,109435,1,0,0:0:0:0:
159,279,109810,6,0,B|195:277|195:277|218:251|218:251|264:276|319:257,1,150.000005722046,4|8,0:0|0:0,0:0:0:0:
376,286,111122,1,0,0:0:0:0:
179,147,111310,1,4,0:0:0:0:
381,94,111685,1,2,0:0:0:0:
179,147,112060,2,0,L|214:136,1,37.5000014305115,8|0,0:0|0:0,0:0:0:0:
381,94,112435,2,0,L|346:105,1,37.5000014305115,2|0,0:0|0:0,0:0:0:0:
153,54,112810,6,0,P|185:38|224:32,1,75.0000028610231,4|0,0:0|0:0,0:0:0:0:
429,192,113185,2,0,P|397:208|357:213,1,75.0000028610231,2|0,0:0|0:0,0:0:0:0:
274,127,113560,2,0,P|306:111|345:105,1,75.0000028610231,8|0,0:0|0:0,0:0:0:0:
415,84,113935,2,0,P|383:100|343:105,1,75.0000028610231,2|0,0:0|0:0,0:0:0:0:
203,148,114310,6,0,P|235:132|274:126,1,75.0000028610231,4|0,0:0|0:0,0:0:0:0:
126,100,115060,6,0,P|115:126|115:148,1,50,8|0,0:0|0:0,0:0:0:0:
55,220,115435,2,0,P|35:206|11:201,1,50,2|0,0:0|0:0,0:0:0:0:
182,345,115810,2,0,P|129:299|159:236,1,150.000005722046,4|8,0:0|0:0,0:0:0:0:
245,260,117122,5,2,0:0:0:0:
449,311,117310,1,4,0:0:0:0:
407,152,117685,1,0,0:0:0:0:
449,311,118060,2,0,L|438:268,1,37.5000014305115,8|0,0:0|0:0,0:0:0:0:
407,152,118435,2,0,L|418:195,1,37.5000014305115,2|0,0:0|0:0,0:0:0:0:
458,347,118810,6,0,L|447:306,2,37.5000014305115,4|0|0,0:0|0:0|0:0,0:0:0:0:
355,279,119560,1,8,0:0:0:0:
276,337,119935,1,0,0:0:0:0:
232,219,120310,2,4,P|275:232|255:190,2,100,4|2|4,0:0|0:0|0:0,0:0:0:0:
291,112,122185,5,2,0:0:0:0:
81,195,122560,2,0,P|56:151|54:101,1,100,8|0,0:0|0:0,0:0:0:0:
226,16,123122,1,0,0:0:0:0:
138,272,123310,2,0,P|100:239|80:192,1,100,4|0,0:0|0:0,0:0:0:0:
121,28,123872,1,4,0:0:0:0:
287,158,124060,6,0,P|221:153|231:218,1,150,8|0,1:2|0:0,0:0:0:0:
364,179,124810,6,0,P|405:208|429:252,1,100,4|0,0:0|0:0,0:0:0:0:
390,328,125372,1,0,0:0:0:0:
334,271,125560,2,0,P|338:220|365:178,1,100,8|0,2:0|2:0,2:0:0:0:
450,174,126122,1,2,2:0:0:0:
428,251,126310,6,0,P|382:271|332:270,2,100,4|0|8,2:0|2:0|1:2,2:0:0:0:
450,174,127435,1,2,0:0:0:0:
430,92,127810,5,4,0:0:0:0:
233,316,128560,2,0,P|275:290|301:248,1,100,8|0,0:0|0:0,0:0:0:0:
240,92,129122,1,2,0:0:0:0:
140,289,129310,2,4,P|183:313|232:315,1,100
327,145,129872,1,0,0:0:0:0:
64,141,130060,6,0,P|120:123|114:195,1,150,8|0,1:2|0:0,0:0:0:0:
240,182,130810,6,0,P|245:111|280:50,1,100,4|0,0:0|0:0,0:0:0:0:
327,145,131372,1,0,0:0:0:0:
403,201,131560,2,0,P|340:232|269:233,1,100,8|0,0:0|0:0,0:0:0:0:
327,145,132122,1,2,0:0:0:0:
338,50,132310,6,0,P|396:89|432:150,2,100,4|0|8,0:0|0:0|0:0,0:0:0:0:
247,64,133435,1,0,0:0:0:0:
181,111,133810,5,4,1:2:0:0:
277,240,134560,2,0,P|325:222|312:271,1,125,8|0,0:0|0:0,0:0:0:0:
264,351,135122,1,0,0:0:0:0:
250,109,135310,6,0,P|173:186|192:292,1,225.000008583069,4|4,1:2|0:0,0:0:0:0:
408,65,136060,2,0,P|329:102|413:124,1,225.000008583069,8|0,1:2|0:0,0:0:0:0:
61,59,136810,6,0,P|69:134|105:198,1,150.000005722046,4|0,1:2|0:0,0:0:0:0:
176,269,137372,1,0,0:0:0:0:
251,192,137560,2,0,P|260:120|205:74,1,150.000005722046,4|0,1:2|0:0,0:0:0:0:
176,269,138122,1,0,0:0:0:0:
272,328,138310,6,0,P|337:363|410:357,2,150.000005722046,4|2|4,0:0|0:0|0:0,0:0:0:0:
221,249,140560,1,8,0:0:0:0:
262,162,140935,1,0,0:0:0:0:
95,248,141310,6,0,P|65:272|29:282,1,75.0000028610231,4|0,0:0|0:0,0:0:0:0:
107,102,141685,2,0,P|83:72|73:36,1,75.0000028610231,2|0,0:0|0:0,0:0:0:0:
253,114,142060,2,0,P|283:90|319:80,1,75.0000028610231,8|0,0:0|0:0,0:0:0:0:
241,260,142435,2,0,P|265:290|275:326,1,75.0000028610231,2|0,0:0|0:0,0:0:0:0:
367,268,142810,6,0,P|405:256|433:233,1,75.0000028610231,4|0,0:0|0:0,0:0:0:0:
351,37,143185,2,0,P|363:72|362:109,1,75.0000028610231
189,123,143560,2,0,P|150:109|114:111,1,75.0000028610231,8|0,0:0|0:0,0:0:0:0:
67,318,143935,2,0,P|77:282|100:252,1,75.0000028610231,2|0,0:0|0:0,0:0:0:0:
407,342,144310,6,0,P|471:327|529:257,2,150.000005722046,4|2|2,1:2|0:0|0:0,0:0:0:0:
