osu file format v14

[General]
AudioFilename: audio.mp3
AudioLeadIn: 0
PreviewTime: 32205
Countdown: 0
SampleSet: Soft
StackLeniency: 0.7
Mode: 0
LetterboxInBreaks: 0
WidescreenStoryboard: 0

[Editor]
Bookmarks: 11455,32788,54122,75455,203455
DistanceSpacing: 1
BeatDivisor: 4
GridSize: 8
TimelineZoom: 1.5

[Metadata]
Title:Chikurin in Flames
TitleUnicode:竹林インフレイム
Artist:Akiyama Uni
ArtistUnicode:あきやまうに
Creator:My Angel Azusa
Version:Easy
Source:東方深秘録 ~ Urban Legend in Limbo.
Tags:sahuang left SnowNiNo_ u2 bamboo forest 深秘的楽曲集 宇佐見菫子と秘密の部室 あきやまうに A Deeply Mystic Music Collection Sumireko Usami and the Clubroom of Secrets touhou project zun 上海アリス幻樂団 twilight frontier 黄昏フロンティア team shanghai alice c88 th14.5
BeatmapID:1267976
BeatmapSetID:599272

[Difficulty]
HPDrainRate:2
CircleSize:2.5
OverallDifficulty:3
ApproachRate:3
SliderMultiplier:0.899999999999999
SliderTickRate:1

[Events]
//Background and Video events
0,0,"bg.jpg",0,0
//Break Periods
2,75675,84702
//Storyboard Layer 0 (Background)
//Storyboard Layer 1 (Fail)
//Storyboard Layer 2 (Pass)
//Storyboard Layer 3 (Foreground)
//Storyboard Sound Samples

[TimingPoints]
809,333.333333333333,4,2,0,55,1,0
809,-100,4,2,0,55,0,0
10142,-100,4,2,0,66,0,0
11475,-100,4,2,0,50,0,0
20808,-100,4,2,0,60,0,0
22142,-100,4,2,0,50,0,0
30142,-100,4,2,0,70,0,0
32808,-100,4,2,0,80,0,1
43142,-100,4,2,0,80,0,0
43475,-100,4,2,0,80,0,1
54142,-100,4,2,0,70,0,0
75475,-100,4,2,0,45,0,0
86142,-100,4,2,0,60,0,0
96808,-100,4,2,0,55,0,0

[Colours]
Combo1 : 255,255,111
Combo2 : 128,0,128
Combo3 : 49,141,255
Combo4 : 242,24,57

[HitObjects]
87,108,809,6,0,L|96:215,1,89.9999999999999,4|2,3:2|3:2,0:0:0:0:
160,259,1475,2,0,P|202:247|268:251,1,89.9999999999999,0|2,3:0|3:2,0:0:0:0:
322,297,2142,2,0,P|389:299|472:296,2,135,2|0|2,3:2|3:0|3:2,0:0:0:0:
333,207,3475,6,0,P|329:145|318:89,1,89.9999999999999,2|2,3:2|3:2,0:0:0:0:
250,66,4142,2,0,P|188:69|132:81,1,89.9999999999999,0|2,3:0|3:2,0:0:0:0:
94,134,4808,2,0,P|49:140|4:141,2,89.9999999999999,2|2|0,3:2|3:2|3:0,0:0:0:0:
180,159,5808,1,2,3:2:0:0:
223,237,6142,6,0,L|231:346,1,89.9999999999999,4|2,3:2|3:2,0:0:0:0:
315,300,6808,2,0,L|308:210,1,89.9999999999999,0|2,3:0|3:2,0:0:0:0:
296,120,7475,2,0,P|269:78|182:76,2,135,2|0|2,3:2|3:0|3:2,0:0:0:0:
380,151,8808,6,0,L|501:141,1,89.9999999999999,2|2,3:2|3:2,0:0:0:0:
502,227,9475,2,0,L|412:234,1,89.9999999999999,0|2,3:0|3:2,0:0:0:0:
340,288,10142,2,0,P|351:331|346:379,2,89.9999999999999,2|2|2,3:2|3:2|3:2,0:0:0:0:
283,217,11142,1,2,3:2:0:0:
209,269,11475,6,0,P|152:277|14:263,1,180,6|0,3:2|3:0,0:0:0:0:
2,181,12475,1,2,3:2:0:0:
44,101,12808,2,0,L|151:108,1,89.9999999999999,2|2,3:2|3:2,0:0:0:0:
208,157,13475,2,0,L|297:151,1,89.9999999999999,0|2,3:0|3:2,0:0:0:0:
386,169,14142,6,0,P|370:98|264:69,2,180,2|0|0,3:2|3:0|3:0,0:0:0:0:
320,230,15808,1,2,0:0:0:0:
243,182,16142,2,0,L|138:179,1,89.9999999999999,0|2,3:0|0:0,0:0:0:0:
69,211,16808,6,0,P|38:254|137:324,1,180,2|0,3:2|3:0,0:0:0:0:
194,299,17808,1,2,3:2:0:0:
275,337,18142,2,0,L|400:345,2,89.9999999999999,2|2|0,3:2|3:2|0:0,0:0:0:0:
271,246,19142,1,2,3:2:0:0:
189,207,19475,6,0,P|119:181|157:79,1,180,2|0,3:2|3:0,0:0:0:0:
220,71,20475,1,2,3:2:0:0:
294,121,20808,2,0,L|291:187,2,45,2|0|2,3:2|0:0|3:2,0:0:0:0:
360,59,21475,1,0,3:0:0:0:
444,88,21808,1,2,3:2:0:0:
481,170,22142,6,0,L|479:356,1,180,4|0,3:2|3:0,0:0:0:0:
392,373,23142,1,2,3:2:0:0:
320,318,23475,2,0,P|271:302|220:307,1,89.9999999999999,2|2,3:2|3:2,0:0:0:0:
161,359,24142,2,0,P|112:375|61:370,1,89.9999999999999,0|2,3:0|3:2,0:0:0:0:
10,309,24808,6,0,B|32:236|-3:179|-3:179|16:128,2,180,2|0|0,3:2|3:2|3:0,0:0:0:0:
74,373,26475,1,2,0:0:0:0:
136,308,26808,2,0,P|174:285|238:276,1,89.9999999999999,0|2,3:0|0:0,0:0:0:0:
297,317,27475,6,0,P|328:274|229:204,1,180,2|0,3:2|3:0,0:0:0:0:
165,203,28475,1,2,3:2:0:0:
203,121,28808,2,0,L|211:-4,2,89.9999999999999,2|2|0,3:2|3:2|3:0,0:0:0:0:
255,194,29809,1,2,3:2:0:0:
333,150,30142,6,0,L|442:153,1,89.9999999999999,4|0,3:2|3:2,0:0:0:0:
486,216,30808,2,0,L|483:325,1,89.9999999999999,2|0,3:2|3:0,0:0:0:0:
413,362,31475,2,0,B|348:382|348:382|265:365,2,135,4|0|2,3:0|3:0|3:2,0:0:0:0:
394,273,32808,6,0,L|377:116,2,135,6|4|2,3:2|0:0|0:0,0:0:0:0:
304,262,34142,2,0,L|287:105,2,135,2|4|2,3:2|0:0|0:0,0:0:0:0:
231,315,35475,6,0,P|187:329|142:329,1,89.9999999999999,4|2,0:0|3:2,0:0:0:0:
117,242,36142,2,0,P|161:228|206:228,1,89.9999999999999,0|2,3:0|0:0,0:0:0:0:
292,247,36808,2,0,L|404:251,1,89.9999999999999,2|2,3:2|0:0,0:0:0:0:
465,215,37475,2,0,P|470:165|458:116,1,89.9999999999999,0|8,0:0|3:0,0:0:0:0:
386,77,38142,6,0,P|313:44|218:52,2,135,6|4|2,3:2|0:0|0:0,0:0:0:0:
359,163,39475,2,0,P|292:157|232:127,2,135,2|4|2,3:2|0:0|0:0,0:0:0:0:
447,146,40808,5,4,0:0:0:0:
493,222,41142,1,2,3:2:0:0:
439,294,41475,2,0,L|309:307,1,89.9999999999999,0|2,3:0|3:2,0:0:0:0:
262,325,42142,2,0,L|276:376,2,45,2|0|0,0:0|3:0|3:0,0:0:0:0:
185,278,42808,1,2,3:2:0:0:
263,233,43142,1,8,3:0:0:0:
189,181,43475,6,0,L|28:196,2,135,6|4|2,3:2|0:0|0:0,0:0:0:0:
185,90,44808,2,0,L|24:105,2,135,2|4|2,3:2|0:0|0:0,0:0:0:0:
263,136,46142,6,0,P|311:142|348:127,1,89.9999999999999,4|2,0:0|3:2,0:0:0:0:
416,67,46808,2,0,P|464:61|501:76,1,89.9999999999999,0|2,3:0|3:2,0:0:0:0:
450,150,47475,2,0,L|460:246,1,89.9999999999999,2|2,3:2|0:0,0:0:0:0:
383,287,48142,2,0,L|373:383,1,89.9999999999999,0|8,0:0|3:0,0:0:0:0:
287,350,48808,6,0,B|223:354|223:354|130:336,2,135,6|4|2,3:2|0:0|0:0,0:0:0:0:
299,260,50142,2,0,B|229:246|229:246|165:250,2,135,0|2|2,3:0|3:2|0:0,0:0:0:0:
385,285,51475,5,2,3:2:0:0:
445,218,51809,1,2,3:2:0:0:
433,128,52142,2,0,L|303:115,1,89.9999999999999,0|0,0:0|3:0,0:0:0:0:
270,65,52809,2,0,L|284:14,2,45,2|0|2,3:2|0:0|3:2,0:0:0:0:
264,154,53475,2,0,L|278:205,2,45,2|0|2,3:2|3:0|3:2,0:0:0:0:
186,107,54142,6,0,L|72:111,1,89.9999999999999,6|2,0:0|3:2,0:0:0:0:
18,63,54808,2,0,P|46:98|45:211,1,135,2|2,0:0|0:0,0:0:0:0:
116,304,55808,1,2,3:2:0:0:
191,254,56142,2,0,L|301:245,1,89.9999999999999,0|2,3:0|3:2,0:0:0:0:
336,316,56808,6,0,L|446:325,1,89.9999999999999,2|2,3:2|3:2,0:0:0:0:
491,261,57475,2,0,L|475:118,1,135,0|2,3:0|0:0,0:0:0:0:
411,64,58308,2,0,L|421:4,2,45,0|0|2,0:0|3:2|0:0,0:0:0:0:
302,144,59142,1,0,3:0:0:0:
242,76,59475,5,6,0:0:0:0:
152,69,59808,1,2,3:2:0:0:
74,114,60142,2,0,L|83:255,1,135,2|2,0:0|0:0,0:0:0:0:
182,339,61142,1,2,3:2:0:0:
256,288,61476,2,0,L|248:198,1,89.9999999999999,0|2,3:0|3:2,0:0:0:0:
297,122,62142,6,0,P|345:120|407:131,1,89.9999999999999,2|2,3:2|3:2,0:0:0:0:
467,166,62809,2,0,P|495:218|482:300,1,135,0|2,3:0|0:0,0:0:0:0:
413,343,63642,2,0,L|353:333,2,45,0|0|2,0:0|3:2|0:0,0:0:0:0:
337,230,64476,1,2,0:0:0:0:
266,285,64809,5,6,0:0:0:0:
176,273,65142,1,2,3:2:0:0:
137,191,65476,2,0,L|128:56,1,135,2|2,0:0|0:0,0:0:0:0:
242,128,66475,2,0,P|294:142|345:138,2,89.9999999999999,2|0|2,3:2|3:0|3:2,0:0:0:0:
261,39,67475,6,0,P|305:39|348:51,1,89.9999999999999,2|2,3:2|3:2,0:0:0:0:
418,109,68142,2,0,L|438:272,1,135,0|2,3:0|0:0,0:0:0:0:
380,314,68975,2,0,L|373:365,2,45,0|0|2,0:0|3:2|0:0,0:0:0:0:
277,225,69808,1,0,3:0:0:0:
196,265,70142,5,6,0:0:0:0:
156,184,70475,1,2,3:2:0:0:
237,144,70808,2,0,P|258:82|226:16,2,135,2|2|2,0:0|0:0|3:2,0:0:0:0:
167,86,72142,2,0,L|62:92,1,89.9999999999999,0|2,3:0|3:2,0:0:0:0:
12,154,72808,6,0,P|2:205|13:247,1,89.9999999999999,2|2,3:2|3:2,0:0:0:0:
90,284,73475,2,0,P|104:332|93:374,1,89.9999999999999,0|2,3:0|0:0,0:0:0:0:
12,332,74142,2,0,L|230:323,1,180,0|0,0:0|3:0,0:0:0:0:
261,267,75142,1,2,2:0:0:0:
277,355,75475,5,2,0:0:0:0:
152,181,86142,6,0,L|129:23,2,135,6|4|2,3:2|0:0|0:0,0:0:0:0:
216,243,87475,2,0,L|193:401,2,135,2|4|2,3:2|0:0|0:0,0:0:0:0:
288,189,88808,6,0,P|343:183|432:279,1,180,4|0,0:0|3:0,0:0:0:0:
400,347,89808,1,2,0:0:0:0:
325,290,90142,2,0,L|219:301,1,89.9999999999999,2|2,3:2|0:0,0:0:0:0:
202,215,90808,2,0,L|96:204,1,89.9999999999999,0|8,0:0|3:0,0:0:0:0:
25,186,91475,6,0,P|2:126|51:45,2,135,6|4|2,3:2|0:0|0:0,0:0:0:0:
92,126,92808,2,0,P|167:123|205:75,2,135,2|4|2,3:2|0:0|0:0,0:0:0:0:
256,192,94142,12,4,96808,3:2:0:0:
65,130,98142,6,0,B|115:125|153:145|153:145|194:125|252:125,1,180,2|0,3:2|0:0,0:0:0:0:
327,146,99142,1,2,3:2:0:0:
378,219,99475,6,0,L|376:328,1,89.9999999999999,2|2,3:2|3:2,0:0:0:0:
300,357,100142,2,0,P|251:365|189:351,1,89.9999999999999,0|2,3:0|3:2,0:0:0:0:
143,300,100808,2,0,P|94:292|32:306,2,89.9999999999999,2|2|0,3:2|3:2|3:0,0:0:0:0:
229,274,101808,1,2,3:2:0:0:
161,213,102142,6,0,L|167:119,1,89.9999999999999,4|2,3:2|3:2,0:0:0:0:
253,98,102808,2,0,L|247:187,1,89.9999999999999,0|2,3:0|3:2,0:0:0:0:
229,274,103475,2,0,L|396:269,2,135,2|0|2,3:2|3:0|3:2,0:0:0:0:
148,314,104808,5,2,3:2:0:0:
63,283,105142,1,2,3:2:0:0:
27,200,105475,2,0,L|28:106,1,89.9999999999999,0|2,3:0|3:2,0:0:0:0:
95,50,106142,2,0,P|136:43|196:41,1,89.9999999999999,2|2,3:2|3:2,0:0:0:0:
246,105,106808,2,0,P|287:112|347:114,1,89.9999999999999,2|2,3:2|3:2,0:0:0:0:
410,64,107475,5,6,3:2:0:0:
