osu file format v14

[General]
AudioFilename: audio.mp3
AudioLeadIn: 0
PreviewTime: 9292
Countdown: 0
SampleSet: Soft
StackLeniency: 0.4
Mode: 0
LetterboxInBreaks: 0
WidescreenStoryboard: 0

[Editor]
Bookmarks: 9878,24878,28393,39878,69878,84878
DistanceSpacing: 0.4
BeatDivisor: 4
GridSize: 32
TimelineZoom: 1.6

[Metadata]
Title:Broken Moon
TitleUnicode:砕月
Artist:Akiyama Uni
ArtistUnicode:あきやまうに
Creator:sahuang
Version:Plenilune
Source:東方Project
Tags:Binguo Akitoshi Pata-Mon Regou [Mahua] qq944364487 Corinn My Angel Azusa th10.5 fxt tasofro twilight frontier 黄昏フロンティア u2 zun scarlet weather rhapsody jun
BeatmapID:1389955
BeatmapSetID:643391

[Difficulty]
HPDrainRate:6
CircleSize:3
OverallDifficulty:8.5
ApproachRate:9.6
SliderMultiplier:2.6
SliderTickRate:1

[Events]
//Background and Video events
0,0,"touhou.jpg",0,0
//Break Periods
//Storyboard Layer 0 (Background)
//Storyboard Layer 1 (Fail)
//Storyboard Layer 2 (Pass)
//Storyboard Layer 3 (Foreground)
//Storyboard Sound Samples

[TimingPoints]
2378,468.75,4,2,9,70,1,0
6128,-83.3333333333333,4,2,9,70,0,0
8940,-66.6666666666667,4,2,9,70,0,0
9409,-200,4,2,9,70,0,0
9878,-125,4,2,9,50,0,0
24174,-83.3333333333333,4,2,9,50,0,0
24878,-125,4,2,9,50,0,0
38940,-66.6666666666667,4,2,9,50,0,0
39174,-100,4,2,9,50,0,0
39878,-83.3333333333333,4,2,9,90,0,1
45503,-71.4285714285714,4,2,9,90,0,1
47378,-83.3333333333333,4,2,9,90,0,1
53940,-100,4,2,9,90,0,0
54878,-83.3333333333333,4,2,9,90,0,1
60503,-71.4285714285714,4,2,9,90,0,1
62378,-83.3333333333333,4,2,9,90,0,1
68003,-66.6666666666667,4,2,9,90,0,1
69878,-76.9230769230769,4,2,9,70,0,0
81128,-83.3333333333333,4,2,9,60,0,0
83003,-71.4285714285714,4,2,9,60,0,0
84878,-100,4,2,9,60,0,0
92378,-111.111111111111,4,2,9,60,0,0
98003,-76.9230769230769,4,2,9,80,0,1
99409,-100,4,2,9,80,0,1
99878,-100,4,2,9,70,0,0
103628,-83.3333333333333,4,2,9,70,0,0
106440,-66.6666666666667,4,2,9,70,0,0
106909,-200,4,2,9,50,0,0
107143,-200,4,2,9,30,0,0

[Colours]
Combo1 : 206,130,94
Combo2 : 242,185,121
Combo3 : 224,206,234
Combo4 : 221,128,125

[HitObjects]
120,104,1440,5,2,0:0:0:0:
120,110,1557,1,2,0:0:0:0:
121,117,1674,1,2,0:0:0:0:
122,124,1792,1,2,0:0:0:0:
123,131,1909,2,0,L|189:124,1,65,0|0,0:0|0:0,0:0:0:0:
129,278,2143,2,0,L|63:271,1,65,0|0,0:0|0:0,0:0:0:0:
293,222,2378,6,0,P|333:214|328:300,1,130,4|0,0:0|0:0,0:0:0:0:
129,278,2729,1,0,0:0:0:0:
293,222,2846,2,0,L|302:63,1,130,8|0,0:0|0:0,0:0:0:0:
308,76,3315,6,0,L|224:78,1,65,2|0,0:0|0:0,0:0:0:0:
398,201,3549,2,0,L|482:203,1,65,0|0,0:0|0:0,0:0:0:0:
300,346,3784,1,8,0:0:0:0:
281,319,3901,1,0,0:0:0:0:
284,286,4018,2,0,L|293:217,1,65,0|0,0:0|0:0,0:0:0:0:
89,101,4253,6,0,P|92:174|190:148,1,195,4|0,0:0|0:0,0:0:0:0:
122,291,4721,2,0,L|106:195,1,65,8|0,0:0|0:0,0:0:0:0:
287,74,4956,2,0,L|271:170,1,65,0|0,0:0|0:0,0:0:0:0:
298,348,5190,5,2,0:0:0:0:
338,335,5307,1,0,0:0:0:0:
363,301,5424,1,2,0:0:0:0:
363,258,5541,1,0,0:0:0:0:
276,229,5659,5,8,0:0:0:0:
276,138,5776,1,0,0:0:0:0:
363,110,5893,1,2,0:0:0:0:
416,184,6010,2,0,L|450:181,1,32.5,0|0,0:0|0:0,0:0:0:0:
261,239,6128,6,0,B|210:245|210:245|158:227|158:227|104:237,1,155.999995239258,4|0,0:0|0:0,0:0:0:0:
276,229,6479,1,0,0:0:0:0:
145,60,6596,2,0,L|156:149,1,77.999997619629,8|0,0:0|0:0,0:0:0:0:
363,110,6831,2,0,L|374:199,1,77.999997619629,0|0,0:0|0:0,0:0:0:0:
285,346,7065,6,0,B|336:352|336:352|388:334|388:334|442:344,1,155.999995239258,2|0,0:0|0:0,0:0:0:0:
270,336,7416,1,0,0:0:0:0:
372,187,7534,1,8,0:0:0:0:
410,194,7651,1,2,2:0:0:0:
448,202,7768,2,0,L|369:216,1,77.999997619629,0|0,0:0|0:0,0:0:0:0:
161,80,8003,6,0,L|240:94,2,77.999997619629,2|0|2,0:0|0:0|0:0,0:0:0:0:
54,128,8354,1,0,0:0:0:0:
55,243,8471,2,0,P|63:282|83:315,1,77.999997619629,8|0,0:0|0:0,0:0:0:0:
268,263,8706,2,0,P|260:224|240:191,1,77.999997619629,2|0,0:0|0:0,0:0:0:0:
55,243,8940,6,0,L|71:359,1,97.50000371933,4|0,0:0|0:0,0:0:0:0:
177,297,9174,1,2,0:0:0:0:
191,303,9292,1,0,0:0:0:0:
240,191,9409,6,0,L|280:180,1,32.5,8|0,0:0|0:0,0:0:0:0:
138,132,9643,2,0,L|178:121,1,32.5,2|0,0:0|0:0,0:0:0:0:
163,20,9878,6,0,L|172:160,1,104,6|0,0:0|0:0,0:0:0:0:
240,191,10229,1,0,0:0:0:0:
304,18,10346,2,0,L|311:122,1,104,0|0,1:0|0:0,0:0:0:0:
362,355,10815,2,0,P|367:323|362:288,1,52,2|0,0:0|0:0,0:0:0:0:
255,305,11049,2,0,P|249:336|255:372,1,52,0|0,0:0|0:0,0:0:0:0:
436,243,11284,2,0,P|411:223|377:209,2,52,0|0|0,1:0|0:0|0:0,0:0:0:0:
151,307,11753,6,0,L|258:304,1,104,2|0,0:0|0:0,0:0:0:0:
310,222,12104,1,0,0:0:0:0:
135,155,12221,2,0,L|239:153,1,104,0|0,1:0|0:0,0:0:0:0:
451,76,12690,1,2,0:0:0:0:
417,38,12807,1,0,0:0:0:0:
367,39,12924,2,0,L|300:36,1,52,0|0,0:0|0:0,0:0:0:0:
146,106,13159,2,0,P|135:137|136:164,2,52,0|0|0,1:0|0:0|0:0,0:0:0:0:
332,286,13628,6,0,P|284:318|229:315,1,104,2|0,0:0|0:0,0:0:0:0:
162,256,13979,1,0,0:0:0:0:
0,347,14096,2,0,P|50:353|97:331,1,104,0|0,1:0|0:0,0:0:0:0:
162,256,14448,1,0,0:0:0:0:
239,318,14565,2,0,L|307:305,1,52,2|0,0:0|0:0,0:0:0:0:
407,160,14799,2,0,L|413:121,2,34.6666666666667
397,178,15034,2,0,L|391:74,1,104,0|0,1:0|0:0,0:0:0:0:
193,38,15503,6,0,P|178:99|193:145,1,104,2|0,0:0|0:0,0:0:0:0:
266,197,15854,1,0,0:0:0:0:
104,292,15971,2,0,L|207:276,1,104,0|0,1:0|0:0,0:0:0:0:
272,350,16323,1,0,0:0:0:0:
84,376,16440,5,2,0:0:0:0:
104,292,16557,1,0,0:0:0:0:
20,272,16674,1,0,0:0:0:0:
0,356,16792,1,0,0:0:0:0:
104,379,16909,2,0,L|167:368,1,52,8|0,0:0|0:0,0:0:0:0:
20,255,17143,2,0,L|9:192,1,52,0|0,0:0|0:0,0:0:0:0:
147,28,17378,6,0,L|137:161,1,104,4|0,0:0|0:0,0:0:0:0:
191,215,17729,1,0,0:0:0:0:
320,158,17846,2,0,L|269:155,1,52,0|0,1:0|0:0,0:0:0:0:
338,284,18081,2,0,L|389:287,1,52,0|0,0:0|0:0,0:0:0:0:
482,181,18315,1,2,0:0:0:0:
494,131,18432,1,0,0:0:0:0:
471,85,18549,1,0,0:0:0:0:
425,65,18666,1,0,0:0:0:0:
376,79,18784,2,0,L|382:145,2,52,0|0|0,1:0|0:0|0:0,0:0:0:0:
213,264,19253,6,0,L|218:198,1,52,2|0,0:0|0:0,0:0:0:0:
128,90,19487,1,0,0:0:0:0:
77,84,19604,1,0,0:0:0:0:
39,117,19721,2,0,L|46:257,1,104,0|0,1:0|0:0,0:0:0:0:
267,222,20190,2,0,P|234:211|202:216,1,52,2|0,0:0|0:0,0:0:0:0:
317,354,20424,2,0,L|389:343,1,52,0|0,0:0|0:0,0:0:0:0:
168,302,20659,1,0,1:0:0:0:
162,302,20776,1,0,0:0:0:0:
155,301,20893,2,0,L|162:361,1,52,0|0,0:0|0:0,0:0:0:0:
289,218,21128,6,0,P|336:157|246:134,1,156,4|0,0:0|0:0,0:0:0:0:
376,176,21596,2,0,L|451:158,1,52,0|0,1:0|0:0,0:0:0:0:
480,80,21831,1,0,0:0:0:0:
381,75,21948,1,0,0:0:0:0:
426,163,22065,6,0,P|433:191|436:228,1,52,2|0,0:0|0:0,0:0:0:0:
314,324,22299,2,0,P|285:331|249:334,1,52,0|0,0:0|0:0,0:0:0:0:
417,294,22534,1,0,1:0:0:0:
417,294,22651,1,0,0:0:0:0:
332,350,22768,2,0,P|303:357|267:360,1,52,0|0,0:0|0:0,0:0:0:0:
221,155,23003,6,0,P|206:199|211:293,1,104,2|0,0:0|0:0,0:0:0:0:
233,139,23354,1,0,0:0:0:0:
383,233,23471,2,0,L|302:221,1,52
132,333,23706,1,2,0:0:0:0:
31,195,23823,1,8,0:0:0:0:
132,167,23940,5,8,0:0:0:0:
233,139,24057,1,0,0:0:0:0:
383,97,24174,6,0,P|395:74|398:17,1,77.999997619629,4|0,0:0|0:0,0:0:0:0:
216,128,24409,1,0,0:0:0:0:
366,86,24526,6,0,P|378:63|381:6,1,77.999997619629,4|0,0:0|0:0,0:0:0:0:
199,117,24760,1,0,0:0:0:0:
328,239,24878,6,0,L|439:224,1,104,6|0,0:0|0:0,0:0:0:0:
512,283,25229,1,0,0:0:0:0:
322,340,25346,2,0,P|315:291|337:221,1,104,0|0,1:0|0:0,0:0:0:0:
58,148,25815,2,0,P|90:143|125:148,1,52,2|0,0:0|0:0,0:0:0:0:
108,255,26049,2,0,P|77:261|41:255,1,52,0|0,0:0|0:0,0:0:0:0:
170,74,26284,2,0,P|190:99|204:133,2,52,0|0|0,1:0|0:0|0:0,0:0:0:0:
282,326,26753,6,0,P|331:308|360:256,1,104,2|0,0:0|0:0,0:0:0:0:
352,167,27104,1,0,0:0:0:0:
181,194,27221,2,0,P|209:151|258:134,1,104,0|0,1:0|0:0,0:0:0:0:
271,230,27573,1,0,0:0:0:0:
58,325,27690,1,2,0:0:0:0:
54,273,27807,1,0,0:0:0:0:
51,221,27924,1,0,0:0:0:0:
48,169,28041,1,0,0:0:0:0:
44,117,28159,2,0,L|56:46,1,52,0|0,1:0|0:0,0:0:0:0:
190,245,28393,2,0,L|178:173,1,52,0|0,0:0|0:0,0:0:0:0:
376,35,28628,6,0,B|400:80|400:80|380:199,1,156,2|0,0:0|0:0,0:0:0:0:
264,384,29096,2,0,P|270:355|263:320,1,52,0|0,1:0|0:0,0:0:0:0:
190,245,29331,1,0,0:0:0:0:
349,270,29448,1,0,0:0:0:0:
170,228,29565,2,0,L|183:160,1,52,2|0,0:0|0:0,0:0:0:0:
357,33,29799,2,0,L|396:27,2,34.6666666666667,0|0|0,0:0|0:0|0:0,0:0:0:0:
339,43,30034,2,0,L|443:49,1,104,0|0,1:0|0:0,0:0:0:0:
491,255,30503,6,0,P|430:270|384:255,1,104,2|0,0:0|0:0,0:0:0:0:
332,182,30854,1,0,0:0:0:0:
246,334,30971,2,0,L|246:231,1,104,0|0,1:0|0:0,0:0:0:0:
185,159,31323,1,0,0:0:0:0:
72,380,31440,5,2,0:0:0:0:
11,308,31557,1,0,0:0:0:0:
18,213,31674,1,0,0:0:0:0:
90,152,31792,1,0,0:0:0:0:
185,159,31909,1,0,1:0:0:0:
246,231,32026,1,0,0:0:0:0:
239,326,32143,2,0,L|166:320,1,52,2|0,0:0|0:0,0:0:0:0:
308,116,32378,6,0,L|411:108,1,104,4|0,0:0|0:0,0:0:0:0:
488,169,32729,1,0,0:0:0:0:
376,300,32846,2,0,P|374:269|369:248,1,52,0|0,1:0|0:0,0:0:0:0:
220,64,33081,2,0,P|218:94|213:115,1,52,0|0,0:0|0:0,0:0:0:0:
146,350,33315,1,2,0:0:0:0:
100,329,33432,1,0,0:0:0:0:
96,279,33549,1,0,0:0:0:0:
136,251,33666,1,0,0:0:0:0:
181,271,33784,2,0,L|238:262,1,52,0|0,1:0|0:0,0:0:0:0:
456,328,34018,2,0,L|513:319,1,52,2|0,0:0|0:0,0:0:0:0:
439,310,34253,6,0,B|446:187|446:187|404:228,1,156,2|0,0:0|0:0,0:0:0:0:
243,312,34721,2,0,P|232:279|237:247,1,52,0|0,1:0|0:0,0:0:0:0:
308,111,34956,2,0,P|319:144|314:176,1,52,0|0,0:0|0:0,0:0:0:0:
167,134,35190,2,0,L|96:150,1,52,2|0,0:0|0:0,0:0:0:0:
310,61,35424,2,0,L|381:77,1,52
423,265,35659,1,0,1:0:0:0:
423,271,35776,1,0,0:0:0:0:
424,278,35893,2,0,L|364:271,1,52,2|0,0:0|0:0,0:0:0:0:
73,314,36128,6,0,B|126:333|126:333|236:312,1,156,2|0,0:0|0:0,0:0:0:0:
138,145,36596,2,0,P|145:113|174:76,1,52,0|0,1:0|0:0,0:0:0:0:
351,23,36831,1,0,0:0:0:0:
263,163,36948,1,0,0:0:0:0:
201,10,37065,6,0,P|173:3|136:0,1,52,2|0,0:0|0:0,0:0:0:0:
29,131,37299,2,0,P|22:160|19:196,1,52
74,44,37534,1,0,1:0:0:0:
74,44,37651,1,0,0:0:0:0:
9,121,37768,2,0,P|2:150|-1:186,1,52
203,377,38003,5,8,0:2:0:0:
187,178,38120,1,0,0:0:0:0:
56,282,38237,1,0,0:0:0:0:
246,286,38354,1,8,0:0:0:0:
133,105,38471,2,0,P|119:117|103:149,1,52,8|0,0:0|0:0,0:0:0:0:
319,130,38706,5,8,0:0:0:0:
210,51,38823,1,0,0:0:0:0:
159,265,38940,6,0,P|156:238|147:275,1,97.50000371933,4|0,3:0|0:0,0:0:0:0:
246,286,39174,6,0,P|248:248|234:201,1,65,2|0,0:0|0:0,0:0:0:0:
55,330,39409,2,0,P|86:350|134:362,1,65,6|0,0:3|0:0,0:0:0:0:
104,147,39643,2,0,P|70:164|36:199,1,65,2|0,0:0|0:0,0:0:0:0:
251,127,39878,6,0,B|311:152|417:99|417:99|376:154,1,233.999992858887,4|0,0:2|0:0,0:0:0:0:
486,41,40346,2,0,P|464:21|410:13,1,77.999997619629,2|0,0:3|0:0,0:0:0:0:
353,266,40581,2,0,P|375:286|429:294,1,77.999997619629,2|0,0:0|0:0,0:0:0:0:
215,121,40815,6,0,B|165:97|165:97|175:230|175:230|233:206,1,233.999992858887,2|0,0:0|0:0,0:0:0:0:
313,112,41284,2,0,L|321:15,1,77.999997619629,2|0,0:3|0:0,0:0:0:0:
70,160,41518,2,0,L|78:257,1,77.999997619629,0|0,0:0|0:0,0:0:0:0:
257,349,41753,6,0,P|295:352|333:334,1,77.999997619629,0|0,0:0|0:0,0:0:0:0:
407,188,41987,1,0,0:0:0:0:
432,310,42104,1,0,0:0:0:0:
241,253,42221,6,0,P|263:221|266:179,1,77.999997619629,2|0,0:3|0:0,0:0:0:0:
131,82,42456,1,0,0:0:0:0:
253,91,42573,1,0,0:0:0:0:
129,311,42690,5,2,0:0:0:0:
43,279,42807,1,0,0:0:0:0:
7,195,42924,1,0,0:0:0:0:
45,111,43041,1,0,0:0:0:0:
131,82,43159,2,0,L|215:87,1,77.999997619629,2|0,0:3|0:0,0:0:0:0:
365,270,43393,2,0,L|281:275,1,77.999997619629,2|0,0:0|0:0,0:0:0:0:
460,60,43628,6,0,B|478:137|465:220|465:220|449:178|383:145,1,233.999992858887,4|0,0:0|0:0,0:0:0:0:
131,82,44096,2,0,P|117:118|122:156,1,77.999997619629,2|0,0:3|0:0,0:0:0:0:
356,344,44331,2,0,P|367:320|358:257,1,77.999997619629,0|0,0:0|0:0,0:0:0:0:
41,283,44565,6,0,B|89:283|128:255|128:255|166:287|166:287|213:276|269:292,1,233.999992858887,2|0,0:0|0:0,0:0:0:0:
13,179,45034,2,0,P|55:162|91:159,1,77.999997619629,2|0,0:3|0:0,0:0:0:0:
330,268,45268,2,0,P|288:285|252:288,1,77.999997619629,0|0,0:0|0:0,0:0:0:0:
403,26,45503,6,0,L|406:150,1,90.9999972229005,2|0,0:0|0:0,0:0:0:0:
255,288,45737,1,2,0:0:0:0:
414,208,45854,1,0,0:0:0:0:
217,156,45971,5,2,0:3:0:0:
211,137,46049,1,0,0:0:0:0:
213,117,46128,1,0,0:0:0:0:
223,99,46206,2,0,L|133:105,1,90.9999972229005,0|0,0:0|0:0,0:0:0:0:
414,208,46440,6,0,P|455:154|473:268,1,272.999991668701,2|0,0:0|0:0,0:0:0:0:
105,288,46909,2,0,P|138:254|182:245,1,90.9999972229005,2|0,0:3|0:2,0:0:0:0:
399,381,47143,2,0,L|387:266,1,90.9999972229005,2|0,0:0|0:0,0:0:0:0:
193,25,47378,6,0,B|170:95|170:95|203:171|203:171|179:244,1,233.999992858887,4|0,0:0|0:0,0:0:0:0:
396,85,47846,2,0,B|356:78|356:78|310:89,1,77.999997619629,2|0,0:3|0:0,0:0:0:0:
98,182,48081,1,0,0:0:0:0:
282,227,48198,1,0,0:0:0:0:
135,41,48315,6,0,B|-8:12|-8:12|29:25|52:85,1,233.999992858887,2|0,0:0|0:0,0:0:0:0:
306,248,48784,2,0,L|398:239,1,77.999997619629,2|0,0:3|0:0,0:0:0:0:
120,361,49018,2,0,L|28:352,1,77.999997619629,0|0,0:0|0:0,0:0:0:0:
316,141,49253,6,0,P|344:126|252:95,1,233.999992858887,2|0,0:0|0:0,0:0:0:0:
70,253,49721,2,0,P|59:214|68:160,1,77.999997619629,2|0,0:3|0:0,0:0:0:0:
202,202,49956,1,2,0:0:0:0:
202,202,50073,1,0,0:0:0:0:
328,294,50190,5,0,0:0:0:0:
232,294,50307,1,0,0:0:0:0:
202,202,50424,1,2,0:0:0:0:
280,146,50542,1,0,0:0:0:0:
357,202,50659,2,0,L|438:197,1,77.999997619629,2|0,0:3|0:0,0:0:0:0:
220,85,50893,2,0,L|301:80,1,77.999997619629,2|0,0:0|0:0,0:0:0:0:
92,352,51128,6,0,L|260:341,1,155.999995239258,4|2,0:0|0:0,0:0:0:0:
335,232,51479,1,0,0:0:0:0:
107,168,51596,2,0,P|99:209|124:261,1,77.999997619629,2|0,0:3|0:0,0:0:0:0:
380,112,51831,2,0,P|388:71|363:19,1,77.999997619629,0|0,0:0|0:0,0:0:0:0:
95,148,52065,6,0,P|87:189|112:241,1,77.999997619629,0|0,0:0|0:0,0:0:0:0:
368,92,52299,2,0,P|376:51|351:-1,1,77.999997619629,2|0,0:0|0:0,0:0:0:0:
243,282,52534,2,0,L|360:267,1,77.999997619629,2|0,0:3|0:0,0:0:0:0:
446,194,52768,1,0,0:0:0:0:
450,341,52885,1,0,0:0:0:0:
286,183,53003,6,0,L|208:192,1,77.999997619629,2|0,0:0|0:0,0:0:0:0:
75,112,53237,1,0,0:0:0:0:
87,101,53354,1,0,0:0:0:0:
270,199,53471,6,0,L|192:208,1,77.999997619629,2|0,0:3|0:0,0:0:0:0:
87,101,53706,1,0,0:0:0:0:
266,73,53823,1,0,0:0:0:0:
449,227,53940,5,2,0:0:0:0:
270,199,54057,1,0,0:0:0:0:
136,318,54174,2,0,P|168:318|198:307,1,65,0|0,0:0|0:0,0:0:0:0:
201,14,54409,2,0,P|184:41|179:73,1,65,2|0,0:3|0:0,0:0:0:0:
449,227,54643,2,0,P|433:198|408:178,1,65,2|0,0:0|0:0,0:0:0:0:
158,202,54878,6,0,B|183:142|130:36|130:36|185:77,1,233.999992858887,4|0,0:2|0:0,0:0:0:0:
299,305,55346,2,0,P|322:303|365:268,1,77.999997619629,2|0,0:3|0:0,0:0:0:0:
299,79,55581,2,0,P|322:81|365:116,1,77.999997619629,0|0,0:0|0:0,0:0:0:0:
123,318,55815,6,0,B|130:302|55:159|11:270|53:350|121:270|120:205,1,233.999992858887,2|0,0:0|0:0,0:0:0:0:
2,40,56284,2,0,P|-3:72|4:126,1,77.999997619629,2|0,0:3|0:0,0:0:0:0:
275,221,56518,2,0,P|280:260|275:299,1,77.999997619629,0|0,0:0|0:0,0:0:0:0:
207,141,56753,6,0,P|239:119|281:116,1,77.999997619629,2|0,0:0|0:0,0:0:0:0:
420,217,56988,1,0,0:0:0:0:
275,298,57105,1,0,0:0:0:0:
207,141,57221,6,0,P|175:119|133:116,1,77.999997619629,2|0,0:3|0:0,0:0:0:0:
36,251,57456,1,0,0:0:0:0:
45,129,57573,1,0,0:0:0:0:
265,253,57690,5,2,0:0:0:0:
233,339,57807,1,0,0:0:0:0:
149,375,57924,1,0,0:0:0:0:
65,337,58041,1,0,0:0:0:0:
36,251,58159,2,0,L|41:167,1,77.999997619629,2|0,0:3|0:0,0:0:0:0:
224,17,58393,2,0,L|229:101,1,77.999997619629,2|0,0:0|0:0,0:0:0:0:
353,279,58628,6,0,B|430:309|513:296|513:296|471:280|438:214,1,233.999992858887,4|0,0:0|0:0,0:0:0:0:
190,349,59096,2,0,P|226:363|264:358,1,77.999997619629,2|0,0:3|0:0,0:0:0:0:
431,72,59331,2,0,P|407:61|344:70,1,77.999997619629,2|0,0:0|0:0,0:0:0:0:
378,367,59565,6,0,B|378:319|350:280|350:280|382:242|382:242|371:195|387:139,1,233.999992858887,4|0,0:0|0:0,0:0:0:0:
82,61,60034,2,0,L|204:59,1,77.999997619629,2|0,0:3|0:0,0:0:0:0:
380,240,60268,2,0,L|258:238,1,77.999997619629,0|0,0:0|0:0,0:0:0:0:
90,45,60503,6,0,L|214:42,1,90.9999972229005,2|0,0:0|0:0,0:0:0:0:
403,226,60737,2,0,L|279:223,1,90.9999972229005,2|0,0:0|0:0,0:0:0:0:
106,272,60971,5,2,0:3:0:0:
87,278,61049,1,0,0:0:0:0:
67,276,61128,1,0,0:0:0:0:
49,266,61206,2,0,L|55:356,1,90.9999972229005,0|0,0:0|0:0,0:0:0:0:
130,138,61440,6,0,P|76:97|190:79,1,272.999991668701,2|0,0:0|0:0,0:0:0:0:
351,343,61909,6,0,P|317:310|308:266,1,90.9999972229005,8|0,0:0|0:0,0:0:0:0:
504,93,62143,2,0,L|389:105,1,90.9999972229005,2|0,0:0|0:0,0:0:0:0:
88,254,62378,6,0,B|158:277|158:277|234:244|234:244|307:268,1,233.999992858887,4|0,0:0|0:0,0:0:0:0:
149,52,62846,2,0,B|142:92|142:92|153:138,1,77.999997619629,2|0,0:3|0:0,0:0:0:0:
341,186,63081,1,0,0:0:0:0:
246,350,63198,1,0,0:0:0:0:
460,182,63315,6,0,B|292:148|292:148|350:194,1,233.999992858887,2|0,0:0|0:0,0:0:0:0:
69,183,63784,2,0,P|61:153|76:96,1,77.999997619629,2|0,0:3|0:0,0:0:0:0:
246,350,64018,2,0,P|216:358|159:343,1,77.999997619629,0|0,0:0|0:0,0:0:0:0:
293,149,64253,6,0,B|303:96|296:61|296:61|335:2|381:9|390:55|372:86|330:70,1,233.999992858887,2|0,0:0|0:0,0:0:0:0:
103,291,64721,2,0,P|73:265|52:212,1,77.999997619629,2|0,0:3|0:0,0:0:0:0:
71,82,64956,1,2,0:0:0:0:
207,25,65073,1,0,0:0:0:0:
348,73,65190,6,0,P|356:120|346:161,1,77.999997619629,0|0,0:0|0:0,0:0:0:0:
228,322,65424,2,0,P|264:291|305:279,1,77.999997619629,2|0,0:0|0:0,0:0:0:0:
492,297,65659,2,0,P|447:280|416:251,1,77.999997619629,2|0,0:3|0:0,0:0:0:0:
338,58,65893,2,0,P|346:105|336:146,1,77.999997619629,2|0,0:0|0:0,0:0:0:0:
167,228,66128,6,0,L|87:232,1,77.999997619629,4|0,0:0|0:0,0:0:0:0:
260,62,66362,2,0,L|339:57,1,77.999997619629,2|0,0:0|0:0,0:0:0:0:
153,128,66596,6,0,L|73:132,1,77.999997619629,2|0,0:3|0:0,0:0:0:0:
7,256,66831,1,0,0:0:0:0:
11,276,66948,1,0,0:0:0:0:
244,223,67065,6,0,L|164:227,1,77.999997619629,2|0,0:0|0:0,0:0:0:0:
98,351,67300,1,0,0:0:0:0:
102,371,67417,1,0,0:0:0:0:
244,223,67534,6,0,P|313:239|282:298,1,155.999995239258,2|2,0:3|0:0,0:0:0:0:
372,79,68003,6,0,L|274:94,1,97.50000371933,4|0,0:3|0:0,0:0:0:0:
188,311,68237,2,0,L|286:296,1,97.50000371933,0|0,0:0|0:0,0:0:0:0:
64,216,68471,5,2,1:3:0:0:
155,141,68589,1,0,0:0:0:0:
265,182,68706,1,0,0:0:0:0:
284,297,68823,1,8,0:0:0:0:
393,338,68940,5,0,0:0:0:0:
483,263,69057,1,8,0:0:0:0:
464,146,69174,1,0,0:0:0:0:
353,104,69292,1,0,0:0:0:0:
265,182,69409,6,0,B|217:195|217:195|161:184,1,97.50000371933,0|0,1:0|0:0,0:0:0:0:
1,27,69643,2,0,B|49:14|49:14|105:25,1,97.50000371933,2|0,0:0|0:0,0:0:0:0:
272,345,69878,6,0,B|261:294|261:294|278:234|278:234|263:177,1,168.999992263794,4|2,0:3|0:0,0:0:0:0:
466,11,70346,2,0,B|455:62|455:62|472:122|472:122|457:179,1,168.999992263794,2|0,0:3|0:0,0:0:0:0:
353,104,70698,1,0,0:0:0:0:
155,165,70815,6,0,L|271:151,1,84.4999961318971,2|0,0:0|0:0,0:0:0:0:
452,308,71049,2,0,L|336:322,1,84.4999961318971,0|0,0:0|0:0,0:0:0:0:
135,182,71284,2,0,L|251:168,1,84.4999961318971,2|0,0:3|0:0,0:0:0:0:
432,325,71518,2,0,L|316:339,1,84.4999961318971,0|0,0:0|0:0,0:0:0:0:
258,52,71753,6,0,P|312:77|290:83,1,168.999992263794,2|0,0:0|0:0,0:0:0:0:
140,52,72104,1,0,0:0:0:0:
35,161,72221,1,2,0:3:0:0:
100,217,72338,1,2,0:0:0:0:
24,248,72456,1,8,0:0:0:0:
146,312,72573,1,0,0:0:0:0:
322,193,72690,6,0,P|281:183|241:193,1,84.4999961318971,2|0,0:0|0:0,0:0:0:0:
372,352,72924,2,0,L|473:339,1,84.4999961318971,0|0,0:0|0:0,0:0:0:0:
191,275,73159,2,0,P|180:315|190:356,1,84.4999961318971,2|0,3:0|3:0,0:0:0:0:
435,225,73393,2,0,L|422:124,1,84.4999961318971,0|0,0:0|0:0,0:0:0:0:
156,48,73628,6,0,L|143:149,1,84.4999961318971,2|0,0:0|0:0,0:0:0:0:
191,275,73862,1,0,0:0:0:0:
198,293,73979,1,0,0:0:0:0:
356,48,74096,6,0,L|369:149,1,84.4999961318971,2|0,0:3|0:0,0:0:0:0:
321,275,74330,1,0,0:0:0:0:
314,293,74447,1,0,0:0:0:0:
2,189,74565,6,0,B|34:192|91:167|91:167|142:195|142:195|191:168|263:182,1,253.499988395691,2|0,0:0|0:0,0:0:0:0:
89,293,75034,1,2,0:3:0:0:
2,189,75151,1,0,0:0:0:0:
53,64,75268,2,0,P|82:49|145:49,1,84.4999961318971,0|0,0:0|0:0,0:0:0:0:
409,194,75503,6,0,B|359:212|241:178|241:178|314:237,1,253.499988395691,4|0,0:0|0:0,0:0:0:0:
81,377,75971,2,0,L|90:275,1,84.4999961318971,2|0,0:3|0:0,0:0:0:0:
40,165,76206,1,0,0:0:0:0:
138,72,76323,1,0,0:0:0:0:
272,76,76440,6,0,L|379:72,1,84.4999961318971,2|0,0:0|0:0,0:0:0:0:
278,329,76674,2,0,L|193:332,1,84.4999961318971,0|0,0:0|0:0,0:0:0:0:
293,48,76909,2,0,L|400:44,1,84.4999961318971,2|0,0:3|0:0,0:0:0:0:
299,301,77143,2,0,L|214:304,1,84.4999961318971,0|0,0:0|0:0,0:0:0:0:
471,178,77378,6,0,P|472:247|400:201,1,168.999992263794,4|0,0:0|0:0,0:0:0:0:
337,127,77729,1,0,0:0:0:0:
214,304,77846,1,2,0:3:0:0:
222,185,77964,1,0,0:0:0:0:
103,177,78081,1,0,0:0:0:0:
95,296,78198,1,0,0:0:0:0:
234,297,78315,6,0,B|317:284|317:284|396:314|396:314|490:294,1,253.499988395691,2|0,0:0|0:0,0:0:0:0:
242,86,78784,2,0,P|252:134|248:200,1,84.4999961318971,2|0,0:3|0:0,0:0:0:0:
10,351,79018,2,0,P|0:303|4:237,1,84.4999961318971,2|0,0:0|0:0,0:0:0:0:
363,230,79253,6,0,P|326:262|267:292,1,84.4999961318971,2|0,0:0|0:0,0:0:0:0:
0,163,79487,2,0,P|36:130|95:100,1,84.4999961318971
155,307,79721,1,2,3:0:0:0:
225,240,79838,1,2,0:0:0:0:
251,336,79956,2,0,L|345:325,1,84.4999961318971,8|8,0:0|0:0,0:0:0:0:
416,210,80190,5,2,0:0:0:0:
464,336,80307,1,0,0:0:0:0:
506,188,80424,1,0,0:0:0:0:
477,309,80541,1,0,0:0:0:0:
424,105,80659,2,0,L|318:103,1,84.4999961318971,2|0,3:0|0:0,0:0:0:0:
132,231,80893,2,0,L|238:229,1,84.4999961318971,8|8,0:0|0:0,0:0:0:0:
6,165,81128,6,0,P|-14:248|73:365,1,233.999992858887,4|0,0:0|0:0,0:0:0:0:
308,277,81596,2,0,P|344:264|416:269,1,77.999997619629,2|0,0:3|0:0,0:0:0:0:
504,363,81831,1,0,0:0:0:0:
507,337,81948,1,0,0:0:0:0:
460,135,82065,6,0,P|489:159|520:224,1,77.999997619629,2|0,0:0|0:0,0:0:0:0:
483,347,82300,1,0,0:0:0:0:
507,337,82417,1,0,0:0:0:0:
383,261,82534,2,0,L|379:204,2,51.999998413086,2|0|0,0:3|0:0|0:0,0:0:0:0:
369,295,82768,2,0,L|250:284,1,77.999997619629,2|0,0:0|0:0,0:0:0:0:
37,87,83003,6,0,L|50:294,1,181.999994445801,6|0,0:0|0:0,0:0:0:0:
172,325,83354,1,0,0:0:0:0:
188,152,83471,1,2,0:3:0:0:
308,120,83589,1,0,0:0:0:0:
179,130,83706,1,0,0:0:0:0:
309,136,83824,1,8,0:0:0:0:
174,106,83940,5,8,0:0:0:0:
318,145,84058,1,0,0:0:0:0:
175,78,84174,1,2,0:0:0:0:
317,161,84292,1,0,0:0:0:0:
333,10,84409,6,0,L|462:4,1,90.9999972229005,2|0,0:0|0:0,0:0:0:0:
215,245,84643,2,0,L|124:249,1,90.9999972229005,4|0,0:0|0:0,0:0:0:0:
421,240,84878,6,0,P|446:303|427:380,1,130,6|0,0:0|0:0,0:0:0:0:
263,324,85229,2,0,L|327:310,1,65,2|0,0:0|0:0,0:0:0:0:
202,182,85464,2,0,L|257:216,1,65,2|0,0:0|0:0,0:0:0:0:
271,48,85698,2,0,L|285:111,1,65,2|0,0:0|0:0,0:0:0:0:
412,4,85932,2,0,L|377:59,1,65,2|0,0:0|0:0,0:0:0:0:
379,170,86167,1,0,0:0:0:0:
191,52,86284,5,2,0:3:0:0:
379,170,86518,1,2,0:0:0:0:
225,327,86753,5,2,0:0:0:0:
180,247,86870,1,0,0:0:0:0:
204,158,86987,1,2,0:0:0:0:
284,113,87104,1,2,0:0:0:0:
225,327,87339,5,0,0:0:0:0:
197,329,87456,5,2,0:0:0:0:
147,240,87573,1,0,0:0:0:0:
173,143,87690,1,2,0:0:0:0:
261,93,87807,1,2,0:0:0:0:
387,232,88042,5,0,0:0:0:0:
404,224,88159,2,0,L|476:218,1,65,2|0,0:3|0:0,0:0:0:0:
323,367,88393,2,0,L|395:361,1,65,0|0,0:0|0:0,0:0:0:0:
171,265,88628,6,0,P|106:213|110:161,1,130,2|0,0:0|0:0,0:0:0:0:
150,85,88979,1,0,0:0:0:0:
265,143,89096,1,2,0:3:0:0:
259,12,89214,1,0,0:0:0:0:
150,85,89331,1,0,0:0:0:0:
289,152,89448,6,0,P|322:146|376:145,1,65,2|0,0:0|0:0,0:0:0:0:
476,280,89682,2,0,P|443:286|389:287,1,65,2|0,0:0|0:0,0:0:0:0:
284,254,89917,1,0,0:0:0:0:
481,373,90034,2,0,P|448:379|394:380,1,65,2|0,0:3|0:0,0:0:0:0:
266,240,90268,2,0,P|260:207|259:153,1,65,8|0,0:0|0:0,0:0:0:0:
83,38,90503,6,0,P|89:71|90:125,1,65,2|0,0:0|0:0,0:0:0:0:
38,209,90737,1,0,0:0:0:0:
129,310,90854,2,0,P|97:323|62:320,1,65,8|0,0:0|0:0,0:0:0:0:
38,209,91088,2,0,P|70:196|105:199,1,65
302,253,91323,1,0,0:0:0:0:
291,190,91440,6,0,L|306:271,1,65,2|0,0:0|0:0,0:0:0:0:
473,61,91674,2,0,L|458:142,1,65,8|0,0:0|0:0,0:0:0:0:
330,215,91909,2,0,L|345:296,1,65,2|0,0:3|0:0,0:0:0:0:
512,86,92143,2,0,L|497:167,1,65,8|0,0:0|0:0,0:0:0:0:
289,63,92378,6,0,L|189:55,1,58.4999982147217,2|0,0:0|0:0,0:0:0:0:
143,94,92612,1,2,0:0:0:0:
108,180,92729,1,0,0:0:0:0:
143,267,92846,1,2,0:3:0:0:
230,302,92963,1,0,0:0:0:0:
316,267,93080,1,2,0:0:0:0:
352,180,93198,1,0,0:0:0:0:
316,94,93315,5,0,0:0:0:0:
242,151,93432,1,8,0:0:0:0:
229,243,93549,1,8,0:0:0:0:
286,318,93667,1,0,0:0:0:0:
379,330,93784,2,0,L|442:321,1,58.4999982147217,2|0,0:3|0:0,0:0:0:0:
504,143,94018,2,0,L|513:206,1,58.4999982147217,8|0,0:0|0:0,0:0:0:0:
316,94,94253,6,0,L|324:36,1,58.4999982147217,2|0,0:0|0:0,0:0:0:0:
295,205,94487,1,0,0:0:0:0:
109,65,94604,2,0,P|92:66|44:83,1,58.4999982147217,2|0,0:0|0:0,0:0:0:0:
310,184,94838,2,0,P|327:185|375:202,1,58.4999982147217,2|0,0:0|0:0,0:0:0:0:
76,301,95073,6,0,P|59:302|11:319,1,58.4999982147217,2|0,0:0|0:0,0:0:0:0:
345,348,95307,1,0,0:0:0:0:
409,280,95424,1,2,0:0:0:0:
366,197,95542,1,0,0:0:0:0:
449,154,95659,1,2,0:3:0:0:
492,237,95776,1,0,0:0:0:0:
342,186,95893,2,0,L|263:191,1,58.4999982147217,8|0,0:0|0:0,0:0:0:0:
76,301,96128,6,0,P|66:273|67:241,1,58.4999982147217,2|0,0:0|0:0,0:0:0:0:
293,293,96362,2,0,P|273:315|245:330,1,58.4999982147217,8|0,0:0|0:0,0:0:0:0:
187,102,96596,2,0,P|216:107|243:124,2,58.4999982147217,2|0|0,0:3|0:0|0:0,0:0:0:0:
184,239,96948,1,8,0:0:0:0:
363,161,97065,5,2,0:0:0:0:
187,102,97182,1,0,0:0:0:0:
298,244,97299,1,10,0:0:0:0:
345,45,97417,1,0,0:0:0:0:
432,230,97534,1,0,1:0:0:0:
337,24,97651,1,4,0:0:0:0:
290,263,97768,1,8,0:0:0:0:
493,131,97885,1,2,0:0:0:0:
187,102,98003,6,0,P|106:143|209:202,1,253.499988395691,14|0,0:2|0:0,0:0:0:0:
493,131,98471,2,0,P|440:137|399:127,1,84.4999961318971,8|0,0:0|0:0,0:0:0:0:
155,315,98706,2,0,P|208:309|249:319,1,84.4999961318971,0|0,0:0|0:0,0:0:0:0:
324,102,98940,5,2,0:0:0:0:
298,21,99058,1,2,0:0:0:0:
214,21,99175,1,2,0:0:0:0:
187,102,99292,1,2,0:0:0:0:
256,151,99409,2,0,L|262:223,1,65,8|0,0:0|0:0,0:0:0:0:
403,289,99643,2,0,L|409:217,1,65,8|0,0:0|0:0,0:0:0:0:
239,233,99878,6,0,P|199:225|204:311,1,130,4|0,0:0|0:0,0:0:0:0:
403,289,100229,1,0,0:0:0:0:
239,233,100346,2,0,L|230:74,1,130,8|0,0:0|0:0,0:0:0:0:
224,87,100815,6,0,L|308:89,1,65,2|0,0:0|0:0,0:0:0:0:
134,212,101049,2,0,L|50:214,1,65,0|0,0:0|0:0,0:0:0:0:
232,357,101284,1,8,0:0:0:0:
251,330,101401,1,0,0:0:0:0:
248,297,101518,2,0,L|239:228,1,65,0|0,0:0|0:0,0:0:0:0:
443,112,101753,6,0,P|440:185|342:159,1,195,2|0,0:0|0:0,0:0:0:0:
410,302,102221,2,0,L|426:206,1,65,8|0,0:0|0:0,0:0:0:0:
245,85,102456,2,0,L|261:181,1,65,0|0,0:0|0:0,0:0:0:0:
234,359,102690,5,2,0:0:0:0:
194,346,102807,1,0,0:0:0:0:
169,312,102924,1,2,0:0:0:0:
169,269,103041,1,0,0:0:0:0:
256,240,103159,5,8,0:0:0:0:
256,149,103276,1,0,0:0:0:0:
169,121,103393,1,2,0:0:0:0:
116,195,103510,2,0,L|82:192,1,32.5,0|0,0:0|0:0,0:0:0:0:
271,250,103628,6,0,B|322:256|322:256|374:238|374:238|428:248,1,155.999995239258,4|0,0:0|0:0,0:0:0:0:
256,240,103979,1,0,0:0:0:0:
387,71,104096,2,0,L|376:160,1,77.999997619629,8|0,0:0|0:0,0:0:0:0:
169,121,104331,2,0,L|158:210,1,77.999997619629,0|0,0:0|0:0,0:0:0:0:
247,357,104565,6,0,B|196:363|196:363|144:345|144:345|90:355,1,155.999995239258,2|0,0:0|0:0,0:0:0:0:
262,347,104916,1,0,0:0:0:0:
160,198,105034,1,8,0:0:0:0:
122,205,105151,1,2,0:0:0:0:
84,213,105268,2,0,L|163:227,1,77.999997619629,8|0,0:0|0:0,0:0:0:0:
371,91,105503,6,0,L|292:105,2,77.999997619629,2|0|2,0:0|0:0|0:0,0:0:0:0:
478,139,105854,1,0,0:0:0:0:
477,254,105971,2,0,P|469:293|449:326,1,77.999997619629,8|0,0:0|0:0,0:0:0:0:
264,274,106206,2,0,P|272:235|292:202,1,77.999997619629,2|0,0:0|0:0,0:0:0:0:
477,254,106440,6,0,L|461:370,1,97.50000371933,4|0,0:0|0:0,0:0:0:0:
355,308,106674,1,2,0:0:0:0:
341,314,106792,1,0,0:0:0:0:
259,205,106909,6,0,L|308:201,1,32.5,8|0,0:0|0:0,0:0:0:0:
93,295,107143,2,0,L|97:344,1,32.5,2|0,0:0|0:0,0:0:0:0:
89,22,107378,5,6,0:0:0:0:
