osu file format v14

[General]
AudioFilename: audio.mp3
AudioLeadIn: 0
PreviewTime: 9292
Countdown: 0
SampleSet: Soft
StackLeniency: 0.4
Mode: 0
LetterboxInBreaks: 0
WidescreenStoryboard: 0

[Editor]
Bookmarks: 9878,24878,39878,69878,84878,99878
DistanceSpacing: 1.6
BeatDivisor: 4
GridSize: 32
TimelineZoom: 1.1

[Metadata]
Title:Broken Moon
TitleUnicode:砕月
Artist:Akiyama Uni
ArtistUnicode:あきやまうに
Creator:sahuang
Version:Pata-Mon's Hyper
Source:東方Project
Tags:Binguo Akitoshi Pata-Mon Regou [Mahua] qq944364487 Corinn My Angel Azusa th10.5 fxt tasofro twilight frontier 黄昏フロンティア u2 zun scarlet weather rhapsody jun
BeatmapID:1397348
BeatmapSetID:643391

[Difficulty]
HPDrainRate:5
CircleSize:3.8
OverallDifficulty:6.5
ApproachRate:8
SliderMultiplier:2.04
SliderTickRate:1

[Events]
//Background and Video events
0,0,"touhou.jpg",0,0
//Break Periods
//Storyboard Layer 0 (Background)
//Storyboard Layer 1 (Fail)
//Storyboard Layer 2 (Pass)
//Storyboard Layer 3 (Foreground)
//Storyboard Sound Samples

[TimingPoints]
2378,468.75,4,2,9,70,1,0
8940,-80,4,2,9,70,0,0
9409,-100,4,2,9,70,0,0
9878,-117.647058823529,4,2,9,55,0,0
24174,-80,4,2,9,55,0,0
24878,-117.647058823529,4,2,9,55,0,0
38940,-80,4,2,9,55,0,0
39878,-100,4,2,9,70,0,1
54409,-80,4,2,9,70,0,0
54878,-100,4,2,9,70,0,1
69409,-80,4,2,9,70,0,1
69878,-100,4,2,9,70,0,0
81128,-100,4,2,9,60,0,0
82534,-80,4,2,9,60,0,0
83003,-100,4,2,9,60,0,0
92378,-117.647058823529,4,2,9,60,0,0
97534,-100,4,2,9,60,0,0
98003,-80,4,2,9,80,0,1
99409,-100,4,2,9,80,0,1
99878,-100,4,2,9,70,0,0
106440,-80,4,2,9,70,0,0
106909,-100,4,2,9,70,0,0

[Colours]
Combo1 : 206,130,94
Combo2 : 242,185,121
Combo3 : 224,206,234
Combo4 : 221,128,125

[HitObjects]
16,82,1440,6,0,L|90:78,3,51,2|2|2|2,0:0|0:0|0:0|0:0,0:0:0:0:
135,125,1909,2,0,L|209:121,3,51,2|2|2|2,0:0|0:0|0:0|0:0,0:0:0:0:
274,45,2378,6,0,P|268:116|282:272,1,204,6|8,0:0|0:0,0:0:0:0:
414,338,3081,1,2,0:0:0:0:
437,318,3198,1,2,0:0:0:0:
460,298,3315,2,0,L|514:296,2,51,2|0|0,0:0|0:0|0:0,0:0:0:0:
277,248,3784,2,0,P|228:251|163:261,1,102,8|0,0:0|0:0,0:0:0:0:
7,359,4253,6,0,P|22:233|18:143,1,204,2|8,0:0|0:0,0:0:0:0:
125,32,4956,1,2,0:0:0:0:
145,55,5073,1,2,0:0:0:0:
165,78,5190,2,0,L|167:132,2,51,2|0|0,0:0|0:0|0:0,0:0:0:0:
19,156,5659,1,8,0:0:0:0:
27,185,5776,1,2,0:0:0:0:
42,212,5893,1,2,0:0:0:0:
61,236,6010,1,2,0:0:0:0:
85,255,6128,6,0,P|128:246|212:244,1,102,2|0,0:0|0:0,0:0:0:0:
266,253,6479,1,2,0:0:0:0:
270,257,6596,1,8,0:0:0:0:
136,351,6831,1,2,0:0:0:0:
173,140,7065,2,0,P|173:77|160:13,1,102,2|0,0:0|0:0,0:0:0:0:
65,35,7417,2,0,L|209:40,1,102,2|0,0:0|0:0,0:0:0:0:
247,28,7768,1,2,0:0:0:0:
276,19,7885,1,2,0:0:0:0:
305,11,8003,6,0,L|373:13,2,51,2|2|2,0:0|0:0|0:0,0:0:0:0:
294,91,8354,2,0,P|333:107|435:102,1,102,2|2,0:0|0:0,0:0:0:0:
462,80,8706,1,2,0:0:0:0:
477,54,8823,1,2,0:0:0:0:
467,25,8940,6,0,P|407:69|434:205,1,191.250007295609,6|0,0:0|0:0,0:0:0:0:
411,280,9409,6,0,L|407:166,1,102,10|2,0:0|0:0,0:0:0:0:
236,58,9878,6,0,P|163:62|92:78,1,130.050002480507,6|0,0:0|0:0,0:0:0:0:
34,100,10346,1,8,0:0:0:0:
125,227,10581,1,2,0:0:0:0:
129,231,10698,1,2,0:0:0:0:
133,235,10815,2,0,L|194:235,1,43.3500008268356,2|0,0:0|0:0,0:0:0:0:
240,191,11049,2,0,L|301:191,1,43.3500008268356,2|0,0:0|0:0,0:0:0:0:
348,235,11284,2,0,P|389:241|465:221,1,86.7000016536713,8|0,0:0|0:0,0:0:0:0:
455,79,11753,6,0,P|390:69|326:79,1,130.050002480507,2|0,0:0|0:0,0:0:0:0:
253,105,12221,1,8,0:0:0:0:
99,75,12456,1,2,0:0:0:0:
95,79,12573,1,2,0:0:0:0:
91,83,12690,2,0,L|90:152,3,43.3500008268356,2|0|0|0,0:0|0:0|0:0|0:0,0:0:0:0:
88,204,13159,1,8,0:0:0:0:
253,105,13393,1,2,0:0:0:0:
14,40,13628,6,0,L|12:178,1,130.050002480507,2|0,0:0|0:0,0:0:0:0:
10,247,14096,1,8,0:0:0:0:
140,333,14331,1,2,0:0:0:0:
144,337,14448,1,2,0:0:0:0:
148,341,14565,2,0,L|205:337,1,43.3500008268356,2|0,0:0|0:0,0:0:0:0:
246,282,14799,2,0,L|246:250,2,28.9000005512238,2|2|2,0:0|0:0|0:0,0:0:0:0:
291,308,15034,2,0,P|326:311|395:308,1,86.7000016536713,8|0,0:0|0:0,0:0:0:0:
424,121,15503,6,0,P|422:205|430:262,1,130.050002480507,2|0,0:0|0:0,0:0:0:0:
454,324,15971,1,8,0:0:0:0:
343,213,16206,1,2,0:0:0:0:
339,209,16323,1,2,0:0:0:0:
335,205,16440,2,0,P|292:199|223:207,2,86.7000016536713,2|0|8,0:0|0:0|0:0,0:0:0:0:
489,180,17143,1,2,0:0:0:0:
493,176,17260,1,2,0:0:0:0:
497,172,17378,6,0,P|490:105|460:13,1,130.050002480507,2|0,0:0|0:0,0:0:0:0:
409,1,17846,1,8,0:0:0:0:
309,121,18081,1,2,0:0:0:0:
305,125,18198,1,2,0:0:0:0:
301,129,18315,2,0,L|240:129,1,43.3500008268356,2|0,0:0|0:0,0:0:0:0:
194,85,18549,2,0,L|133:85,1,43.3500008268356,2|0,0:0|0:0,0:0:0:0:
86,129,18784,1,8,0:0:0:0:
175,5,19018,1,2,0:0:0:0:
171,204,19253,6,0,P|174:271|190:337,1,130.050002480507,2|0,0:0|0:0,0:0:0:0:
251,378,19721,1,8,0:0:0:0:
106,321,19956,1,2,0:0:0:0:
251,378,20190,2,0,L|328:368,3,43.3500008268356,2|0|0|0,0:0|0:0|0:0|0:0,0:0:0:0:
372,381,20659,1,8,0:0:0:0:
481,270,20893,1,2,0:0:0:0:
330,230,21128,6,0,P|304:168|324:79,1,130.050002480507,2|0,0:0|0:0,0:0:0:0:
348,39,21596,1,8,0:0:0:0:
463,144,21831,1,2,0:0:0:0:
459,148,21948,1,2,0:0:0:0:
455,152,22065,2,0,L|394:152,1,43.3500008268356,2|0,0:0|0:0,0:0:0:0:
348,196,22299,2,0,L|287:196,1,43.3500008268356,2|0,0:0|0:0,0:0:0:0:
240,152,22534,2,0,L|179:152,2,43.3500008268356,8|0|0,0:0|0:0|0:0,0:0:0:0:
64,68,23003,6,0,P|54:110|53:181,1,86.7000016536713,2|0,0:0|0:0,0:0:0:0:
55,231,23354,1,2,0:0:0:0:
59,235,23471,1,8,0:0:0:0:
204,294,23706,1,2,0:0:0:0:
213,265,23823,1,2,0:0:0:0:
216,235,23940,1,2,0:0:0:0:
213,205,24057,1,2,0:0:0:0:
204,176,24174,6,0,P|290:190|334:228,1,127.5,6|0,0:0|0:0,0:0:0:0:
437,250,24526,6,0,P|351:236|307:198,1,127.5,6|0,0:0|0:0,0:0:0:0:
330,90,24878,6,0,P|278:78|171:78,1,130.050002480507,6|0,0:0|0:0,0:0:0:0:
125,91,25346,1,8,0:0:0:0:
73,233,25581,1,2,0:0:0:0:
77,237,25698,1,2,0:0:0:0:
81,241,25815,2,0,L|87:323,1,43.3500008268356,2|0,0:0|0:0,0:0:0:0:
159,311,26049,2,0,L|165:229,1,43.3500008268356,2|0,0:0|0:0,0:0:0:0:
228,225,26284,2,0,P|260:216|349:215,1,86.7000016536713,8|0,0:0|0:0,0:0:0:0:
456,285,26753,6,0,P|453:212|460:141,1,130.050002480507,2|0,0:0|0:0,0:0:0:0:
484,82,27221,1,8,0:0:0:0:
330,52,27456,1,2,0:0:0:0:
326,56,27573,1,2,0:0:0:0:
322,60,27690,2,0,L|321:129,3,43.3500008268356,2|0|0|0,0:0|0:0|0:0|0:0,0:0:0:0:
319,181,28159,1,8,0:0:0:0:
484,82,28393,1,2,0:0:0:0:
245,17,28628,6,0,L|243:155,1,130.050002480507,2|0,0:0|0:0,0:0:0:0:
241,224,29096,1,8,0:0:0:0:
136,340,29331,1,2,0:0:0:0:
132,344,29448,1,2,0:0:0:0:
128,348,29565,2,0,L|58:345,1,43.3500008268356,2|0,0:0|0:0,0:0:0:0:
28,292,29799,2,0,L|-7:293,2,28.9000005512238,2|2|2,0:0|0:0|0:0,0:0:0:0:
59,250,30034,2,0,P|63:209|61:144,1,86.7000016536713,8|0,0:0|0:0,0:0:0:0:
28,10,30503,6,0,P|95:16|182:14,1,130.050002480507,2|0,0:0|0:0,0:0:0:0:
234,3,30971,1,8,0:0:0:0:
380,57,31206,1,2,0:0:0:0:
384,61,31323,1,2,0:0:0:0:
388,65,31440,2,0,P|443:60|505:46,2,86.7000016536713,2|0|8,0:0|0:0|0:0,0:0:0:0:
234,3,32143,1,2,0:0:0:0:
230,7,32260,1,2,0:0:0:0:
226,11,32378,6,0,P|219:68|248:169,1,130.050002480507,2|0,0:0|0:0,0:0:0:0:
277,202,32846,1,8,0:0:0:0:
428,161,33081,1,2,0:0:0:0:
432,165,33198,1,2,0:0:0:0:
436,169,33315,2,0,L|436:230,1,43.3500008268356,2|0,0:0|0:0,0:0:0:0:
392,276,33549,2,0,L|392:337,1,43.3500008268356,2|0,0:0|0:0,0:0:0:0:
436,384,33784,1,8,0:0:0:0:
436,212,34018,1,2,0:0:0:0:
276,299,34253,6,0,P|214:308|119:304,1,130.050002480507,2|0,0:0|0:0,0:0:0:0:
70,289,34721,1,8,0:0:0:0:
129,144,34956,1,2,0:0:0:0:
70,289,35190,2,0,L|72:359,3,43.3500008268356,2|0|0|0,0:0|0:0|0:0|0:0,0:0:0:0:
147,308,35659,1,8,0:0:0:0:
59,179,35893,1,2,0:0:0:0:
156,56,36128,6,0,P|202:114|214:167,1,130.050002480507,2|0,0:0|0:0,0:0:0:0:
201,245,36596,1,8,0:0:0:0:
59,179,36831,1,2,0:0:0:0:
55,183,36948,1,2,0:0:0:0:
51,187,37065,2,0,L|57:265,1,43.3500008268356,2|0,0:0|0:0,0:0:0:0:
97,295,37299,2,0,L|91:373,1,43.3500008268356,2|0,0:0|0:0,0:0:0:0:
15,343,37534,2,0,L|21:265,2,43.3500008268356,8|0|0,0:0|0:0|0:0,0:0:0:0:
182,200,38003,5,2,0:0:0:0:
210,189,38120,2,0,L|332:197,1,86.7000016536713,8|0,0:0|0:0,0:0:0:0:
358,241,38471,2,0,L|480:249,1,86.7000016536713,8|0,0:0|0:0,0:0:0:0:
509,201,38823,1,0,0:0:0:0:
492,176,38940,6,0,P|442:253|496:336,1,191.25,6|0,0:0|0:0,0:0:0:0:
358,241,39409,6,0,P|290:232|209:238,1,127.5,6|0,0:0|0:0,0:0:0:0:
58,328,39878,6,0,P|72:263|57:171,1,153,6|0,0:0|0:0,0:0:0:0:
2,121,40346,2,0,P|36:30|115:24,1,102,8|0,0:0|0:0,0:0:0:0:
81,99,40698,1,2,0:0:0:0:
110,108,40815,2,0,L|173:108,2,51,2|0|0,0:0|0:0|0:0,0:0:0:0:
291,47,41284,1,8,0:0:0:0:
259,206,41518,1,2,0:0:0:0:
415,253,41753,6,0,L|407:140,1,102,2|0,0:0|0:0,0:0:0:0:
403,69,42104,1,2,0:0:0:0:
407,65,42221,1,8,0:0:0:0:
259,206,42456,1,2,0:0:0:0:
249,235,42573,1,2,0:0:0:0:
239,264,42690,2,0,L|245:333,3,51,2|0|0|0,0:0|0:0|0:0|0:0,0:0:0:0:
306,363,43159,2,0,P|339:362|395:341,1,51,8|0,0:0|0:0,0:0:0:0:
409,296,43393,2,0,P|442:297|498:318,1,51,2|0,0:0|0:0,0:0:0:0:
505,232,43628,6,0,P|508:178|495:79,1,153,2|0,0:0|0:0,0:0:0:0:
453,10,44096,2,0,L|329:17,1,102,8|0,0:0|0:0,0:0:0:0:
304,83,44448,1,2,0:0:0:0:
277,97,44565,2,0,L|215:93,2,51,2|0|0,0:0|0:0|0:0,0:0:0:0:
427,161,45034,1,8,0:0:0:0:
351,16,45268,1,2,0:0:0:0:
327,177,45503,6,0,P|320:229|325:309,1,102,2|0,0:0|0:0,0:0:0:0:
454,372,45971,2,0,L|519:375,2,34,10|2|2,0:0|0:0|0:0,0:0:0:0:
405,347,46206,2,0,L|316:357,1,51,2|0,0:0|0:0,0:0:0:0:
321,278,46440,2,0,P|274:266|178:262,1,102,2|0,0:0|0:0,0:0:0:0:
12,313,46909,1,8,0:0:0:0:
165,368,47143,1,2,0:0:0:0:
136,207,47378,6,0,P|138:145|175:33,1,153,2|0,0:0|0:0,0:0:0:0:
225,6,47846,1,8,0:0:0:0:
351,109,48081,1,2,0:0:0:0:
328,129,48198,1,2,0:0:0:0:
305,149,48315,2,0,L|224:149,2,51,2|0|0,0:0|0:0|0:0,0:0:0:0:
225,6,48784,1,8,0:0:0:0:
144,147,49018,1,2,0:0:0:0:
315,57,49253,6,0,P|394:124|377:207,1,153,2|0,0:0|0:0,0:0:0:0:
349,233,49721,2,0,L|268:233,2,51,8|0|0,0:0|0:0|0:0,0:0:0:0:
388,304,50073,1,2,0:0:0:0:
416,315,50190,2,0,L|497:315,2,51,2|0|0,0:0|0:0|0:0,0:0:0:0:
198,291,50659,1,8,0:0:0:0:
349,233,50893,1,2,0:0:0:0:
244,380,51128,6,0,P|162:381|46:363,1,153,2|0,0:0|0:0,0:0:0:0:
19,336,51596,1,8,0:0:0:0:
105,197,51831,1,2,0:0:0:0:
132,183,51948,1,2,0:0:0:0:
159,169,52065,2,0,P|185:169|225:179,1,51,2|0,0:0|0:0,0:0:0:0:
260,237,52299,2,0,P|286:236|326:227,1,51,2|0,0:0|0:0,0:0:0:0:
383,193,52534,2,0,L|513:191,1,102,8|0,0:0|0:0,0:0:0:0:
342,6,53003,5,2,0:0:0:0:
317,24,53120,2,0,L|187:26,1,102,2|0,0:0|0:0,0:0:0:0:
138,51,53471,2,0,L|268:49,1,102,2|0,0:0|0:0,0:0:0:0:
295,111,53823,1,2,0:0:0:0:
274,134,53940,2,0,L|209:135,1,51,2|0,0:0|0:0,0:0:0:0:
344,178,54174,2,0,L|409:177,1,51,2|0,0:0|0:0,0:0:0:0:
316,88,54409,6,0,L|318:218,1,127.5,6|0,0:0|0:0,0:0:0:0:
119,7,54878,6,0,P|196:1|283:31,1,153,6|0,0:0|0:0,0:0:0:0:
316,88,55346,2,0,L|318:218,1,102,8|0,0:0|0:0,0:0:0:0:
268,254,55698,1,2,0:0:0:0:
268,285,55815,2,0,L|269:350,2,51,2|0|0,0:0|0:0|0:0,0:0:0:0:
407,198,56284,1,8,0:0:0:0:
413,361,56518,1,2,0:0:0:0:
318,190,56753,6,0,P|267:179|195:204,1,102,2|0,0:0|0:0,0:0:0:0:
158,243,57104,1,2,0:0:0:0:
162,247,57221,1,8,0:0:0:0:
348,285,57456,1,2,0:0:0:0:
375,271,57573,1,2,0:0:0:0:
402,257,57690,2,0,L|415:180,3,51,2|0|0|0,0:0|0:0|0:0|0:0,0:0:0:0:
342,162,58159,2,0,L|329:85,1,51,8|0,0:0|0:0,0:0:0:0:
254,92,58393,2,0,L|217:23,1,51,2|0,0:0|0:0,0:0:0:0:
202,154,58628,6,0,P|186:217|210:318,1,153,2|0,0:0|0:0,0:0:0:0:
234,377,59096,2,0,P|175:379|100:377,1,102,8|0,0:0|0:0,0:0:0:0:
80,315,59448,1,2,0:0:0:0:
51,306,59565,2,0,L|-16:301,2,51,2|0|0,0:0|0:0|0:0,0:0:0:0:
183,208,60034,1,8,0:0:0:0:
80,81,60268,1,2,0:0:0:0:
259,13,60503,6,0,P|255:63|241:113,1,102,2|0,0:0|0:0,0:0:0:0:
105,201,60971,2,0,L|42:194,2,34,10|2|2,0:0|0:0|0:0,0:0:0:0:
144,240,61206,2,0,L|131:315,1,51,2|0,0:0|0:0,0:0:0:0:
122,370,61440,2,0,P|167:369|253:363,1,102,2|0,0:0|0:0,0:0:0:0:
391,239,61909,1,8,0:0:0:0:
317,384,62143,1,2,0:0:0:0:
228,247,62378,6,0,P|221:207|215:77,1,153,2|0,0:0|0:0,0:0:0:0:
231,15,62846,1,8,0:0:0:0:
384,96,63081,1,2,0:0:0:0:
368,122,63198,1,2,0:0:0:0:
352,148,63315,2,0,L|285:151,2,51,2|0|0,0:0|0:0|0:0,0:0:0:0:
231,15,63784,1,8,0:0:0:0:
77,67,64018,1,2,0:0:0:0:
181,253,64253,6,0,P|173:165|140:92,1,153,2|0,0:0|0:0,0:0:0:0:
77,67,64721,2,0,L|83:-8,2,51,8|0|0,0:0|0:0|0:0,0:0:0:0:
18,123,65073,1,2,0:0:0:0:
6,151,65190,2,0,L|12:226,2,51,2|0|0,0:0|0:0|0:0,0:0:0:0:
166,187,65659,1,8,0:0:0:0:
57,307,65893,1,2,0:0:0:0:
100,107,66128,6,0,P|167:98|267:105,1,153,2|0,0:0|0:0,0:0:0:0:
327,133,66596,1,8,0:0:0:0:
252,298,66831,1,2,0:0:0:0:
226,282,66948,1,2,0:0:0:0:
200,266,67065,2,0,L|197:199,1,51,2|0,0:0|0:0,0:0:0:0:
250,153,67299,2,0,L|253:86,1,51,2|0,0:0|0:0,0:0:0:0:
309,42,67534,2,0,P|359:36|410:38,1,102,8|0,0:0|0:0,0:0:0:0:
198,215,68003,5,2,0:0:0:0:
172,231,68120,2,0,L|55:215,1,102,2|0,0:0|0:0,0:0:0:0:
224,199,68471,2,0,L|233:318,1,102,2|0,0:0|0:0,0:0:0:0:
161,147,68823,1,2,0:0:0:0:
181,124,68940,2,0,L|239:117,1,51,2|0,0:0|0:0,0:0:0:0:
349,158,69174,2,0,L|291:165,1,51,2|0,0:0|0:0,0:0:0:0:
403,97,69409,6,0,L|396:242,1,127.5,6|0,0:0|0:0,0:0:0:0:
181,311,69878,6,0,L|188:166,1,102,6|0,0:0|0:0,0:0:0:0:
192,127,70229,1,2,0:0:0:0:
188,123,70346,1,8,0:0:0:0:
43,200,70581,1,2,0:0:0:0:
41,230,70698,1,2,0:0:0:0:
39,260,70815,2,0,L|48:323,2,51,2|0|0,0:0|0:0|0:0,0:0:0:0:
185,209,71284,1,8,0:0:0:0:
156,369,71518,1,2,0:0:0:0:
303,238,71753,6,0,L|296:93,1,102,2|0,0:0|0:0,0:0:0:0:
292,54,72104,1,2,0:0:0:0:
296,50,72221,1,8,0:0:0:0:
441,127,72456,1,2,0:0:0:0:
443,157,72573,1,2,0:0:0:0:
445,187,72690,2,0,L|436:250,2,51,2|0|0,0:0|0:0|0:0,0:0:0:0:
299,136,73159,1,8,0:0:0:0:
328,296,73393,1,2,0:0:0:0:
471,89,73628,6,0,L|331:96,1,102,2|0,0:0|0:0,0:0:0:0:
299,136,73979,1,2,0:0:0:0:
270,145,74096,2,0,L|130:138,1,102,8|0,0:0|0:0,0:0:0:0:
115,77,74448,1,2,0:0:0:0:
140,59,74565,2,0,L|210:55,2,51,2|0|0,0:0|0:0|0:0,0:0:0:0:
270,145,75034,1,10,0:0:0:0:
274,141,75151,1,2,0:0:0:0:
278,137,75268,1,2,0:0:0:0:
87,154,75503,6,0,P|88:234|99:327,1,153,2|0,0:0|0:0,0:0:0:0:
161,354,75971,2,0,P|211:343|299:341,1,102,8|0,0:0|0:0,0:0:0:0:
333,378,76323,1,2,0:0:0:0:
363,384,76440,2,0,P|401:380|440:368,2,51,2|0|0,0:0|0:0|0:0,0:0:0:0:
377,221,76909,2,0,P|427:222|514:229,1,102,8|0,0:0|0:0,0:0:0:0:
229,290,77378,6,0,P|221:208|227:106,1,153,2|0,0:0|0:0,0:0:0:0:
230,56,77846,1,8,0:0:0:0:
393,72,78081,1,2,0:0:0:0:
384,101,78198,1,2,0:0:0:0:
375,130,78315,2,0,L|321:175,2,51,2|0|0,0:0|0:0|0:0,0:0:0:0:
230,56,78784,1,8,0:0:0:0:
238,219,79018,1,2,0:0:0:0:
375,130,79253,6,0,P|428:114|515:118,1,102,2|0,0:0|0:0,0:0:0:0:
391,252,79721,2,0,L|339:247,2,34,10|2|2,0:0|0:0|0:0,0:0:0:0:
427,292,79956,2,0,P|425:324|402:372,1,51,2|0,0:0|0:0,0:0:0:0:
349,383,80190,2,0,L|297:378,2,51,2|0|0,0:0|0:0|0:0,0:0:0:0:
384,169,80659,1,8,0:0:0:0:
276,291,80893,1,2,0:0:0:0:
479,196,81128,6,0,P|473:113|463:60,1,102,2|0,0:0|0:0,0:0:0:0:
431,22,81479,1,2,0:0:0:0:
402,13,81596,2,0,L|347:15,2,51,8|0|0,0:0|0:0|0:0,0:0:0:0:
325,157,82065,2,0,L|270:155,2,51,2|0|0,0:0|0:0|0:0,0:0:0:0:
128,99,82534,6,0,P|131:171|136:246,1,127.5,6|0,0:0|0:0,0:0:0:0:
341,336,83003,6,0,P|351:287|349:218,1,102,6|0,0:0|0:0,0:0:0:0:
325,157,83354,1,2,0:0:0:0:
298,143,83471,2,0,L|225:149,2,51,2|0|0,0:0|0:0|0:0,0:0:0:0:
358,87,83823,2,0,P|397:127|394:193,1,102,10|0,0:0|0:0,0:0:0:0:
351,235,84174,1,2,0:0:0:0:
482,138,84409,1,10,0:0:0:0:
359,316,84643,1,6,0:0:0:0:
490,57,84878,6,0,P|437:49|352:48,1,102,6|2,0:0|0:0,0:0:0:0:
329,103,85229,2,0,P|276:110|191:112,1,102,2|2,0:0|0:0,0:0:0:0:
108,225,85698,2,0,P|160:232|246:234,2,102,2|2|2,0:0|0:0|0:0,0:0:0:0:
31,193,86284,2,0,P|24:245|22:331,1,102,2|2,0:0|0:0,0:0:0:0:
196,137,86753,6,0,P|170:135|145:132,2,51,2|2|2,0:0|0:0|0:0,0:0:0:0:
277,130,87104,2,0,P|284:182|286:268,1,102,2|2,0:0|0:0,0:0:0:0:
314,309,87456,2,0,P|340:307|365:304,1,51,2|2,0:0|0:0,0:0:0:0:
442,278,87690,1,2,0:0:0:0:
453,250,87807,2,0,P|460:198|462:112,1,102,2|2,0:0|0:0,0:0:0:0:
399,96,88159,2,0,P|373:94|348:91,2,51,2|2|2,0:0|0:0|0:0,0:0:0:0:
221,8,88628,6,0,P|170:10|119:17,1,102,2|2,0:0|0:0,0:0:0:0:
47,163,89096,1,2,0:0:0:0:
76,174,89213,2,0,P|128:181|214:183,2,102,2|2|2,0:0|0:0|0:0,0:0:0:0:
243,108,89917,1,2,0:0:0:0:
272,116,90034,1,2,0:0:0:0:
225,272,90268,1,2,0:0:0:0:
358,90,90503,6,0,P|410:83|496:81,1,102,2|2,0:0|0:0,0:0:0:0:
376,170,90854,2,0,P|325:167|274:160,1,102,2|2,0:0|0:0,0:0:0:0:
191,19,91323,2,0,P|140:22|89:29,1,102,2|2,0:0|0:0,0:0:0:0:
15,62,91674,1,2,0:0:0:0:
82,211,91909,2,0,P|89:263|91:349,1,102,8|0,0:0|0:0,0:0:0:0:
7,141,92378,6,0,P|57:134|103:132,1,86.7000016536713,2|0,0:0|0:0,0:0:0:0:
168,153,92729,1,2,0:0:0:0:
172,149,92846,2,0,L|184:72,3,43.3500008268356,2|0|0|0,0:0|0:0|0:0|0:0,0:0:0:0:
253,145,93315,2,0,L|265:222,3,43.3500008268356,2|0|0|0,0:0|0:0|0:0|0:0,0:0:0:0:
334,149,93784,2,0,L|346:72,3,43.3500008268356,2|0|0|0,0:0|0:0|0:0|0:0,0:0:0:0:
409,33,94253,6,0,L|433:187,1,86.7000016536713,2|2,0:0|0:0,0:0:0:0:
450,191,94604,2,0,L|474:37,1,86.7000016536713,2|2,0:0|0:0,0:0:0:0:
285,158,95073,2,0,L|309:312,1,86.7000016536713,2|2,0:0|0:0,0:0:0:0:
365,283,95424,1,2,0:0:0:0:
369,287,95542,1,2,0:0:0:0:
373,291,95659,2,0,L|361:368,2,43.3500008268356,2|2|2,0:0|0:0|0:0,0:0:0:0:
209,196,96128,6,0,L|221:273,3,43.3500008268356,2|0|0|0,0:0|0:0|0:0|0:0,0:0:0:0:
153,141,96596,2,0,L|165:64,3,43.3500008268356,2|0|0|0,0:0|0:0|0:0|0:0,0:0:0:0:
97,196,97065,2,0,L|109:273,3,43.3500008268356,2|0|0|0,0:0|0:0|0:0|0:0,0:0:0:0:
41,141,97534,5,8,0:0:0:0:
31,112,97651,2,0,P|36:64|82:0,1,102,6|0,0:0|0:0,0:0:0:0:
230,47,98003,6,0,P|265:127|189:169,1,191.25,6|0,0:0|0:0,0:0:0:0:
306,249,98471,6,0,P|341:169|265:127,1,191.25,6|0,0:0|0:0,0:0:0:0:
382,47,98940,5,2,0:0:0:0:
396,74,99057,2,0,P|387:144|341:169,1,127.5,6|0,0:0|0:0,0:0:0:0:
427,232,99409,6,0,P|453:234|483:243,3,51,2|0|0|0,0:0|0:0|0:0|0:0,0:0:0:0:
341,169,99878,6,0,P|239:184|95:168,1,204,6|8,0:0|0:0,0:0:0:0:
47,42,100581,1,2,0:0:0:0:
75,30,100698,1,2,0:0:0:0:
103,18,100815,2,0,L|165:23,2,51,2|0|0,0:0|0:0|0:0,0:0:0:0:
139,178,101284,2,0,L|267:169,1,102,8|0,0:0|0:0,0:0:0:0:
40,130,101753,6,0,P|40:224|58:353,1,204,2|8,0:0|0:0,0:0:0:0:
211,289,102456,1,2,0:0:0:0:
231,266,102573,1,2,0:0:0:0:
251,243,102690,2,0,L|253:189,2,51,2|0|0,0:0|0:0|0:0,0:0:0:0:
105,165,103159,1,8,0:0:0:0:
113,136,103276,1,2,0:0:0:0:
128,109,103393,1,2,0:0:0:0:
147,85,103510,1,2,0:0:0:0:
171,66,103628,6,0,P|231:66|298:77,1,102,2|0,0:0|0:0,0:0:0:0:
350,93,103979,1,2,0:0:0:0:
346,97,104096,1,8,0:0:0:0:
271,242,104331,1,2,0:0:0:0:
330,14,104565,2,0,P|390:14|457:25,1,102,2|0,0:0|0:0,0:0:0:0:
452,99,104917,2,0,P|392:99|325:88,1,102,2|0,0:0|0:0,0:0:0:0:
272,71,105268,1,2,0:0:0:0:
258,98,105385,1,2,0:0:0:0:
244,125,105503,6,0,L|248:193,2,51,2|2|2,0:0|0:0|0:0,0:0:0:0:
166,102,105854,2,0,P|159:152|160:203,1,102,2|2,0:0|0:0,0:0:0:0:
203,274,106206,1,2,0:0:0:0:
229,289,106323,1,2,0:0:0:0:
258,279,106440,6,0,P|214:219|78:246,1,191.250007295609,6|0,0:0|0:0,0:0:0:0:
3,224,106909,6,0,L|117:220,1,102,10|2,0:0|0:0,0:0:0:0:
260,47,107378,5,6,0:0:0:0:
