osu file format v14

[General]
AudioFilename: audio.mp3
AudioLeadIn: 0
PreviewTime: 9292
Countdown: 0
SampleSet: Soft
StackLeniency: 0.4
Mode: 0
LetterboxInBreaks: 0
WidescreenStoryboard: 0

[Editor]
DistanceSpacing: 1.5
BeatDivisor: 4
GridSize: 32
TimelineZoom: 1.6

[Metadata]
Title:Broken Moon
TitleUnicode:砕月
Artist:Akiyama Uni
ArtistUnicode:あきやまうに
Creator:sahuang
Version:Akitoshi's Hard
Source:東方Project
Tags:Binguo Akitoshi Pata-Mon Regou [Mahua] qq944364487 Corinn My Angel Azusa th10.5 fxt tasofro twilight frontier 黄昏フロンティア u2 zun scarlet weather rhapsody jun
BeatmapID:1398696
BeatmapSetID:643391

[Difficulty]
HPDrainRate:5
CircleSize:3.8
OverallDifficulty:5.5
ApproachRate:7
SliderMultiplier:1.5
SliderTickRate:1

[Events]
//Background and Video events
0,0,"touhou.jpg",0,0
//Break Periods
//Storyboard Layer 0 (Background)
//Storyboard Layer 1 (Fail)
//Storyboard Layer 2 (Pass)
//Storyboard Layer 3 (Foreground)
//Storyboard Sound Samples

[TimingPoints]
2378,468.75,4,2,9,70,1,0
6128,-100,4,2,9,70,0,0
8940,-100,4,2,9,70,0,0
9409,-100,4,2,9,70,0,0
9878,-111.111111111111,4,2,9,55,0,0
24174,-100,4,2,9,55,0,0
24878,-111.111111111111,4,2,9,55,0,0
38940,-100,4,2,9,55,0,0
39174,-100,4,2,9,55,0,0
39878,-90.9090909090909,4,2,9,70,0,1
45503,-90.9090909090909,4,2,9,70,0,1
47378,-90.9090909090909,4,2,9,70,0,1
53940,-90.9090909090909,4,2,9,70,0,0
54878,-90.9090909090909,4,2,9,70,0,1
60503,-90.9090909090909,4,2,9,70,0,1
62378,-90.9090909090909,4,2,9,70,0,1
68003,-90.9090909090909,4,2,9,70,0,1
69878,-100,4,2,9,70,0,0
81128,-100,4,2,9,60,0,0
83003,-100,4,2,9,60,0,0
84878,-100,4,2,9,60,0,0
92378,-100,4,2,9,60,0,0
98003,-90.9090909090909,4,2,9,80,0,1
99409,-90.9090909090909,4,2,9,80,0,1
99878,-100,4,2,9,70,0,0
103628,-100,4,2,9,70,0,0
106440,-100,4,2,9,70,0,0
106909,-100,4,2,9,70,0,0
107143,-100,4,2,9,70,0,0

[Colours]
Combo1 : 206,130,94
Combo2 : 242,185,121
Combo3 : 224,206,234
Combo4 : 221,128,125

[HitObjects]
67,72,1440,6,0,L|57:134,3,37.5,4|0|0|0,0:0|0:0|0:0|0:0,0:0:0:0:
40,131,1909,2,0,L|50:193,3,37.5,8|4|0|0,0:0|0:0|0:0|0:0,0:0:0:0:
63,193,2378,6,0,L|199:175,1,112.5,4|0,0:0|0:0,0:0:0:0:
188,152,2846,2,0,L|263:162,1,75,8|0,0:0|0:0,0:0:0:0:
357,182,3315,2,0,P|377:240|363:308,1,112.5,2|0,0:0|0:0,0:0:0:0:
363,319,3784,2,0,L|458:330,1,75,8|0,0:0|0:0,0:0:0:0:
497,250,4253,6,0,L|485:102,1,112.5,4|0,0:0|0:0,0:0:0:0:
486,107,4721,2,0,P|432:103|402:92,1,75,8|0,0:0|0:0,0:0:0:0:
329,44,5190,1,2,0:0:0:0:
234,67,5424,1,2,0:0:0:0:
197,157,5659,1,8,0:0:0:0:
258,237,5893,1,2,0:0:0:0:
258,237,6010,1,0,0:0:0:0:
258,237,6128,6,0,L|241:368,1,112.5,4|0,0:0|0:0,0:0:0:0:
217,363,6596,2,0,P|183:369|130:366,1,75,8|0,0:0|0:0,0:0:0:0:
52,331,7065,2,0,L|35:200,1,112.5,2|0,0:0|0:0,0:0:0:0:
10,206,7534,2,0,L|21:118,1,75,8|0,0:0|0:0,0:0:0:0:
88,62,8003,6,0,P|129:78|177:75,1,75,2|2,0:0|0:0,0:0:0:0:
186,65,8354,2,0,P|227:49|275:52,1,75
286,56,8706,1,2,0:0:0:0:
395,158,8940,5,4,0:0:0:0:
221,248,9409,1,8,0:0:0:0:
135,294,9643,1,2,0:0:0:0:
218,339,9878,6,0,L|381:327,1,134.999995880127,6|0,0:0|1:0,0:0:0:0:
440,321,10581,1,0,0:0:0:0:
493,252,10815,2,0,P|496:215|486:177,1,67.4999979400635,2|0,0:0|0:0,0:0:0:0:
407,153,11284,2,0,P|404:116|414:78,1,67.4999979400635,0|0,1:0|0:0,0:0:0:0:
477,29,11753,6,0,P|432:46|330:24,1,134.999995880127,2|0,0:0|1:0,0:0:0:0:
263,8,12456,1,0,0:0:0:0:
198,67,12690,2,0,L|211:209,1,134.999995880127,2|0,0:0|1:0,0:0:0:0:
217,289,13393,1,0,0:0:0:0:
150,346,13628,6,0,P|108:350|33:284,1,134.999995880127,2|0,0:0|1:0,0:0:0:0:
15,211,14331,1,0,0:0:0:0:
67,141,14565,2,0,L|156:147,1,67.4999979400635,2|0,0:0|0:0,0:0:0:0:
158,158,14917,1,0,0:0:0:0:
180,172,15034,2,0,L|269:166,1,67.4999979400635,0|0,1:0|0:0,0:0:0:0:
316,112,15503,6,0,P|299:161|324:247,1,134.999995880127,2|0,0:0|1:0,0:0:0:0:
414,257,16206,1,0,0:0:0:0:
414,257,16323,1,0,0:0:0:0:
414,257,16440,2,0,P|436:206|431:155,1,101.249996910095,2|0,0:0|0:0,0:0:0:0:
418,138,16909,2,0,L|423:58,1,67.4999979400635,8|0,0:0|0:0,0:0:0:0:
355,13,17378,6,0,P|303:36|212:25,1,134.999995880127,4|0,0:0|1:0,0:0:0:0:
140,12,18081,1,0,0:0:0:0:
96,88,18315,2,0,L|87:174,1,67.4999979400635,2|0,0:0|0:0,0:0:0:0:
18,208,18784,2,0,L|27:294,1,67.4999979400635,0|0,1:0|0:0,0:0:0:0:
107,308,19253,6,0,P|153:275|255:280,1,134.999995880127,2|0,0:0|1:0,0:0:0:0:
303,317,19956,1,0,0:0:0:0:
353,245,20190,2,0,L|340:104,1,134.999995880127,2|0,0:0|1:0,0:0:0:0:
381,32,20893,1,0,0:0:0:0:
459,71,21128,6,0,P|497:116|494:202,1,134.999995880127,4|0,0:0|1:0,0:0:0:0:
466,270,21831,1,0,0:0:0:0:
379,253,22065,2,0,L|295:262,1,67.4999979400635,2|0,0:0|0:0,0:0:0:0:
243,315,22534,2,0,L|159:306,1,67.4999979400635,0|0,1:0|0:0,0:0:0:0:
91,284,23003,6,0,P|84:233|72:165,1,101.249996910095,2|0,0:0|0:0,0:0:0:0:
70,157,23471,1,0,1:0:0:0:
108,82,23706,1,8,0:0:0:0:
108,82,23823,1,0,0:0:0:0:
108,82,23940,1,0,0:0:0:0:
196,41,24174,2,0,P|233:32|285:40,1,75,4|0,0:0|0:0,0:0:0:0:
313,55,24526,2,0,P|350:46|402:54,1,75,4|0,0:0|0:0,0:0:0:0:
425,70,24878,6,0,L|415:210,1,134.999995880127,6|0,0:0|1:0,0:0:0:0:
345,257,25581,1,0,0:0:0:0:
261,229,25815,2,0,L|185:238,1,67.4999979400635,2|0,0:0|0:0,0:0:0:0:
162,154,26284,2,0,L|86:145,1,67.4999979400635,0|0,1:0|0:0,0:0:0:0:
26,90,26753,6,0,P|50:144|39:227,1,134.999995880127,2|0,0:0|1:0,0:0:0:0:
7,298,27456,1,0,0:0:0:0:
72,356,27690,2,0,L|232:342,1,134.999995880127,2|0,0:0|1:0,0:0:0:0:
276,290,28393,1,0,0:0:0:0:
248,206,28628,6,0,P|241:125|276:62,1,134.999995880127,2|0,0:0|1:0,0:0:0:0:
334,27,29331,1,0,0:0:0:0:
416,55,29565,2,0,L|425:132,1,67.4999979400635,2|0,0:0|0:0,0:0:0:0:
444,139,29917,1,0,0:0:0:0:
464,156,30034,2,0,L|455:233,1,67.4999979400635,0|0,1:0|0:0,0:0:0:0:
428,306,30503,6,0,P|366:323|294:295,1,134.999995880127,2|0,0:0|1:0,0:0:0:0:
239,238,31206,1,0,0:0:0:0:
239,238,31323,1,0,0:0:0:0:
239,238,31440,2,0,P|187:252|128:228,1,101.249996910095,2|0,0:0|0:0,0:0:0:0:
122,221,31909,2,0,L|125:141,1,67.4999979400635,0|2,1:0|0:0,0:0:0:0:
188,92,32378,6,0,P|96:112|38:85,1,134.999995880127,4|0,0:0|1:0,0:0:0:0:
1,165,33081,1,0,0:0:0:0:
40,243,33315,2,0,L|49:329,1,67.4999979400635,2|0,0:0|0:0,0:0:0:0:
135,306,33784,2,0,L|142:238,1,67.4999979400635,0|2,1:0|0:0,0:0:0:0:
223,205,34253,6,0,B|271:218|271:218|379:207,1,134.999995880127,2|0,0:0|1:0,0:0:0:0:
413,143,34956,1,0,0:0:0:0:
377,62,35190,2,0,P|311:40|227:63,1,134.999995880127,2|0,0:0|1:0,0:0:0:0:
176,102,35893,1,2,0:0:0:0:
131,178,36128,6,0,L|141:335,1,134.999995880127,2|0,0:0|1:0,0:0:0:0:
207,368,36831,1,0,0:0:0:0:
275,312,37065,2,0,P|308:304|371:315,1,67.4999979400635,2|0,0:0|0:0,0:0:0:0:
401,241,37534,2,0,P|434:249|497:238,1,67.4999979400635,0|0,1:0|0:0,0:0:0:0:
503,167,38003,5,8,0:2:0:0:
503,167,38120,2,0,L|496:84,1,67.4999979400635,0|8,0:0|0:0,0:0:0:0:
476,82,38471,2,0,P|432:79|406:72,1,67.4999979400635,8|8,0:0|0:0,0:0:0:0:
292,21,38940,6,0,B|261:69|261:69|280:127,1,112.5,4|0,3:0|0:0,0:0:0:0:
294,167,39409,2,0,P|240:176|214:191,1,75,6|2,0:3|0:0,0:0:0:0:
112,242,39878,6,0,B|118:153|118:153|79:118,1,123.75000377655,4|0,0:2|0:0,0:0:0:0:
61,117,40346,2,0,L|73:33,1,82.5000025177003,2|2,0:3|0:0,0:0:0:0:
178,16,40815,2,0,P|223:49|313:36,1,123.75000377655,2|0,0:0|0:0,0:0:0:0:
317,32,41284,2,0,L|316:126,1,82.5000025177003,2|0,0:3|0:0,0:0:0:0:
321,238,41753,5,0,0:0:0:0:
415,188,41987,1,0,0:0:0:0:
415,188,42104,1,0,0:0:0:0:
415,188,42221,2,0,P|455:180|510:194,1,82.5000025177003,2|0,0:3|0:0,0:0:0:0:
492,294,42690,2,0,P|452:302|397:288,1,82.5000025177003,2|0,0:0|0:0,0:0:0:0:
321,238,43159,1,2,0:3:0:0:
262,327,43393,1,2,0:0:0:0:
213,230,43628,6,0,B|130:220|130:220|64:236,1,123.75000377655,4|0,0:0|0:0,0:0:0:0:
61,243,44096,2,0,P|60:197|40:143,1,82.5000025177003,2|0,0:3|0:0,0:0:0:0:
31,56,44565,2,0,P|93:64|174:36,1,123.75000377655,2|0,0:0|0:0,0:0:0:0:
175,25,45034,2,0,L|266:35,1,82.5000025177003,2|0,0:3|0:0,0:0:0:0:
380,42,45503,5,2,0:0:0:0:
298,155,45737,1,2,0:0:0:0:
437,150,45971,2,0,L|480:142,3,27.5000008392334,2|0|0|0,0:3|0:0|0:0|0:0,0:0:0:0:
411,275,46440,2,0,L|330:262,1,82.5000025177003,2|0,0:0|0:0,0:0:0:0:
191,237,46909,1,2,0:3:0:0:
283,131,47143,1,2,0:0:0:0:
330,262,47378,6,0,P|309:340|269:368,1,123.75000377655,4|0,0:0|0:0,0:0:0:0:
247,377,47846,2,0,L|142:365,1,82.5000025177003,2|0,0:3|0:0,0:0:0:0:
103,277,48315,2,0,B|87:236|87:236|102:140,1,123.75000377655,2|0,0:0|0:0,0:0:0:0:
122,132,48784,2,0,P|161:138|202:124,1,82.5000025177003,2|0,0:3|0:0,0:0:0:0:
279,49,49253,6,0,L|370:59,1,82.5000025177003,2|0,0:0|0:0,0:0:0:0:
448,119,49721,2,0,L|499:110,2,41.2500012588501,2|0|2,0:3|0:0|0:0,0:0:0:0:
404,217,50190,1,0,0:0:0:0:
306,172,50424,2,0,P|262:161|222:164,1,82.5000025177003,2|2,0:0|0:3,0:0:0:0:
119,180,50893,1,0,0:0:0:0:
97,287,51128,6,0,L|224:299,1,123.75000377655,4|0,0:0|0:0,0:0:0:0:
242,322,51596,2,0,L|344:312,1,82.5000025177003,2|0,0:3|0:0,0:0:0:0:
430,298,52065,1,0,0:0:0:0:
362,214,52299,1,2,0:0:0:0:
468,198,52534,2,0,P|472:148|463:113,1,82.5000025177003,2|0,0:3|0:0,0:0:0:0:
363,79,53003,6,0,P|313:93|220:27,1,165.000005035401,2|2,0:0|0:3,0:0:0:0:
116,46,53706,1,0,0:0:0:0:
116,46,53823,1,0,0:0:0:0:
116,46,53940,2,0,L|109:112,3,41.2500012588501,2|0|0|0,0:0|0:0|0:0|0:0,0:0:0:0:
68,118,54409,2,0,L|78:216,1,82.5000025177003,2|2,0:3|0:0,0:0:0:0:
156,271,54878,6,0,P|209:243|295:252,1,123.75000377655,4|0,0:2|0:0,0:0:0:0:
299,260,55346,2,0,L|307:172,1,82.5000025177003,2|0,0:3|0:0,0:0:0:0:
338,75,55815,2,0,B|379:100|379:100|462:83,1,123.75000377655,2|0,0:0|0:0,0:0:0:0:
483,72,56284,2,0,L|491:160,1,82.5000025177003,2|0,0:3|0:0,0:0:0:0:
499,261,56753,5,2,0:0:0:0:
399,220,56987,1,0,0:0:0:0:
399,220,57104,1,0,0:0:0:0:
399,220,57221,2,0,P|344:221|312:236,1,82.5000025177003,2|0,0:3|0:0,0:0:0:0:
239,303,57690,2,0,P|184:302|152:287,1,82.5000025177003,2|0,0:0|0:0,0:0:0:0:
69,232,58159,1,2,0:3:0:0:
164,184,58393,1,2,0:0:0:0:
73,126,58628,6,0,B|61:49|61:49|97:8,1,123.75000377655,4|0,0:0|0:0,0:0:0:0:
123,22,59096,2,0,P|172:37|210:33,1,82.5000025177003,2|2,0:3|0:0,0:0:0:0:
309,21,59565,2,0,P|334:73|323:148,1,123.75000377655,4|0,0:0|0:0,0:0:0:0:
307,163,60034,2,0,L|321:264,1,82.5000025177003,2|0,0:3|0:0,0:0:0:0:
452,202,60503,5,2,0:0:0:0:
327,137,60737,1,2,0:0:0:0:
449,68,60971,2,0,L|446:16,3,27.5000008392334,2|0|0|0,0:3|0:0|0:0|0:0,0:0:0:0:
308,29,61440,2,0,P|253:42|203:35,1,82.5000025177003,2|0,0:0|0:0,0:0:0:0:
89,13,61909,1,8,0:0:0:0:
174,124,62143,1,2,0:0:0:0:
35,100,62378,6,0,B|25:144|25:144|38:172|38:172|28:239,1,123.75000377655,4|0,0:0|0:0,0:0:0:0:
13,247,62846,2,0,L|18:359,1,82.5000025177003,2|0,0:3|0:0,0:0:0:0:
124,348,63315,2,0,P|180:319|248:337,1,123.75000377655,2|0,0:0|0:0,0:0:0:0:
267,343,63784,2,0,L|273:247,1,82.5000025177003,2|0,0:3|0:0,0:0:0:0:
320,164,64253,6,0,P|365:176|418:162,1,82.5000025177003,2|0,0:0|0:0,0:0:0:0:
470,88,64721,2,0,L|464:30,2,41.2500012588501,2|0|2,0:3|0:0|0:0,0:0:0:0:
507,188,65190,2,0,L|498:284,1,82.5000025177003,0|2,0:0|0:0,0:0:0:0:
426,348,65659,1,2,0:3:0:0:
319,362,65893,1,2,0:0:0:0:
229,302,66128,6,0,P|180:287|89:305,1,123.75000377655,4|0,0:0|0:0,0:0:0:0:
79,309,66596,2,0,P|68:269|63:215,1,82.5000025177003,2|0,0:3|0:0,0:0:0:0:
76,88,67065,1,2,0:0:0:0:
171,189,67299,1,0,0:0:0:0:
219,56,67534,2,0,P|269:63|313:45,1,82.5000025177003,2|2,0:3|0:0,0:0:0:0:
436,23,68003,6,0,P|362:32|383:174,1,247.500007553101,4|0,0:3|0:0,0:0:0:0:
480,189,68940,2,0,L|485:241,3,41.2500012588501,0|8|0|0,0:0|0:0|0:0|0:0,0:0:0:0:
500,281,69409,2,0,P|454:298|398:293,1,82.5000025177003,0|2,1:0|0:0,0:0:0:0:
334,252,69878,5,4,0:3:0:0:
264,358,70112,1,2,0:0:0:0:
225,237,70346,1,2,0:3:0:0:
155,342,70580,1,0,0:0:0:0:
110,222,70815,2,0,L|98:116,1,75,2|0,0:0|0:0,0:0:0:0:
9,113,71284,2,0,L|0:187,1,75,2|0,0:3|0:0,0:0:0:0:
7,285,71753,5,2,0:0:0:0:
85,342,71987,1,0,0:0:0:0:
182,327,72221,2,0,L|238:331,2,37.5,2|0|8,0:3|0:0|0:0,0:0:0:0:
148,234,72690,2,0,P|143:193|156:140,1,75,2|0,0:0|0:0,0:0:0:0:
213,85,73159,1,2,3:0:0:0:
246,176,73393,1,0,0:0:0:0:
318,89,73628,6,0,L|402:94,1,75,2|0,0:0|0:0,0:0:0:0:
498,130,74096,1,2,0:3:0:0:
511,241,74331,1,0,0:0:0:0:
447,333,74565,2,0,P|408:342|366:335,1,75,2|0,0:0|0:0,0:0:0:0:
316,240,75034,2,0,L|321:200,2,37.5,2|0|0,0:3|0:0|0:0,0:0:0:0:
243,326,75503,6,0,P|204:317|115:337,1,112.5,4|0,0:0|0:0,0:0:0:0:
106,341,75971,1,2,0:3:0:0:
7,286,76206,1,0,0:0:0:0:
60,187,76440,2,0,L|52:59,1,112.5,2|0,0:0|0:0,0:0:0:0:
48,44,76909,2,0,P|83:45|130:21,1,75,2|0,0:3|0:0,0:0:0:0:
232,31,77378,6,0,P|292:63|388:45,1,150,4|2,0:0|0:3,0:0:0:0:
491,9,78081,1,0,0:0:0:0:
510,134,78315,2,0,B|497:292,1,150,2|2,0:0|0:3,0:0:0:0:
420,365,79018,1,2,0:0:0:0:
346,280,79253,6,0,L|255:284,1,75,2|0,0:0|0:0,0:0:0:0:
194,223,79721,1,2,3:0:0:0:
109,272,79956,1,10,0:0:0:0:
79,179,80190,2,0,P|73:140|87:88,1,75,2|0,0:0|0:0,0:0:0:0:
129,21,80659,1,2,3:0:0:0:
200,86,80893,1,8,0:0:0:0:
281,29,81128,6,0,P|298:78|283:139,1,112.5,4|0,0:0|0:0,0:0:0:0:
271,162,81596,2,0,L|286:238,1,75,2|0,0:3|0:0,0:0:0:0:
316,343,82065,1,2,0:0:0:0:
426,361,82299,1,0,0:0:0:0:
496,272,82534,2,0,P|512:222|505:154,1,112.5,2|0,0:3|0:0,0:0:0:0:
491,116,83003,6,0,B|445:131|401:109|401:109|337:114,1,150,6|2,0:0|0:3,0:0:0:0:
265,194,83706,1,0,0:0:0:0:
155,171,83940,2,0,L|110:177,2,37.5,8|0|2,0:0|0:0|0:0,0:0:0:0:
207,54,84409,1,2,0:0:0:0:
83,24,84643,1,4,0:0:0:0:
3,124,84878,6,0,L|14:228,1,75,6|0,0:0|0:0,0:0:0:0:
40,203,85229,2,0,L|29:307,1,75,2|2,0:0|0:0,0:0:0:0:
119,322,85698,2,0,P|157:331|211:317,2,75,2|2|0,0:0|0:0|0:0,0:0:0:0:
111,292,86284,2,0,L|122:208,1,75,2|2,0:3|0:0,0:0:0:0:
197,156,86753,6,0,L|191:111,2,37.5,2|0|2,0:0|0:0|0:0,0:0:0:0:
221,172,87104,2,0,P|269:180|357:147,1,112.5,2|2,0:0|0:0,0:0:0:0:
421,129,87690,1,2,0:0:0:0:
421,129,87807,2,0,L|430:223,1,75,2|0,0:0|0:0,0:0:0:0:
450,223,88159,2,0,L|441:317,1,75,2|0,0:3|0:0,0:0:0:0:
368,361,88628,5,2,0:0:0:0:
272,344,88862,1,0,0:0:0:0:
217,263,89096,2,0,P|176:255|139:260,1,75,2|0,0:3|0:0,0:0:0:0:
118,276,89448,2,0,L|125:358,2,75,2|2|0,0:0|0:0|0:0,0:0:0:0:
89,265,90034,2,0,P|70:228|68:184,1,75,2|8,0:3|0:0,0:0:0:0:
112,108,90503,6,0,P|154:118|193:109,1,75,2|0,0:0|0:0,0:0:0:0:
211,99,90854,2,0,P|253:109|292:100,1,75,8|0,0:0|0:0,0:0:0:0:
392,36,91323,2,0,P|440:75|455:148,1,112.5,0|8,0:0|0:0,0:0:0:0:
449,249,91909,1,2,0:3:0:0:
359,339,92143,1,8,0:0:0:0:
237,298,92378,6,0,L|131:308,1,75,2|2,0:0|0:0,0:0:0:0:
136,319,92729,1,0,0:0:0:0:
109,333,92846,2,0,L|3:323,1,75,2|2,0:3|0:0,0:0:0:0:
5,232,93315,2,0,L|10:182,3,37.5,0|8|8|0,0:0|0:0|0:0|0:0,0:0:0:0:
30,174,93784,2,0,L|25:124,3,37.5,2|0|8|0,0:3|0:0|0:0|0:0,0:0:0:0:
43,112,94253,6,0,P|92:119|168:82,1,112.5,2|2,0:0|0:0,0:0:0:0:
213,23,94838,1,2,0:0:0:0:
287,86,95073,2,0,L|379:80,1,75,2|0,0:0|0:0,0:0:0:0:
385,98,95424,1,2,0:0:0:0:
467,149,95659,2,0,P|475:192|462:241,1,75,2|8,0:3|0:0,0:0:0:0:
391,280,96128,6,0,L|346:275,3,37.5,2|0|8|0,0:0|0:0|0:0|0:0,0:0:0:0:
329,257,96596,2,0,L|284:262,3,37.5,2|0|0|8,0:3|0:0|0:0|0:0,0:0:0:0:
269,281,97065,2,0,L|173:266,1,75,2|10,0:0|0:0,0:0:0:0:
100,207,97534,1,0,1:0:0:0:
100,207,97651,2,0,P|91:160|98:116,1,75,4|2,0:0|0:0,0:0:0:0:
130,94,98003,6,0,B|173:111|173:111|265:93,1,123.75000377655,14|0,0:2|0:0,0:0:0:0:
301,85,98471,1,8,0:0:0:0:
419,160,98706,1,0,0:0:0:0:
336,276,98940,1,2,0:0:0:0:
336,276,99057,2,0,P|296:261|234:276,1,82.5000025177003,2|2,0:0|0:0,0:0:0:0:
210,292,99409,2,0,L|217:348,3,41.2500012588501,8|0|8|0,0:0|0:0|0:0|0:0,0:0:0:0:
225,380,99878,6,0,P|165:357|92:376,1,112.5,4|0,0:0|0:0,0:0:0:0:
88,367,100346,2,0,P|72:332|73:278,1,75,8|0,0:0|0:0,0:0:0:0:
88,200,100815,2,0,P|141:202|194:172,1,112.5,2|0,0:0|0:0,0:0:0:0:
206,147,101284,2,0,L|282:144,1,75,8|0,0:0|0:0,0:0:0:0:
378,141,101753,5,2,0:0:0:0:
460,214,101987,1,0,0:0:0:0:
460,214,102104,1,0,0:0:0:0:
460,214,102221,2,0,P|471:259|466:296,1,75,8|0,0:0|0:0,0:0:0:0:
396,353,102690,1,2,0:0:0:0:
299,368,102924,1,2,0:0:0:0:
213,320,103159,2,0,L|159:323,3,37.5,8|0|2|0,0:0|0:0|0:0|0:0,0:0:0:0:
132,345,103628,6,0,P|141:288|118:222,1,112.5,4|0,0:0|0:0,0:0:0:0:
99,222,104096,2,0,L|108:137,1,75,8|0,0:0|0:0,0:0:0:0:
184,87,104565,2,0,P|237:104|308:77,1,112.5,2|0,0:0|0:0,0:0:0:0:
314,72,105034,2,0,L|398:83,1,75,8|8,0:0|0:0,0:0:0:0:
448,158,105503,6,0,P|457:213|445:245,1,75,2|2,0:0|0:0,0:0:0:0:
423,238,105854,2,0,P|414:293|426:325,1,75,0|0,0:0|0:0,0:0:0:0:
437,334,106206,1,2,0:0:0:0:
289,305,106440,5,4,0:0:0:0:
448,158,106909,1,8,0:0:0:0:
354,130,107143,1,2,0:0:0:0:
413,267,107378,5,6,0:0:0:0:
