osu file format v14

[General]
AudioFilename: audio.mp3
AudioLeadIn: 0
PreviewTime: 68728
Countdown: 0
SampleSet: Normal
StackLeniency: 0.7
Mode: 1
LetterboxInBreaks: 0
WidescreenStoryboard: 1

[Editor]
DistanceSpacing: 0.8
BeatDivisor: 4
GridSize: 16
TimelineZoom: 1.5

[Metadata]
Title:Azakeri no Yuugi
TitleUnicode:嘲りの遊戯
Artist:Akiyama Uni
ArtistUnicode:あきやまうに
Creator:CallMeLyra
Version:Oni
Source:東方緋想天 ~ Scarlet Weather Rhapsody
Tags:ridiculous game th10.5 th12.3 heavenly moon ginjani 東方非想天則 ~ 超弩級ギニョルの謎を追え. Touhou Hisoutensoku ~ Choudokyuu Ginyoru no Nazo wo Oe Unperceiving Unthinkable of Natural Law ~ Chase the Enigma of the Gargantuan Guignol 黄昏フロンティア Twilight Frontier Tasofro Youkai no Yama Mountain 妖怪の山 Aya Shameimaru 射命丸文 Video Game Instrumental U2 Hisouten 上海アリス幻楽団 東方project ZUN team shanghai alice trumpet accordion flamenco
BeatmapID:3037121
BeatmapSetID:1478335

[Difficulty]
HPDrainRate:5.5
CircleSize:5
OverallDifficulty:5.5
ApproachRate:5
SliderMultiplier:1.4
SliderTickRate:1

[Events]
//Background and Video events
0,0,"Youkai Mountain.jpg",0,80
//Break Periods
//Storyboard Layer 0 (Background)
//Storyboard Layer 1 (Fail)
//Storyboard Layer 2 (Pass)
//Storyboard Layer 3 (Foreground)
//Storyboard Layer 4 (Overlay)
//Storyboard Sound Samples

[TimingPoints]
1052,468.75,4,1,0,70,1,0
67204,-98.0392156862745,4,1,0,70,0,0
67321,-97.0873786407767,4,1,0,70,0,0
67438,-96.1538461538461,4,1,0,70,0,0
67555,-95.2380952380952,4,1,0,70,0,0
67673,-94.3396226415094,4,1,0,70,0,0
67907,-89.2857142857143,4,1,0,70,0,0
68552,-100,4,1,0,70,0,1
82204,-98.0392156862745,4,1,0,70,0,1
82321,-97.0873786407767,4,1,0,70,0,1
82438,-96.1538461538461,4,1,0,70,0,1
82555,-95.2380952380952,4,1,0,70,0,1
82673,-94.3396226415094,4,1,0,70,0,1
82966,-89.2857142857143,4,1,0,70,0,0
83552,-100,4,1,0,70,0,0

[HitObjects]
256,192,1052,5,8,0:0:0:0:
256,192,1403,1,0,0:0:0:0:
256,192,1637,1,0,0:0:0:0:
256,192,1872,1,0,0:0:0:0:
256,192,1989,1,8,0:0:0:0:
256,192,2106,1,0,0:0:0:0:
256,192,2341,1,0,0:0:0:0:
256,192,2575,1,8,0:0:0:0:
256,192,2809,1,8,0:0:0:0:
256,192,2927,1,8,0:0:0:0:
256,192,3278,1,0,0:0:0:0:
256,192,3512,1,0,0:0:0:0:
256,192,3747,1,0,0:0:0:0:
256,192,3864,1,8,0:0:0:0:
256,192,4098,1,0,0:0:0:0:
256,192,4216,1,8,0:0:0:0:
256,192,4802,1,8,0:0:0:0:
256,192,5153,1,0,0:0:0:0:
256,192,5387,1,0,0:0:0:0:
256,192,5622,1,0,0:0:0:0:
256,192,5739,1,8,0:0:0:0:
256,192,5856,1,0,0:0:0:0:
256,192,6091,1,0,0:0:0:0:
256,192,6325,1,8,0:0:0:0:
256,192,6559,1,0,0:0:0:0:
256,192,6677,1,8,0:0:0:0:
256,192,7028,1,0,0:0:0:0:
256,192,7262,1,0,0:0:0:0:
256,192,7497,1,0,0:0:0:0:
256,192,7614,1,8,0:0:0:0:
256,192,7848,1,8,0:0:0:0:
256,192,7966,1,8,0:0:0:0:
256,192,8083,1,0,0:0:0:0:
256,192,8200,1,0,0:0:0:0:
256,192,8317,1,8,0:0:0:0:
256,192,8434,1,8,0:0:0:0:
256,192,8552,1,0,0:0:0:0:
256,192,9020,1,0,0:0:0:0:
256,192,9137,1,0,0:0:0:0:
256,192,9255,1,8,0:0:0:0:
256,192,9489,1,0,0:0:0:0:
256,192,9723,1,8,0:0:0:0:
256,192,9841,1,0,0:0:0:0:
256,192,10075,1,0,0:0:0:0:
256,192,10192,1,8,0:0:0:0:
256,192,10427,1,8,0:0:0:0:
256,192,10661,1,0,0:0:0:0:
256,192,10778,1,8,0:0:0:0:
256,192,10895,1,0,0:0:0:0:
256,192,11012,1,0,0:0:0:0:
256,192,11130,1,8,0:0:0:0:
256,192,11364,1,8,0:0:0:0:
256,192,11598,1,8,0:0:0:0:
256,192,11716,1,8,0:0:0:0:
256,192,11833,1,0,0:0:0:0:
256,192,12067,1,8,0:0:0:0:
256,192,12184,1,0,0:0:0:0:
256,192,12302,1,8,0:0:0:0:
256,192,12770,1,0,0:0:0:0:
256,192,13239,1,0,0:0:0:0:
256,192,13356,1,8,0:0:0:0:
256,192,13473,1,8,0:0:0:0:
256,192,13708,1,0,0:0:0:0:
256,192,13825,1,8,0:0:0:0:
256,192,13942,1,0,0:0:0:0:
256,192,14059,1,8,0:0:0:0:
256,192,14177,1,0,0:0:0:0:
256,192,14411,1,8,0:0:0:0:
256,192,14528,1,0,0:0:0:0:
256,192,14645,1,8,0:0:0:0:
256,192,14880,1,0,0:0:0:0:
256,192,14997,1,0,0:0:0:0:
256,192,15114,1,8,0:0:0:0:
256,192,15348,1,0,0:0:0:0:
256,192,15466,1,0,0:0:0:0:
256,192,15583,1,8,0:0:0:0:
256,192,15700,1,0,0:0:0:0:
256,192,15817,1,8,0:0:0:0:
256,192,15934,1,8,0:0:0:0:
256,192,16052,1,0,0:0:0:0:
256,192,16520,1,0,0:0:0:0:
256,192,16637,1,0,0:0:0:0:
256,192,16755,1,8,0:0:0:0:
256,192,16989,1,0,0:0:0:0:
256,192,17223,1,8,0:0:0:0:
256,192,17341,1,0,0:0:0:0:
256,192,17575,1,0,0:0:0:0:
256,192,17692,1,8,0:0:0:0:
256,192,17927,1,8,0:0:0:0:
256,192,18161,1,0,0:0:0:0:
256,192,18278,1,8,0:0:0:0:
256,192,18512,1,0,0:0:0:0:
256,192,18630,1,8,0:0:0:0:
256,192,18747,1,0,0:0:0:0:
256,192,18864,1,8,0:0:0:0:
256,192,19098,1,0,0:0:0:0:
256,192,19216,1,8,0:0:0:0:
256,192,19450,1,8,0:0:0:0:
256,192,19567,1,8,0:0:0:0:
256,192,19684,1,0,0:0:0:0:
256,192,19802,1,8,0:0:0:0:
256,192,20036,5,8,0:0:0:0:
256,192,20153,1,0,0:0:0:0:
256,192,20270,1,8,0:0:0:0:
256,192,20739,1,0,0:0:0:0:
256,192,20856,1,0,0:0:0:0:
256,192,20973,1,8,0:0:0:0:
256,192,21208,1,0,0:0:0:0:
256,192,21325,1,0,0:0:0:0:
256,192,21442,1,8,0:0:0:0:
256,192,21559,1,8,0:0:0:0:
256,192,21677,1,0,0:0:0:0:
256,192,21911,1,8,0:0:0:0:
256,192,22028,1,0,0:0:0:0:
256,192,22145,1,8,0:0:0:0:
256,192,22380,1,8,0:0:0:0:
256,192,22497,1,0,0:0:0:0:
256,192,22614,1,8,0:0:0:0:
256,192,22848,1,0,0:0:0:0:
256,192,22966,1,0,0:0:0:0:
256,192,23083,1,8,0:0:0:0:
256,192,23200,1,0,0:0:0:0:
256,192,23317,1,8,0:0:0:0:
256,192,23434,1,8,0:0:0:0:
256,192,23552,1,0,0:0:0:0:
256,192,24020,1,0,0:0:0:0:
256,192,24137,1,0,0:0:0:0:
256,192,24255,1,8,0:0:0:0:
256,192,24489,1,0,0:0:0:0:
256,192,24723,1,8,0:0:0:0:
256,192,24841,1,0,0:0:0:0:
256,192,25075,1,0,0:0:0:0:
256,192,25192,1,8,0:0:0:0:
256,192,25427,1,8,0:0:0:0:
256,192,25661,1,0,0:0:0:0:
256,192,25778,1,8,0:0:0:0:
256,192,25895,1,0,0:0:0:0:
256,192,26012,1,0,0:0:0:0:
256,192,26130,1,8,0:0:0:0:
256,192,26364,1,8,0:0:0:0:
256,192,26598,1,8,0:0:0:0:
256,192,26716,1,8,0:0:0:0:
256,192,26833,1,0,0:0:0:0:
256,192,27067,1,8,0:0:0:0:
256,192,27184,1,0,0:0:0:0:
256,192,27302,1,8,0:0:0:0:
256,192,27770,1,0,0:0:0:0:
256,192,28239,1,0,0:0:0:0:
256,192,28356,1,8,0:0:0:0:
256,192,28473,1,8,0:0:0:0:
256,192,28708,1,0,0:0:0:0:
256,192,28825,1,8,0:0:0:0:
256,192,28942,1,0,0:0:0:0:
256,192,29059,1,8,0:0:0:0:
256,192,29177,1,0,0:0:0:0:
256,192,29411,1,8,0:0:0:0:
256,192,29528,1,0,0:0:0:0:
256,192,29645,1,8,0:0:0:0:
256,192,29880,1,0,0:0:0:0:
256,192,29997,1,0,0:0:0:0:
256,192,30114,1,8,0:0:0:0:
256,192,30348,1,0,0:0:0:0:
256,192,30466,1,0,0:0:0:0:
256,192,30583,1,8,0:0:0:0:
256,192,30700,1,0,0:0:0:0:
256,192,30817,1,8,0:0:0:0:
256,192,30934,1,8,0:0:0:0:
256,192,31052,1,0,0:0:0:0:
256,192,31520,1,0,0:0:0:0:
256,192,31637,1,0,0:0:0:0:
256,192,31755,1,8,0:0:0:0:
256,192,31989,1,0,0:0:0:0:
256,192,32223,1,8,0:0:0:0:
256,192,32341,1,0,0:0:0:0:
256,192,32575,1,0,0:0:0:0:
256,192,32692,1,8,0:0:0:0:
256,192,32927,1,8,0:0:0:0:
256,192,33161,1,0,0:0:0:0:
256,192,33278,1,8,0:0:0:0:
256,192,33512,1,0,0:0:0:0:
256,192,33630,1,8,0:0:0:0:
256,192,33747,1,0,0:0:0:0:
256,192,33864,1,8,0:0:0:0:
256,192,34098,1,0,0:0:0:0:
256,192,34216,1,8,0:0:0:0:
256,192,34450,1,8,0:0:0:0:
256,192,34567,1,8,0:0:0:0:
256,192,34684,1,0,0:0:0:0:
256,192,34802,5,8,0:0:0:0:
256,192,35036,5,8,0:0:0:0:
256,192,35153,1,0,0:0:0:0:
256,192,35270,1,8,0:0:0:0:
256,192,35739,1,0,0:0:0:0:
256,192,35856,5,0,0:0:0:0:
256,192,35973,1,8,0:0:0:0:
256,192,36208,1,0,0:0:0:0:
256,192,36325,1,0,0:0:0:0:
256,192,36442,1,8,0:0:0:0:
256,192,36559,1,0,0:0:0:0:
256,192,36677,5,8,0:0:0:0:
256,192,36911,1,0,0:0:0:0:
256,192,37028,1,8,0:0:0:0:
256,192,37145,1,0,0:0:0:0:
256,192,37380,1,8,0:0:0:0:
256,192,37497,1,0,0:0:0:0:
256,192,37614,1,0,0:0:0:0:
256,192,37848,1,0,0:0:0:0:
256,192,37966,5,0,0:0:0:0:
256,192,38083,1,8,0:0:0:0:
256,192,38200,1,8,0:0:0:0:
256,192,38317,5,0,0:0:0:0:
256,192,38552,1,8,0:0:0:0:
256,192,38669,1,8,0:0:0:0:
256,192,38903,1,8,0:0:0:0:
256,192,39137,1,8,0:0:0:0:
256,192,39372,1,8,0:0:0:0:
256,192,39489,1,0,0:0:0:0:
256,192,39723,1,0,0:0:0:0:
256,192,39958,1,8,0:0:0:0:
256,192,40427,1,8,0:0:0:0:
256,192,40544,1,0,0:0:0:0:
256,192,40778,1,8,0:0:0:0:
256,192,41012,1,8,0:0:0:0:
256,192,41247,1,0,0:0:0:0:
256,192,41364,1,8,0:0:0:0:
256,192,41598,1,0,0:0:0:0:
256,192,41833,1,8,0:0:0:0:
256,192,42302,1,8,0:0:0:0:
256,192,42419,1,8,0:0:0:0:
256,192,42653,1,8,0:0:0:0:
256,192,42887,1,8,0:0:0:0:
256,192,43122,1,8,0:0:0:0:
256,192,43239,1,0,0:0:0:0:
256,192,43473,1,0,0:0:0:0:
256,192,43708,1,8,0:0:0:0:
256,192,44177,1,8,0:0:0:0:
256,192,44294,1,0,0:0:0:0:
256,192,44528,1,8,0:0:0:0:
256,192,44762,1,8,0:0:0:0:
256,192,44997,1,8,0:0:0:0:
256,192,45114,1,0,0:0:0:0:
256,192,45348,1,0,0:0:0:0:
256,192,45466,1,0,0:0:0:0:
256,192,45583,1,8,0:0:0:0:
256,192,45700,1,8,0:0:0:0:
256,192,45817,1,0,0:0:0:0:
256,192,46052,1,8,0:0:0:0:
256,192,46169,1,8,0:0:0:0:
256,192,46403,1,8,0:0:0:0:
256,192,46520,1,0,0:0:0:0:
256,192,46637,1,8,0:0:0:0:
256,192,46872,1,8,0:0:0:0:
256,192,46989,1,0,0:0:0:0:
256,192,47223,1,0,0:0:0:0:
256,192,47458,1,8,0:0:0:0:
256,192,47927,1,8,0:0:0:0:
256,192,48044,1,0,0:0:0:0:
256,192,48278,1,8,0:0:0:0:
256,192,48395,1,0,0:0:0:0:
256,192,48512,1,8,0:0:0:0:
256,192,48747,1,0,0:0:0:0:
256,192,48864,1,8,0:0:0:0:
256,192,49098,1,0,0:0:0:0:
256,192,49333,1,8,0:0:0:0:
256,192,49802,1,8,0:0:0:0:
256,192,49919,1,8,0:0:0:0:
256,192,50153,1,8,0:0:0:0:
256,192,50270,1,0,0:0:0:0:
256,192,50387,1,8,0:0:0:0:
256,192,50622,1,8,0:0:0:0:
256,192,50739,1,0,0:0:0:0:
256,192,50973,1,0,0:0:0:0:
256,192,51208,5,8,0:0:0:0:
256,192,51677,1,8,0:0:0:0:
256,192,51794,1,0,0:0:0:0:
256,192,52028,1,8,0:0:0:0:
256,192,52145,1,0,0:0:0:0:
256,192,52262,1,8,0:0:0:0:
256,192,52497,5,0,0:0:0:0:
256,192,52614,1,8,0:0:0:0:
256,192,52848,1,8,0:0:0:0:
256,192,52966,1,8,0:0:0:0:
256,192,53083,1,0,0:0:0:0:
256,192,53200,1,0,0:0:0:0:
256,192,53317,1,8,0:0:0:0:
256,192,53434,1,0,0:0:0:0:
256,192,53552,5,8,0:0:0:0:
256,192,53786,1,0,0:0:0:0:
256,192,53903,1,8,0:0:0:0:
256,192,54137,1,0,0:0:0:0:
256,192,54255,1,8,0:0:0:0:
256,192,54372,1,8,0:0:0:0:
256,192,54489,1,0,0:0:0:0:
256,192,54606,1,8,0:0:0:0:
256,192,54841,1,8,0:0:0:0:
256,192,55075,1,8,0:0:0:0:
256,192,55192,1,0,0:0:0:0:
256,192,55427,1,8,0:0:0:0:
256,192,55661,1,8,0:0:0:0:
256,192,55778,1,0,0:0:0:0:
256,192,56012,1,8,0:0:0:0:
256,192,56130,1,0,0:0:0:0:
256,192,56247,1,0,0:0:0:0:
256,192,56364,1,8,0:0:0:0:
256,192,56481,1,8,0:0:0:0:
256,192,56716,1,0,0:0:0:0:
256,192,57302,1,8,0:0:0:0:
256,192,57536,1,0,0:0:0:0:
256,192,57653,1,8,0:0:0:0:
256,192,57887,1,0,0:0:0:0:
256,192,58005,1,0,0:0:0:0:
256,192,58122,1,8,0:0:0:0:
256,192,58239,1,8,0:0:0:0:
256,192,58356,1,0,0:0:0:0:
256,192,58473,1,8,0:0:0:0:
256,192,58591,1,8,0:0:0:0:
256,192,58825,1,0,0:0:0:0:
256,192,58942,1,0,0:0:0:0:
256,192,59059,1,0,0:0:0:0:
256,192,59177,1,8,0:0:0:0:
256,192,59411,1,0,0:0:0:0:
256,192,59528,1,8,0:0:0:0:
256,192,59762,1,8,0:0:0:0:
256,192,59880,1,0,0:0:0:0:
256,192,60114,1,8,0:0:0:0:
256,192,60231,1,0,0:0:0:0:
256,192,60348,1,8,0:0:0:0:
256,192,60466,1,8,0:0:0:0:
256,192,60583,1,0,0:0:0:0:
256,192,61052,1,8,0:0:0:0:
256,192,61286,1,0,0:0:0:0:
256,192,61403,1,8,0:0:0:0:
256,192,61637,1,0,0:0:0:0:
256,192,61755,1,0,0:0:0:0:
256,192,61872,1,8,0:0:0:0:
256,192,61989,1,0,0:0:0:0:
256,192,62106,1,8,0:0:0:0:
256,192,62341,1,0,0:0:0:0:
256,192,62575,1,0,0:0:0:0:
256,192,62692,1,8,0:0:0:0:
256,192,62927,1,8,0:0:0:0:
256,192,63161,1,0,0:0:0:0:
256,192,63278,1,8,0:0:0:0:
256,192,63512,1,0,0:0:0:0:
256,192,63630,1,8,0:0:0:0:
256,192,63747,1,8,0:0:0:0:
256,192,63864,1,8,0:0:0:0:
256,192,63981,1,0,0:0:0:0:
256,192,64216,1,0,0:0:0:0:
256,192,64450,1,0,0:0:0:0:
256,192,64567,1,8,0:0:0:0:
256,192,64802,1,8,0:0:0:0:
256,192,64919,1,0,0:0:0:0:
256,192,65153,1,8,0:0:0:0:
256,192,65270,1,0,0:0:0:0:
256,192,65387,1,8,0:0:0:0:
256,192,65622,1,0,0:0:0:0:
256,192,65739,1,8,0:0:0:0:
256,192,65856,1,8,0:0:0:0:
256,192,66091,1,0,0:0:0:0:
256,192,66325,1,0,0:0:0:0:
256,192,66559,1,8,0:0:0:0:
256,192,66677,1,0,0:0:0:0:
256,192,66794,1,8,0:0:0:0:
256,192,66911,1,8,0:0:0:0:
256,192,67028,1,0,0:0:0:0:
256,192,67262,1,0,0:0:0:0:
256,192,67380,1,8,0:0:0:0:
256,192,67497,1,8,0:0:0:0:
256,192,67614,1,0,0:0:0:0:
256,192,67731,1,0,0:0:0:0:
256,192,67966,1,0,0:0:0:0:
256,192,68552,1,8,0:0:0:0:
256,192,68786,1,0,0:0:0:0:
256,192,68903,1,8,0:0:0:0:
256,192,69137,1,0,0:0:0:0:
256,192,69255,1,8,0:0:0:0:
256,192,69372,1,8,0:0:0:0:
256,192,69489,1,0,0:0:0:0:
256,192,69606,1,8,0:0:0:0:
256,192,69723,1,0,0:0:0:0:
256,192,69841,1,8,0:0:0:0:
256,192,70075,1,8,0:0:0:0:
256,192,70192,1,0,0:0:0:0:
256,192,70309,1,0,0:0:0:0:
256,192,70427,1,8,0:0:0:0:
256,192,70661,1,8,0:0:0:0:
256,192,70778,1,0,0:0:0:0:
256,192,71012,1,8,0:0:0:0:
256,192,71130,1,0,0:0:0:0:
256,192,71247,1,8,0:0:0:0:
256,192,71364,1,8,0:0:0:0:
256,192,71481,1,0,0:0:0:0:
256,192,71598,1,0,0:0:0:0:
256,192,71716,1,8,0:0:0:0:
256,192,71950,1,0,0:0:0:0:
256,192,72067,1,0,0:0:0:0:
256,192,72184,1,0,0:0:0:0:
256,192,72302,1,8,0:0:0:0:
256,192,72536,1,0,0:0:0:0:
256,192,72653,1,8,0:0:0:0:
256,192,72887,1,0,0:0:0:0:
256,192,73005,1,0,0:0:0:0:
256,192,73122,1,8,0:0:0:0:
256,192,73239,1,8,0:0:0:0:
256,192,73356,1,0,0:0:0:0:
256,192,73473,1,8,0:0:0:0:
256,192,73591,1,8,0:0:0:0:
256,192,73825,1,8,0:0:0:0:
256,192,73942,1,0,0:0:0:0:
256,192,74059,1,0,0:0:0:0:
256,192,74177,1,8,0:0:0:0:
256,192,74411,1,0,0:0:0:0:
256,192,74528,1,8,0:0:0:0:
256,192,74762,1,8,0:0:0:0:
256,192,74880,1,0,0:0:0:0:
256,192,75114,1,8,0:0:0:0:
256,192,75231,1,0,0:0:0:0:
256,192,75348,1,8,0:0:0:0:
256,192,75466,1,8,0:0:0:0:
256,192,75583,1,0,0:0:0:0:
256,192,76052,1,8,0:0:0:0:
256,192,76169,1,8,0:0:0:0:
256,192,76286,1,0,0:0:0:0:
256,192,76520,1,8,0:0:0:0:
256,192,76637,1,8,0:0:0:0:
256,192,76755,1,0,0:0:0:0:
256,192,76872,1,0,0:0:0:0:
256,192,76989,1,8,0:0:0:0:
256,192,77106,1,8,0:0:0:0:
256,192,77223,1,0,0:0:0:0:
256,192,77341,1,0,0:0:0:0:
256,192,77575,1,8,0:0:0:0:
256,192,77692,1,8,0:0:0:0:
256,192,77809,1,0,0:0:0:0:
256,192,77927,1,8,0:0:0:0:
256,192,78161,1,8,0:0:0:0:
256,192,78278,1,8,0:0:0:0:
256,192,78395,1,0,0:0:0:0:
256,192,78512,1,0,0:0:0:0:
256,192,78630,1,8,0:0:0:0:
256,192,78747,1,8,0:0:0:0:
256,192,78864,1,0,0:0:0:0:
256,192,78981,1,8,0:0:0:0:
256,192,79216,1,0,0:0:0:0:
256,192,79333,1,8,0:0:0:0:
256,192,79450,1,8,0:0:0:0:
256,192,79567,1,0,0:0:0:0:
256,192,79802,1,8,0:0:0:0:
256,192,79919,1,0,0:0:0:0:
256,192,80153,1,8,0:0:0:0:
256,192,80270,1,0,0:0:0:0:
256,192,80387,1,8,0:0:0:0:
256,192,80622,1,0,0:0:0:0:
256,192,80739,1,8,0:0:0:0:
256,192,80856,1,8,0:0:0:0:
256,192,81091,1,8,0:0:0:0:
256,192,81325,1,0,0:0:0:0:
256,192,81442,1,0,0:0:0:0:
256,192,81559,1,8,0:0:0:0:
256,192,81677,1,8,0:0:0:0:
256,192,81794,1,0,0:0:0:0:
256,192,81911,1,8,0:0:0:0:
256,192,82028,1,0,0:0:0:0:
256,192,82262,1,8,0:0:0:0:
256,192,82380,1,0,0:0:0:0:
256,192,82497,1,8,0:0:0:0:
256,192,82614,1,8,0:0:0:0:
256,192,82731,1,0,0:0:0:0:
256,192,82966,1,0,0:0:0:0:
256,192,83552,1,8,0:0:0:0:
256,192,84020,1,0,0:0:0:0:
256,192,84137,1,0,0:0:0:0:
256,192,84255,1,8,0:0:0:0:
256,192,84489,1,8,0:0:0:0:
256,192,84723,1,8,0:0:0:0:
256,192,84841,1,0,0:0:0:0:
256,192,85075,1,0,0:0:0:0:
256,192,85192,1,8,0:0:0:0:
256,192,85427,1,8,0:0:0:0:
256,192,85661,1,0,0:0:0:0:
256,192,85778,1,8,0:0:0:0:
256,192,86012,1,8,0:0:0:0:
256,192,86130,1,0,0:0:0:0:
256,192,86364,1,0,0:0:0:0:
256,192,86481,1,0,0:0:0:0:
256,192,86598,1,8,0:0:0:0:
256,192,86716,1,0,0:0:0:0:
256,192,86950,1,0,0:0:0:0:
256,192,87067,1,0,0:0:0:0:
256,192,87184,1,0,0:0:0:0:
256,192,87302,1,8,0:0:0:0:
256,192,87770,1,0,0:0:0:0:
256,192,87887,1,0,0:0:0:0:
256,192,88005,1,8,0:0:0:0:
256,192,88239,1,0,0:0:0:0:
256,192,88473,1,8,0:0:0:0:
256,192,88708,1,0,0:0:0:0:
256,192,88825,1,0,0:0:0:0:
256,192,88942,1,8,0:0:0:0:
256,192,89177,1,8,0:0:0:0:
256,192,89411,1,0,0:0:0:0:
256,192,89528,1,8,0:0:0:0:
256,192,89762,1,8,0:0:0:0:
256,192,89880,1,0,0:0:0:0:
256,192,90114,1,8,0:0:0:0:
256,192,90348,1,0,0:0:0:0:
256,192,90466,1,8,0:0:0:0:
256,192,90700,1,8,0:0:0:0:
256,192,90817,1,0,0:0:0:0:
256,192,91052,1,8,0:0:0:0:
256,192,91520,1,0,0:0:0:0:
256,192,91637,1,0,0:0:0:0:
256,192,91755,1,8,0:0:0:0:
256,192,91989,1,8,0:0:0:0:
256,192,92223,1,8,0:0:0:0:
256,192,92341,1,0,0:0:0:0:
256,192,92575,1,0,0:0:0:0:
256,192,92692,1,8,0:0:0:0:
256,192,92927,1,8,0:0:0:0:
256,192,93161,1,0,0:0:0:0:
256,192,93278,1,8,0:0:0:0:
256,192,93512,1,8,0:0:0:0:
256,192,93630,1,0,0:0:0:0:
256,192,93864,1,0,0:0:0:0:
256,192,93981,1,0,0:0:0:0:
256,192,94098,1,8,0:0:0:0:
256,192,94216,1,0,0:0:0:0:
256,192,94450,1,0,0:0:0:0:
256,192,94567,1,0,0:0:0:0:
256,192,94684,1,0,0:0:0:0:
256,192,94802,1,8,0:0:0:0:
256,192,95270,1,8,0:0:0:0:
256,192,95387,1,0,0:0:0:0:
256,192,95505,1,8,0:0:0:0:
256,192,95739,1,0,0:0:0:0:
256,192,95973,1,8,0:0:0:0:
256,192,96208,1,0,0:0:0:0:
256,192,96325,1,0,0:0:0:0:
256,192,96442,1,8,0:0:0:0:
256,192,96677,5,8,0:0:0:0:
256,192,96911,5,8,0:0:0:0:
256,192,97028,1,0,0:0:0:0:
256,192,97262,1,0,0:0:0:0:
256,192,97380,1,8,0:0:0:0:
256,192,97614,1,8,0:0:0:0:
256,192,97848,1,8,0:0:0:0:
256,192,97966,1,8,0:0:0:0:
256,192,98083,1,0,0:0:0:0:
256,192,98200,1,0,0:0:0:0:
256,192,98317,1,8,0:0:0:0:
256,192,98434,1,8,0:0:0:0:
256,192,98552,1,0,0:0:0:0:
