osu file format v14

[General]
AudioFilename: audio.mp3
AudioLeadIn: 0
PreviewTime: 68728
Countdown: 0
SampleSet: Normal
StackLeniency: 0.7
Mode: 1
LetterboxInBreaks: 0
WidescreenStoryboard: 0

[Editor]
DistanceSpacing: 0.8
BeatDivisor: 8
GridSize: 16
TimelineZoom: 1.9

[Metadata]
Title:Azakeri no Yuugi
TitleUnicode:嘲りの遊戯
Artist:Akiyama Uni
ArtistUnicode:あきやまうに
Creator:CallMeLyra
Version:Inner Oni
Source:東方緋想天 ~ Scarlet Weather Rhapsody
Tags:ridiculous game th10.5 th12.3 heavenly moon ginjani 東方非想天則 ~ 超弩級ギニョルの謎を追え. Touhou Hisoutensoku ~ Choudokyuu Ginyoru no Nazo wo Oe Unperceiving Unthinkable of Natural Law ~ Chase the Enigma of the Gargantuan Guignol 黄昏フロンティア Twilight Frontier Tasofro Youkai no Yama Mountain 妖怪の山 Aya Shameimaru 射命丸文 Video Game Instrumental U2 Hisouten 上海アリス幻楽団 東方project ZUN team shanghai alice trumpet accordion flamenco
BeatmapID:3032899
BeatmapSetID:1478335

[Difficulty]
HPDrainRate:6
CircleSize:5
OverallDifficulty:6
ApproachRate:5
SliderMultiplier:1.4
SliderTickRate:1

[Events]
//Background and Video events
0,0,"Youkai Mountain.jpg",0,80
//Break Periods
//Storyboard Layer 0 (Background)
//Storyboard Layer 1 (Fail)
//Storyboard Layer 2 (Pass)
//Storyboard Layer 3 (Foreground)
//Storyboard Layer 4 (Overlay)
//Storyboard Sound Samples

[TimingPoints]
1052,468.75,4,1,0,70,1,0
35739,-100,4,1,0,70,0,0
35856,-100.182131114366,4,1,0,70,0,0
35973,-100.364926874114,4,1,0,70,0,0
36091,-100.548492023991,4,1,0,70,0,0
36208,-100.7326284064,4,1,0,70,0,0
36325,-100.917440451141,4,1,0,70,0,0
36442,-101.102931883922,4,1,0,70,0,0
36559,-101.28910645789,4,1,0,70,0,0
36677,-101.475967953889,4,1,0,70,0,0
36794,-101.663623535536,4,1,0,70,0,0
36911,-101.851870713309,4,1,0,70,0,0
37028,-102.040816326531,4,1,0,70,0,0
37145,-102.23046426943,4,1,0,70,0,0
37262,-102.420818465245,4,1,0,70,0,0
37380,-102.611988158577,4,1,0,70,0,0
37497,-102.803767141243,4,1,0,70,0,0
37614,-102.996264325493,4,1,0,70,0,0
37731,-103.189483753332,4,1,0,70,0,0
37848,-103.383429497153,4,1,0,70,0,0
37966,-103.578105660026,4,1,0,70,0,0
38083,-103.773624065519,4,1,0,70,0,0
38200,-103.96977390733,4,1,0,70,0,0
38317,-104.166666666667,4,1,0,70,0,0
38493,-104.166666666667,4,1,0,70,0,0
38610,-104.069101883651,4,1,0,70,0,0
38727,-103.994008485546,4,1,0,70,0,0
38844,-103.919023379957,4,1,0,70,0,0
38961,-103.844146332799,4,1,0,70,0,0
39079,-103.76937711066,4,1,0,70,0,0
39196,-103.694715480802,4,1,0,70,0,0
39313,-103.620161211156,4,1,0,70,0,0
39431,-103.545714070318,4,1,0,70,0,0
39548,-103.471373827551,4,1,0,70,0,0
39665,-103.397140252779,4,1,0,70,0,0
39782,-103.323013116585,4,1,0,70,0,0
39899,-103.24899219021,4,1,0,70,0,0
40016,-103.175077245551,4,1,0,70,0,0
40134,-103.101268055157,4,1,0,70,0,0
40251,-103.027564392228,4,1,0,70,0,0
40368,-102.95396603061,4,1,0,70,0,0
40485,-102.880472744797,4,1,0,70,0,0
40602,-102.807084309925,4,1,0,70,0,0
40719,-102.733800501774,4,1,0,70,0,0
40836,-102.660621096758,4,1,0,70,0,0
40954,-102.587545871931,4,1,0,70,0,0
41071,-102.514574604982,4,1,0,70,0,0
41188,-102.441707074229,4,1,0,70,0,0
41306,-102.368943058622,4,1,0,70,0,0
41423,-102.296282337739,4,1,0,70,0,0
41540,-102.223724691782,4,1,0,70,0,0
41657,-102.151269901576,4,1,0,70,0,0
41774,-102.078917748569,4,1,0,70,0,0
41891,-102.006668014825,4,1,0,70,0,0
42009,-101.934520483027,4,1,0,70,0,0
42126,-101.86247493647,4,1,0,70,0,0
42243,-101.790531159064,4,1,0,70,0,0
42360,-101.718688935327,4,1,0,70,0,0
42477,-101.646948050385,4,1,0,70,0,0
42594,-101.575308289971,4,1,0,70,0,0
42712,-101.50376944042,4,1,0,70,0,0
42829,-101.432331288671,4,1,0,70,0,0
42946,-101.36099362226,4,1,0,70,0,0
43063,-101.28975622932,4,1,0,70,0,0
43180,-101.218618898582,4,1,0,70,0,0
43298,-101.147581419367,4,1,0,70,0,0
43415,-101.076643581589,4,1,0,70,0,0
43532,-101.00580517575,4,1,0,70,0,0
43649,-100.93506599294,4,1,0,70,0,0
43766,-100.864425824832,4,1,0,70,0,0
43884,-100.793884463684,4,1,0,70,0,0
44001,-100.723441702332,4,1,0,70,0,0
44118,-100.653097334194,4,1,0,70,0,0
44235,-100.582851153262,4,1,0,70,0,0
44352,-100.512702954104,4,1,0,70,0,0
44469,-100.44265253186,4,1,0,70,0,0
44587,-100.372699682241,4,1,0,70,0,0
44704,-100.302844201528,4,1,0,70,0,0
44821,-100.233085886566,4,1,0,70,0,0
44938,-100.163424534767,4,1,0,70,0,0
45055,-100.093859944105,4,1,0,70,0,0
45173,-100.024391913116,4,1,0,70,0,0
45290,-99.9550202408916,4,1,0,70,0,0
45407,-99.8857447270841,4,1,0,70,0,0
45524,-99.816565171899,4,1,0,70,0,0
45641,-99.7474813760953,4,1,0,70,0,0
45759,-99.678493140983,4,1,0,70,0,0
45876,-99.6096002684217,4,1,0,70,0,0
45993,-99.5408025608181,4,1,0,70,0,0
46110,-99.4720998211247,4,1,0,70,0,0
46227,-99.4034918528375,4,1,0,70,0,0
46344,-99.3349784599941,4,1,0,70,0,0
46462,-99.2665594471723,4,1,0,70,0,0
46579,-99.1982346194877,4,1,0,70,0,0
46696,-99.1300037825922,4,1,0,70,0,0
46813,-99.061866742672,4,1,0,70,0,0
46930,-98.9938233064458,4,1,0,70,0,0
47048,-98.925873281163,4,1,0,70,0,0
47165,-98.8580164746017,4,1,0,70,0,0
47282,-98.7902526950674,4,1,0,70,0,0
47399,-98.7225817513906,4,1,0,70,0,0
47634,-98.6550034529251,4,1,0,70,0,0
47751,-98.5875176095467,4,1,0,70,0,0
47868,-98.5201240316509,4,1,0,70,0,0
47985,-98.4528225301512,4,1,0,70,0,0
48102,-98.3856129164775,4,1,0,70,0,0
48219,-98.3184950025744,4,1,0,70,0,0
48337,-98.2514686008991,4,1,0,70,0,0
48454,-98.18453352442,4,1,0,70,0,0
48571,-98.1176895866147,4,1,0,70,0,0
48688,-98.0509366014685,4,1,0,70,0,0
48805,-97.9842743834726,4,1,0,70,0,0
48923,-97.9177027476223,4,1,0,70,0,0
49040,-97.8512215094152,4,1,0,70,0,0
49157,-97.7848304848498,4,1,0,70,0,0
49274,-97.7185294904236,4,1,0,70,0,0
49391,-97.6523183431314,4,1,0,70,0,0
49509,-97.5861968604637,4,1,0,70,0,0
49626,-97.520164860405,4,1,0,70,0,0
49743,-97.4542221614321,4,1,0,70,0,0
49860,-97.3883685825123,4,1,0,70,0,0
49977,-97.3226039431021,4,1,0,70,0,0
50094,-97.2569280631453,4,1,0,70,0,0
50212,-97.1913407630714,4,1,0,70,0,0
50329,-97.1258418637938,4,1,0,70,0,0
50446,-97.0604311867085,4,1,0,70,0,0
50563,-96.9951085536923,4,1,0,70,0,0
50680,-96.9298737871012,4,1,0,70,0,0
50798,-96.8647267097686,4,1,0,70,0,0
50915,-96.7996671450042,4,1,0,70,0,0
51032,-96.7346949165918,4,1,0,70,0,0
51149,-96.6698098487881,4,1,0,70,0,0
51266,-96.6050117663209,4,1,0,70,0,0
51384,-96.5403004943879,4,1,0,70,0,0
51501,-96.4756758586547,4,1,0,70,0,0
51618,-96.4111376852532,4,1,0,70,0,0
51735,-96.3466858007804,4,1,0,70,0,0
51969,-96.2823200322968,4,1,0,70,0,0
52087,-96.2180402073245,4,1,0,70,0,0
52204,-96.1538461538461,4,1,0,70,0,0
52438,-95.2380952380952,4,1,0,70,0,0
52555,-94.3396226415094,4,1,0,70,0,0
52673,-93.4579439252336,4,1,0,70,0,0
52760,-92.5925925925926,4,1,0,70,0,0
52819,-91.743119266055,4,1,0,70,0,0
52907,-90.9090909090909,4,1,0,70,0,0
53024,-90.0900900900901,4,1,0,70,0,0
53141,-89.2857142857143,4,1,0,70,0,0
53259,-88.4955752212389,4,1,0,70,0,0
53376,-87.719298245614,4,1,0,70,0,0
53493,-86.9565217391304,4,1,0,70,0,0
67204,-84.0336134453781,4,1,0,70,0,0
67321,-82.9875518672199,4,1,0,70,0,0
67438,-81.9672131147541,4,1,0,70,0,0
67555,-80.9716599190283,4,1,0,70,0,0
67673,-80,4,1,0,70,0,0
67907,-76.3358778625954,4,1,0,70,0,0
68141,-89.2857142857143,4,1,0,70,0,0
68259,-88.4955752212389,4,1,0,70,0,0
68376,-87.719298245614,4,1,0,70,0,0
68552,-86.9565217391304,4,1,0,70,0,1
68727,-86.9565217391304,4,1,0,70,0,1
80094,-86.2068965517241,4,1,0,70,0,1
80212,-85.4700854700855,4,1,0,70,0,1
80329,-84.7457627118644,4,1,0,70,0,1
80446,-84.0336134453781,4,1,0,70,0,1
80563,-83.3333333333333,4,1,0,70,0,1
80680,-81.9672131147541,4,1,0,70,0,1
80798,-80.6451612903226,4,1,0,70,0,1
81032,-78.125,4,1,0,70,0,1
81266,-86.9565217391304,4,1,0,70,0,1
81384,-86.9565217391304,4,1,0,70,0,1
81501,-86.2068965517241,4,1,0,70,0,1
81618,-85.4700854700855,4,1,0,70,0,1
81735,-84.7457627118644,4,1,0,70,0,1
81852,-84.0336134453781,4,1,0,70,0,1
81969,-83.3333333333333,4,1,0,70,0,1
82087,-82.6446280991736,4,1,0,70,0,1
82204,-81.3008130081301,4,1,0,70,0,1
82321,-80,4,1,0,70,0,1
82438,-78.7401574803149,4,1,0,70,0,1
82555,-77.5193798449612,4,1,0,70,0,1
82673,-76.3358778625954,4,1,0,70,0,1
82907,-74.0740740740741,4,1,0,70,0,0
83141,-89.2857142857143,4,1,0,70,0,0
83259,-88.4955752212389,4,1,0,70,0,0
83376,-87.719298245614,4,1,0,70,0,0
83493,-86.9565217391304,4,1,0,70,0,0
83727,-95.2380952380952,4,1,0,70,0,0

[HitObjects]
256,192,1052,5,8,0:0:0:0:
256,192,1286,1,8,0:0:0:0:
256,192,1364,1,8,0:0:0:0:
256,192,1442,1,0,0:0:0:0:
256,192,1520,1,8,0:0:0:0:
256,192,1637,1,0,0:0:0:0:
256,192,1872,1,0,0:0:0:0:
256,192,1989,1,8,0:0:0:0:
256,192,2106,1,0,0:0:0:0:
256,192,2341,1,0,0:0:0:0:
256,192,2458,1,0,0:0:0:0:
256,192,2575,1,8,0:0:0:0:
256,192,2692,1,0,0:0:0:0:
256,192,2809,1,8,0:0:0:0:
256,192,2927,1,8,0:0:0:0:
256,192,3044,1,0,0:0:0:0:
256,192,3278,1,0,0:0:0:0:
256,192,3395,1,8,0:0:0:0:
256,192,3512,1,0,0:0:0:0:
256,192,3747,1,0,0:0:0:0:
256,192,3864,1,8,0:0:0:0:
256,192,3981,1,0,0:0:0:0:
256,192,4098,1,0,0:0:0:0:
256,192,4216,1,8,0:0:0:0:
256,192,4411,1,8,0:0:0:0:
256,192,4489,1,8,0:0:0:0:
256,192,4567,1,8,0:0:0:0:
256,192,4684,1,0,0:0:0:0:
256,192,4802,1,8,0:0:0:0:
256,192,5036,1,8,0:0:0:0:
256,192,5114,1,8,0:0:0:0:
256,192,5192,1,0,0:0:0:0:
256,192,5270,1,8,0:0:0:0:
256,192,5387,1,0,0:0:0:0:
256,192,5622,1,0,0:0:0:0:
256,192,5739,1,8,0:0:0:0:
256,192,5856,1,0,0:0:0:0:
256,192,6091,1,0,0:0:0:0:
256,192,6208,1,0,0:0:0:0:
256,192,6325,1,8,0:0:0:0:
256,192,6442,1,8,0:0:0:0:
256,192,6559,1,0,0:0:0:0:
256,192,6677,1,8,0:0:0:0:
256,192,6794,1,0,0:0:0:0:
256,192,7028,1,0,0:0:0:0:
256,192,7145,1,8,0:0:0:0:
256,192,7262,1,0,0:0:0:0:
256,192,7497,1,0,0:0:0:0:
256,192,7614,1,8,0:0:0:0:
256,192,7731,1,0,0:0:0:0:
256,192,7848,1,0,0:0:0:0:
256,192,7966,1,8,0:0:0:0:
256,192,8083,1,8,0:0:0:0:
256,192,8200,1,0,0:0:0:0:
256,192,8317,1,8,0:0:0:0:
256,192,8376,1,8,0:0:0:0:
256,192,8434,1,8,0:0:0:0:
256,192,8493,1,8,0:0:0:0:
256,192,8552,1,0,0:0:0:0:
256,192,8786,1,8,0:0:0:0:
256,192,8903,1,8,0:0:0:0:
256,192,9020,1,0,0:0:0:0:
256,192,9137,1,0,0:0:0:0:
256,192,9255,1,8,0:0:0:0:
256,192,9489,1,0,0:0:0:0:
256,192,9606,1,0,0:0:0:0:
256,192,9723,1,8,0:0:0:0:
256,192,9841,1,0,0:0:0:0:
256,192,10075,1,0,0:0:0:0:
256,192,10192,1,8,0:0:0:0:
256,192,10427,1,8,0:0:0:0:
256,192,10661,1,8,0:0:0:0:
256,192,10778,1,8,0:0:0:0:
256,192,10895,1,0,0:0:0:0:
256,192,11012,1,0,0:0:0:0:
256,192,11130,1,8,0:0:0:0:
256,192,11247,1,0,0:0:0:0:
256,192,11364,1,8,0:0:0:0:
256,192,11598,1,8,0:0:0:0:
256,192,11716,1,8,0:0:0:0:
256,192,11833,1,0,0:0:0:0:
256,192,11950,1,8,0:0:0:0:
256,192,12067,1,8,0:0:0:0:
256,192,12184,1,0,0:0:0:0:
256,192,12302,1,8,0:0:0:0:
256,192,12536,1,8,0:0:0:0:
256,192,12653,1,8,0:0:0:0:
256,192,12770,1,0,0:0:0:0:
256,192,12887,1,0,0:0:0:0:
256,192,13005,1,8,0:0:0:0:
256,192,13239,1,0,0:0:0:0:
256,192,13356,1,8,0:0:0:0:
256,192,13473,1,8,0:0:0:0:
256,192,13591,1,8,0:0:0:0:
256,192,13708,1,0,0:0:0:0:
256,192,13825,1,8,0:0:0:0:
256,192,13942,1,0,0:0:0:0:
256,192,14059,1,8,0:0:0:0:
256,192,14177,1,0,0:0:0:0:
256,192,14294,1,0,0:0:0:0:
256,192,14411,1,8,0:0:0:0:
256,192,14528,1,0,0:0:0:0:
256,192,14645,1,8,0:0:0:0:
256,192,14762,1,0,0:0:0:0:
256,192,14880,1,8,0:0:0:0:
256,192,14997,1,0,0:0:0:0:
256,192,15055,1,0,0:0:0:0:
256,192,15114,1,8,0:0:0:0:
256,192,15231,1,8,0:0:0:0:
256,192,15348,1,0,0:0:0:0:
256,192,15466,1,0,0:0:0:0:
256,192,15583,1,8,0:0:0:0:
256,192,15700,1,0,0:0:0:0:
256,192,15817,1,8,0:0:0:0:
256,192,15876,1,8,0:0:0:0:
256,192,15934,1,8,0:0:0:0:
256,192,16052,1,0,0:0:0:0:
256,192,16286,1,8,0:0:0:0:
256,192,16403,1,8,0:0:0:0:
256,192,16520,1,0,0:0:0:0:
256,192,16637,1,0,0:0:0:0:
256,192,16755,1,8,0:0:0:0:
256,192,16989,1,0,0:0:0:0:
256,192,17106,1,0,0:0:0:0:
256,192,17223,1,8,0:0:0:0:
256,192,17341,1,0,0:0:0:0:
256,192,17575,1,0,0:0:0:0:
256,192,17692,1,8,0:0:0:0:
256,192,17927,1,8,0:0:0:0:
256,192,18161,1,8,0:0:0:0:
256,192,18278,1,8,0:0:0:0:
256,192,18395,1,0,0:0:0:0:
256,192,18512,1,8,0:0:0:0:
256,192,18630,1,8,0:0:0:0:
256,192,18747,1,0,0:0:0:0:
256,192,18864,1,8,0:0:0:0:
256,192,19098,1,8,0:0:0:0:
256,192,19216,1,8,0:0:0:0:
256,192,19333,1,0,0:0:0:0:
256,192,19450,1,8,0:0:0:0:
256,192,19567,1,0,0:0:0:0:
256,192,19684,1,0,0:0:0:0:
256,192,19802,1,8,0:0:0:0:
256,192,20036,1,0,0:0:0:0:
256,192,20153,1,0,0:0:0:0:
256,192,20270,1,8,0:0:0:0:
256,192,20387,1,0,0:0:0:0:
256,192,20505,1,8,0:0:0:0:
256,192,20739,1,0,0:0:0:0:
256,192,20856,1,0,0:0:0:0:
256,192,20973,1,8,0:0:0:0:
256,192,21091,1,8,0:0:0:0:
256,192,21208,1,0,0:0:0:0:
256,192,21325,1,0,0:0:0:0:
256,192,21442,1,8,0:0:0:0:
256,192,21559,1,8,0:0:0:0:
256,192,21677,1,0,0:0:0:0:
256,192,21794,1,0,0:0:0:0:
256,192,21911,1,8,0:0:0:0:
256,192,22028,1,0,0:0:0:0:
256,192,22145,1,8,0:0:0:0:
256,192,22262,1,0,0:0:0:0:
256,192,22380,1,8,0:0:0:0:
256,192,22497,1,0,0:0:0:0:
256,192,22555,1,0,0:0:0:0:
256,192,22614,1,8,0:0:0:0:
256,192,22731,1,8,0:0:0:0:
256,192,22848,1,0,0:0:0:0:
256,192,22966,1,0,0:0:0:0:
256,192,23083,1,8,0:0:0:0:
256,192,23200,1,0,0:0:0:0:
256,192,23317,1,8,0:0:0:0:
256,192,23376,1,8,0:0:0:0:
256,192,23434,1,8,0:0:0:0:
256,192,23552,1,0,0:0:0:0:
256,192,23786,1,8,0:0:0:0:
256,192,23903,1,8,0:0:0:0:
256,192,24020,1,0,0:0:0:0:
256,192,24137,1,0,0:0:0:0:
256,192,24255,1,8,0:0:0:0:
256,192,24489,1,0,0:0:0:0:
256,192,24606,1,0,0:0:0:0:
256,192,24723,1,8,0:0:0:0:
256,192,24841,1,0,0:0:0:0:
256,192,25075,1,0,0:0:0:0:
256,192,25192,1,8,0:0:0:0:
256,192,25427,1,8,0:0:0:0:
256,192,25661,1,8,0:0:0:0:
256,192,25778,1,8,0:0:0:0:
256,192,25895,1,0,0:0:0:0:
256,192,26012,1,0,0:0:0:0:
256,192,26130,1,8,0:0:0:0:
256,192,26247,1,0,0:0:0:0:
256,192,26364,1,8,0:0:0:0:
256,192,26598,1,8,0:0:0:0:
256,192,26716,1,8,0:0:0:0:
256,192,26833,1,0,0:0:0:0:
256,192,26950,1,8,0:0:0:0:
256,192,27067,1,8,0:0:0:0:
256,192,27184,1,0,0:0:0:0:
256,192,27302,1,8,0:0:0:0:
256,192,27536,1,8,0:0:0:0:
256,192,27653,1,8,0:0:0:0:
256,192,27770,1,0,0:0:0:0:
256,192,27887,1,0,0:0:0:0:
256,192,28005,1,8,0:0:0:0:
256,192,28239,1,0,0:0:0:0:
256,192,28356,1,8,0:0:0:0:
256,192,28473,1,8,0:0:0:0:
256,192,28591,1,8,0:0:0:0:
256,192,28708,1,0,0:0:0:0:
256,192,28825,1,8,0:0:0:0:
256,192,28942,1,0,0:0:0:0:
256,192,29059,1,8,0:0:0:0:
256,192,29177,1,0,0:0:0:0:
256,192,29294,1,0,0:0:0:0:
256,192,29411,1,8,0:0:0:0:
256,192,29528,1,0,0:0:0:0:
256,192,29645,1,8,0:0:0:0:
256,192,29762,1,0,0:0:0:0:
256,192,29880,1,8,0:0:0:0:
256,192,29997,1,0,0:0:0:0:
256,192,30055,1,0,0:0:0:0:
256,192,30114,1,8,0:0:0:0:
256,192,30231,1,8,0:0:0:0:
256,192,30348,1,0,0:0:0:0:
256,192,30466,1,0,0:0:0:0:
256,192,30583,1,8,0:0:0:0:
256,192,30700,1,0,0:0:0:0:
256,192,30817,1,8,0:0:0:0:
256,192,30876,1,8,0:0:0:0:
256,192,30934,1,8,0:0:0:0:
256,192,31052,1,0,0:0:0:0:
256,192,31286,1,8,0:0:0:0:
256,192,31403,1,8,0:0:0:0:
256,192,31520,1,0,0:0:0:0:
256,192,31637,1,0,0:0:0:0:
256,192,31755,1,8,0:0:0:0:
256,192,31989,1,0,0:0:0:0:
256,192,32106,1,0,0:0:0:0:
256,192,32223,1,8,0:0:0:0:
256,192,32341,1,0,0:0:0:0:
256,192,32575,1,0,0:0:0:0:
256,192,32692,1,8,0:0:0:0:
256,192,32927,1,8,0:0:0:0:
256,192,33161,1,0,0:0:0:0:
256,192,33278,1,8,0:0:0:0:
256,192,33395,1,0,0:0:0:0:
256,192,33512,1,8,0:0:0:0:
256,192,33630,1,8,0:0:0:0:
256,192,33747,1,0,0:0:0:0:
256,192,33864,1,8,0:0:0:0:
256,192,34098,1,8,0:0:0:0:
256,192,34216,1,8,0:0:0:0:
256,192,34333,1,0,0:0:0:0:
256,192,34450,1,0,0:0:0:0:
256,192,34567,1,8,0:0:0:0:
256,192,34684,1,0,0:0:0:0:
256,192,34802,1,8,0:0:0:0:
256,192,35036,1,0,0:0:0:0:
256,192,35153,1,0,0:0:0:0:
256,192,35270,1,8,0:0:0:0:
256,192,35387,1,0,0:0:0:0:
256,192,35505,1,8,0:0:0:0:
256,192,35739,5,0,0:0:0:0:
256,192,35856,5,0,0:0:0:0:
256,192,35973,1,8,0:0:0:0:
256,192,36091,1,8,0:0:0:0:
256,192,36208,1,0,0:0:0:0:
256,192,36325,1,0,0:0:0:0:
256,192,36442,1,8,0:0:0:0:
256,192,36559,1,0,0:0:0:0:
256,192,36677,5,8,0:0:0:0:
256,192,36794,1,0,0:0:0:0:
256,192,36911,1,0,0:0:0:0:
256,192,37028,1,8,0:0:0:0:
256,192,37145,1,0,0:0:0:0:
256,192,37262,1,0,0:0:0:0:
256,192,37380,1,8,0:0:0:0:
256,192,37497,1,0,0:0:0:0:
256,192,37614,1,0,0:0:0:0:
256,192,37731,1,8,0:0:0:0:
256,192,37848,5,8,0:0:0:0:
256,192,37966,5,0,0:0:0:0:
256,192,38083,1,8,0:0:0:0:
256,192,38200,1,8,0:0:0:0:
256,192,38317,5,0,0:0:0:0:
256,192,38552,1,8,0:0:0:0:
256,192,38669,1,8,0:0:0:0:
256,192,38903,1,8,0:0:0:0:
256,192,39020,1,0,0:0:0:0:
256,192,39137,1,8,0:0:0:0:
256,192,39372,1,8,0:0:0:0:
256,192,39489,1,0,0:0:0:0:
256,192,39723,1,0,0:0:0:0:
256,192,39958,1,8,0:0:0:0:
256,192,40192,1,0,0:0:0:0:
256,192,40309,1,0,0:0:0:0:
256,192,40427,1,8,0:0:0:0:
256,192,40544,1,0,0:0:0:0:
256,192,40778,1,8,0:0:0:0:
256,192,40895,1,0,0:0:0:0:
256,192,41012,1,8,0:0:0:0:
256,192,41247,1,0,0:0:0:0:
256,192,41364,1,8,0:0:0:0:
256,192,41598,1,0,0:0:0:0:
256,192,41833,1,8,0:0:0:0:
256,192,42067,1,0,0:0:0:0:
256,192,42184,1,0,0:0:0:0:
256,192,42302,1,8,0:0:0:0:
256,192,42419,1,8,0:0:0:0:
256,192,42653,1,8,0:0:0:0:
256,192,42770,1,0,0:0:0:0:
256,192,42887,1,8,0:0:0:0:
256,192,43122,1,8,0:0:0:0:
256,192,43239,1,0,0:0:0:0:
256,192,43473,1,0,0:0:0:0:
256,192,43708,1,8,0:0:0:0:
256,192,43942,1,0,0:0:0:0:
256,192,44059,1,0,0:0:0:0:
256,192,44177,1,8,0:0:0:0:
256,192,44294,1,0,0:0:0:0:
256,192,44528,1,8,0:0:0:0:
256,192,44645,1,0,0:0:0:0:
256,192,44762,1,8,0:0:0:0:
256,192,44997,1,8,0:0:0:0:
256,192,45114,1,0,0:0:0:0:
256,192,45348,1,0,0:0:0:0:
256,192,45466,1,0,0:0:0:0:
256,192,45583,1,8,0:0:0:0:
256,192,45700,1,8,0:0:0:0:
256,192,45817,1,0,0:0:0:0:
256,192,45934,1,0,0:0:0:0:
256,192,46052,1,8,0:0:0:0:
256,192,46169,1,8,0:0:0:0:
256,192,46403,1,8,0:0:0:0:
256,192,46520,1,0,0:0:0:0:
256,192,46637,1,8,0:0:0:0:
256,192,46872,1,8,0:0:0:0:
256,192,46989,1,0,0:0:0:0:
256,192,47106,1,8,0:0:0:0:
256,192,47223,1,0,0:0:0:0:
256,192,47458,1,8,0:0:0:0:
256,192,47692,1,0,0:0:0:0:
256,192,47809,1,0,0:0:0:0:
256,192,47927,1,8,0:0:0:0:
256,192,48044,1,0,0:0:0:0:
256,192,48278,1,8,0:0:0:0:
256,192,48395,1,0,0:0:0:0:
256,192,48512,1,8,0:0:0:0:
256,192,48747,1,0,0:0:0:0:
256,192,48864,1,8,0:0:0:0:
256,192,48981,1,8,0:0:0:0:
256,192,49098,1,0,0:0:0:0:
256,192,49333,1,8,0:0:0:0:
256,192,49567,1,0,0:0:0:0:
256,192,49684,1,0,0:0:0:0:
256,192,49802,1,8,0:0:0:0:
256,192,49919,1,8,0:0:0:0:
256,192,50153,1,8,0:0:0:0:
256,192,50270,1,0,0:0:0:0:
256,192,50387,1,8,0:0:0:0:
256,192,50622,1,8,0:0:0:0:
256,192,50739,1,0,0:0:0:0:
256,192,50856,1,8,0:0:0:0:
256,192,50973,1,0,0:0:0:0:
256,192,51208,5,8,0:0:0:0:
256,192,51442,1,0,0:0:0:0:
256,192,51559,1,0,0:0:0:0:
256,192,51677,1,8,0:0:0:0:
256,192,51794,1,0,0:0:0:0:
256,192,52028,1,8,0:0:0:0:
256,192,52145,1,0,0:0:0:0:
256,192,52262,1,8,0:0:0:0:
256,192,52497,5,0,0:0:0:0:
256,192,52614,1,8,0:0:0:0:
256,192,52731,5,0,0:0:0:0:
256,192,52790,1,0,0:0:0:0:
256,192,52848,1,8,0:0:0:0:
256,192,52966,1,8,0:0:0:0:
256,192,53083,1,0,0:0:0:0:
256,192,53200,1,0,0:0:0:0:
256,192,53317,1,8,0:0:0:0:
256,192,53434,1,0,0:0:0:0:
256,192,53552,5,8,0:0:0:0:
256,192,53786,1,0,0:0:0:0:
256,192,53903,1,8,0:0:0:0:
256,192,54137,1,0,0:0:0:0:
256,192,54255,1,8,0:0:0:0:
256,192,54372,1,8,0:0:0:0:
256,192,54489,1,0,0:0:0:0:
256,192,54606,1,8,0:0:0:0:
256,192,54841,1,8,0:0:0:0:
256,192,54958,1,0,0:0:0:0:
256,192,55036,1,0,0:0:0:0:
256,192,55114,1,0,0:0:0:0:
256,192,55192,1,8,0:0:0:0:
256,192,55309,1,0,0:0:0:0:
256,192,55427,1,8,0:0:0:0:
256,192,55661,1,8,0:0:0:0:
256,192,55778,1,0,0:0:0:0:
256,192,56012,1,8,0:0:0:0:
256,192,56130,1,0,0:0:0:0:
256,192,56247,1,0,0:0:0:0:
256,192,56364,1,8,0:0:0:0:
256,192,56481,1,8,0:0:0:0:
256,192,56716,1,0,0:0:0:0:
256,192,56833,1,8,0:0:0:0:
256,192,56911,1,0,0:0:0:0:
256,192,56989,1,0,0:0:0:0:
256,192,57067,1,8,0:0:0:0:
256,192,57184,1,0,0:0:0:0:
256,192,57302,1,8,0:0:0:0:
256,192,57536,1,0,0:0:0:0:
256,192,57653,1,8,0:0:0:0:
256,192,57887,1,8,0:0:0:0:
256,192,58005,1,0,0:0:0:0:
256,192,58122,1,0,0:0:0:0:
256,192,58239,1,8,0:0:0:0:
256,192,58356,1,0,0:0:0:0:
256,192,58473,1,8,0:0:0:0:
256,192,58591,1,8,0:0:0:0:
256,192,58708,1,0,0:0:0:0:
256,192,58786,1,8,0:0:0:0:
256,192,58864,1,8,0:0:0:0:
256,192,58942,1,0,0:0:0:0:
256,192,59059,1,0,0:0:0:0:
256,192,59177,1,8,0:0:0:0:
256,192,59411,1,0,0:0:0:0:
256,192,59528,1,8,0:0:0:0:
256,192,59762,1,8,0:0:0:0:
256,192,59880,1,0,0:0:0:0:
256,192,60114,1,0,0:0:0:0:
256,192,60231,1,8,0:0:0:0:
256,192,60348,1,8,0:0:0:0:
256,192,60466,1,0,0:0:0:0:
256,192,60583,1,8,0:0:0:0:
256,192,60661,1,0,0:0:0:0:
256,192,60739,1,0,0:0:0:0:
256,192,60817,1,8,0:0:0:0:
256,192,61052,1,8,0:0:0:0:
256,192,61286,1,0,0:0:0:0:
256,192,61403,1,8,0:0:0:0:
256,192,61520,1,8,0:0:0:0:
256,192,61637,1,8,0:0:0:0:
256,192,61755,1,0,0:0:0:0:
256,192,61872,1,8,0:0:0:0:
256,192,61989,1,0,0:0:0:0:
256,192,62106,1,8,0:0:0:0:
256,192,62341,1,0,0:0:0:0:
256,192,62458,1,8,0:0:0:0:
256,192,62536,1,0,0:0:0:0:
256,192,62614,1,0,0:0:0:0:
256,192,62692,1,8,0:0:0:0:
256,192,62809,1,0,0:0:0:0:
256,192,62927,1,8,0:0:0:0:
256,192,63161,1,0,0:0:0:0:
256,192,63278,1,8,0:0:0:0:
256,192,63512,1,0,0:0:0:0:
256,192,63630,1,8,0:0:0:0:
256,192,63747,1,8,0:0:0:0:
256,192,63864,1,8,0:0:0:0:
256,192,63981,1,0,0:0:0:0:
256,192,64216,1,0,0:0:0:0:
256,192,64333,1,8,0:0:0:0:
256,192,64450,1,0,0:0:0:0:
256,192,64567,1,8,0:0:0:0:
256,192,64684,1,8,0:0:0:0:
256,192,64802,1,8,0:0:0:0:
256,192,64919,1,0,0:0:0:0:
256,192,65153,1,8,0:0:0:0:
256,192,65270,1,0,0:0:0:0:
256,192,65387,1,8,0:0:0:0:
256,192,65505,1,8,0:0:0:0:
256,192,65622,1,0,0:0:0:0:
256,192,65739,1,8,0:0:0:0:
256,192,65856,1,8,0:0:0:0:
256,192,66091,1,0,0:0:0:0:
256,192,66208,1,8,0:0:0:0:
256,192,66286,1,8,0:0:0:0:
256,192,66364,1,0,0:0:0:0:
256,192,66442,1,8,0:0:0:0:
256,192,66559,1,0,0:0:0:0:
256,192,66677,1,0,0:0:0:0:
256,192,66794,1,8,0:0:0:0:
256,192,66911,1,8,0:0:0:0:
256,192,67028,1,0,0:0:0:0:
256,192,67262,1,0,0:0:0:0:
256,192,67380,1,8,0:0:0:0:
256,192,67497,1,8,0:0:0:0:
256,192,67614,1,0,0:0:0:0:
256,192,67731,1,0,0:0:0:0:
256,192,67966,1,0,0:0:0:0:
256,192,68200,1,0,0:0:0:0:
256,192,68317,1,0,0:0:0:0:
256,192,68434,1,0,0:0:0:0:
256,192,68552,1,8,0:0:0:0:
256,192,68786,1,0,0:0:0:0:
256,192,68903,1,8,0:0:0:0:
256,192,69020,1,0,0:0:0:0:
256,192,69137,1,0,0:0:0:0:
256,192,69255,1,8,0:0:0:0:
256,192,69372,1,8,0:0:0:0:
256,192,69489,1,0,0:0:0:0:
256,192,69606,1,8,0:0:0:0:
256,192,69723,1,0,0:0:0:0:
256,192,69841,1,8,0:0:0:0:
256,192,69958,1,0,0:0:0:0:
256,192,70075,1,8,0:0:0:0:
256,192,70192,1,0,0:0:0:0:
256,192,70309,1,0,0:0:0:0:
256,192,70427,1,8,0:0:0:0:
256,192,70661,1,8,0:0:0:0:
256,192,70778,1,0,0:0:0:0:
256,192,71012,1,8,0:0:0:0:
256,192,71130,1,0,0:0:0:0:
256,192,71247,1,8,0:0:0:0:
256,192,71364,1,8,0:0:0:0:
256,192,71481,1,0,0:0:0:0:
256,192,71598,1,8,0:0:0:0:
256,192,71716,1,0,0:0:0:0:
256,192,71833,1,8,0:0:0:0:
256,192,71911,1,0,0:0:0:0:
256,192,71989,1,0,0:0:0:0:
256,192,72067,1,8,0:0:0:0:
256,192,72184,1,0,0:0:0:0:
256,192,72302,1,8,0:0:0:0:
256,192,72536,1,0,0:0:0:0:
256,192,72653,1,8,0:0:0:0:
256,192,72887,1,8,0:0:0:0:
256,192,73005,1,0,0:0:0:0:
256,192,73122,1,0,0:0:0:0:
256,192,73239,1,8,0:0:0:0:
256,192,73356,1,0,0:0:0:0:
256,192,73473,1,8,0:0:0:0:
256,192,73591,1,8,0:0:0:0:
256,192,73708,1,0,0:0:0:0:
256,192,73786,1,8,0:0:0:0:
256,192,73864,1,8,0:0:0:0:
256,192,73942,1,0,0:0:0:0:
256,192,74059,1,0,0:0:0:0:
256,192,74177,1,8,0:0:0:0:
256,192,74411,1,0,0:0:0:0:
256,192,74528,1,8,0:0:0:0:
256,192,74762,1,8,0:0:0:0:
256,192,74880,1,0,0:0:0:0:
256,192,75114,1,0,0:0:0:0:
256,192,75231,1,8,0:0:0:0:
256,192,75348,1,8,0:0:0:0:
256,192,75466,1,0,0:0:0:0:
256,192,75524,1,0,0:0:0:0:
256,192,75583,1,8,0:0:0:0:
256,192,75661,1,0,0:0:0:0:
256,192,75739,1,0,0:0:0:0:
256,192,75817,1,8,0:0:0:0:
256,192,76052,1,8,0:0:0:0:
256,192,76169,1,8,0:0:0:0:
256,192,76286,1,0,0:0:0:0:
256,192,76403,1,8,0:0:0:0:
256,192,76520,1,0,0:0:0:0:
256,192,76637,1,8,0:0:0:0:
256,192,76755,1,0,0:0:0:0:
256,192,76872,1,0,0:0:0:0:
256,192,76989,1,8,0:0:0:0:
256,192,77106,1,8,0:0:0:0:
256,192,77223,1,0,0:0:0:0:
256,192,77341,1,0,0:0:0:0:
256,192,77458,1,8,0:0:0:0:
256,192,77536,1,0,0:0:0:0:
256,192,77614,1,0,0:0:0:0:
256,192,77692,1,8,0:0:0:0:
256,192,77809,1,0,0:0:0:0:
256,192,77927,1,8,0:0:0:0:
256,192,78044,1,0,0:0:0:0:
256,192,78161,1,8,0:0:0:0:
256,192,78278,1,0,0:0:0:0:
256,192,78395,1,0,0:0:0:0:
256,192,78512,1,0,0:0:0:0:
256,192,78630,1,8,0:0:0:0:
256,192,78747,1,8,0:0:0:0:
256,192,78864,1,0,0:0:0:0:
256,192,78923,1,0,0:0:0:0:
256,192,78981,1,8,0:0:0:0:
256,192,79098,1,8,0:0:0:0:
256,192,79216,1,0,0:0:0:0:
256,192,79333,1,8,0:0:0:0:
256,192,79450,1,0,0:0:0:0:
256,192,79567,1,8,0:0:0:0:
256,192,79684,1,8,0:0:0:0:
256,192,79802,1,8,0:0:0:0:
256,192,79919,1,0,0:0:0:0:
256,192,80153,1,8,0:0:0:0:
256,192,80270,1,0,0:0:0:0:
256,192,80387,1,8,0:0:0:0:
256,192,80505,1,8,0:0:0:0:
256,192,80622,1,0,0:0:0:0:
256,192,80739,1,8,0:0:0:0:
256,192,80856,1,8,0:0:0:0:
256,192,81091,1,8,0:0:0:0:
256,192,81325,1,8,0:0:0:0:
256,192,81442,1,0,0:0:0:0:
256,192,81559,1,0,0:0:0:0:
256,192,81677,1,8,0:0:0:0:
256,192,81794,1,0,0:0:0:0:
256,192,81911,1,8,0:0:0:0:
256,192,82028,1,0,0:0:0:0:
256,192,82145,1,0,0:0:0:0:
256,192,82262,1,8,0:0:0:0:
256,192,82380,1,0,0:0:0:0:
256,192,82497,1,8,0:0:0:0:
256,192,82614,1,8,0:0:0:0:
256,192,82731,1,0,0:0:0:0:
256,192,82966,1,0,0:0:0:0:
256,192,83200,1,0,0:0:0:0:
256,192,83317,1,0,0:0:0:0:
256,192,83434,1,8,0:0:0:0:
256,192,83552,1,8,0:0:0:0:
256,192,83786,1,8,0:0:0:0:
256,192,83903,1,0,0:0:0:0:
256,192,84020,1,0,0:0:0:0:
256,192,84137,1,0,0:0:0:0:
256,192,84255,1,8,0:0:0:0:
256,192,84489,1,8,0:0:0:0:
256,192,84723,1,0,0:0:0:0:
256,192,84841,1,8,0:0:0:0:
256,192,84958,1,0,0:0:0:0:
256,192,85075,1,0,0:0:0:0:
256,192,85192,1,8,0:0:0:0:
256,192,85427,1,8,0:0:0:0:
256,192,85661,1,0,0:0:0:0:
256,192,85778,1,8,0:0:0:0:
256,192,86012,1,8,0:0:0:0:
256,192,86130,1,0,0:0:0:0:
256,192,86247,1,0,0:0:0:0:
256,192,86364,1,8,0:0:0:0:
256,192,86481,1,0,0:0:0:0:
256,192,86598,1,8,0:0:0:0:
256,192,86716,1,8,0:0:0:0:
256,192,86833,1,0,0:0:0:0:
256,192,86911,1,8,0:0:0:0:
256,192,86989,1,8,0:0:0:0:
256,192,87067,1,0,0:0:0:0:
256,192,87184,1,0,0:0:0:0:
256,192,87302,1,8,0:0:0:0:
256,192,87536,1,8,0:0:0:0:
256,192,87653,1,8,0:0:0:0:
256,192,87770,1,0,0:0:0:0:
256,192,87887,1,0,0:0:0:0:
256,192,88005,1,8,0:0:0:0:
256,192,88239,1,8,0:0:0:0:
256,192,88473,1,0,0:0:0:0:
256,192,88591,1,8,0:0:0:0:
256,192,88708,1,0,0:0:0:0:
256,192,88825,1,0,0:0:0:0:
256,192,88942,1,8,0:0:0:0:
256,192,89177,1,8,0:0:0:0:
256,192,89411,1,0,0:0:0:0:
256,192,89528,1,8,0:0:0:0:
256,192,89762,1,8,0:0:0:0:
256,192,89880,1,8,0:0:0:0:
256,192,89997,1,0,0:0:0:0:
256,192,90114,1,8,0:0:0:0:
256,192,90348,1,0,0:0:0:0:
256,192,90466,1,8,0:0:0:0:
256,192,90583,1,0,0:0:0:0:
256,192,90661,1,0,0:0:0:0:
256,192,90739,1,0,0:0:0:0:
256,192,90817,1,8,0:0:0:0:
256,192,90934,1,0,0:0:0:0:
256,192,91052,1,8,0:0:0:0:
256,192,91286,5,8,0:0:0:0:
256,192,91403,1,0,0:0:0:0:
256,192,91520,1,0,0:0:0:0:
256,192,91637,1,0,0:0:0:0:
256,192,91755,1,8,0:0:0:0:
256,192,91989,1,8,0:0:0:0:
256,192,92223,1,0,0:0:0:0:
256,192,92341,1,8,0:0:0:0:
256,192,92458,1,0,0:0:0:0:
256,192,92575,5,0,0:0:0:0:
256,192,92692,1,8,0:0:0:0:
256,192,92927,1,8,0:0:0:0:
256,192,93161,1,0,0:0:0:0:
256,192,93278,1,8,0:0:0:0:
256,192,93512,5,8,0:0:0:0:
256,192,93630,1,0,0:0:0:0:
256,192,93747,1,0,0:0:0:0:
256,192,93864,1,8,0:0:0:0:
256,192,93981,5,0,0:0:0:0:
256,192,94098,1,8,0:0:0:0:
256,192,94216,1,8,0:0:0:0:
256,192,94333,1,0,0:0:0:0:
256,192,94411,1,8,0:0:0:0:
256,192,94489,1,8,0:0:0:0:
256,192,94567,1,0,0:0:0:0:
256,192,94684,1,0,0:0:0:0:
256,192,94802,1,8,0:0:0:0:
256,192,95036,1,8,0:0:0:0:
256,192,95153,5,0,0:0:0:0:
256,192,95212,1,0,0:0:0:0:
256,192,95270,1,8,0:0:0:0:
256,192,95387,1,0,0:0:0:0:
256,192,95505,1,8,0:0:0:0:
256,192,95739,1,8,0:0:0:0:
256,192,95973,1,0,0:0:0:0:
256,192,96091,1,8,0:0:0:0:
256,192,96208,1,0,0:0:0:0:
256,192,96325,1,0,0:0:0:0:
256,192,96442,1,8,0:0:0:0:
256,192,96677,1,8,0:0:0:0:
256,192,96911,1,8,0:0:0:0:
256,192,97028,1,0,0:0:0:0:
256,192,97145,1,0,0:0:0:0:
256,192,97262,1,0,0:0:0:0:
256,192,97380,1,8,0:0:0:0:
256,192,97614,1,8,0:0:0:0:
256,192,97731,1,0,0:0:0:0:
256,192,97848,1,0,0:0:0:0:
256,192,97966,1,8,0:0:0:0:
256,192,98083,1,8,0:0:0:0:
256,192,98200,1,0,0:0:0:0:
256,192,98317,1,8,0:0:0:0:
256,192,98376,1,8,0:0:0:0:
256,192,98434,1,8,0:0:0:0:
256,192,98493,1,8,0:0:0:0:
256,192,98552,1,0,0:0:0:0:
