osu file format v14

[General]
AudioFilename: audio.mp3
AudioLeadIn: 0
PreviewTime: 38090
Countdown: 0
SampleSet: Soft
StackLeniency: 0.5
Mode: 0
LetterboxInBreaks: 0
WidescreenStoryboard: 1

[Editor]
Bookmarks: 5724,17653,28881,38705,49933,61161,69582,78003,86424,93792,105027,116255,128886
DistanceSpacing: 1
BeatDivisor: 4
GridSize: 4
TimelineZoom: 2

[Metadata]
Title:IDSMILE
TitleUnicode:アイディスマイル
Artist:Akiyama Mizuki (CV: Satou Hinata)
ArtistUnicode:暁山瑞希 (CV: 佐藤日向)
Creator:Kudou Chitose
Version:Under the Blooming Sakura Tree.
Source:プロジェクトセカイ カラフルステージ! feat. 初音ミク
Tags:hatsune miku: colorful stage! 25時、ナイトコードで。 25-ji nightcord de. at 25:00 ニーゴ ni-go nightcode project sekai プロセカ proseka puroseka japanese pop jpop j-pop toa id smile mrrrk
BeatmapID:3716495
BeatmapSetID:1811835

[Difficulty]
HPDrainRate:7
CircleSize:4
OverallDifficulty:8
ApproachRate:9
SliderMultiplier:1.8
SliderTickRate:1

[Events]
//Background and Video events
0,0,"bgmzk.jpg",0,0
//Break Periods
//Storyboard Layer 0 (Background)
//Storyboard Layer 1 (Fail)
//Storyboard Layer 2 (Pass)
//Storyboard Layer 3 (Foreground)
//Storyboard Layer 4 (Overlay)
//Storyboard Sound Samples

[TimingPoints]
110,350.877192982456,4,2,1,50,1,0
110,-100,4,2,1,50,0,0
5197,-100,4,2,1,55,0,0
5724,-100,4,2,1,60,0,0
6952,-125,4,2,1,60,0,0
7302,-166.666666666667,4,2,1,60,0,0
7653,-250,4,2,1,60,0,0
8004,-100,4,2,1,60,0,0
15022,-125,4,2,1,60,0,0
15899,-200,4,2,1,60,0,0
16250,-200,4,2,1,5,0,0
17127,-100,4,2,1,60,0,0
17653,350.877192982456,4,2,1,70,1,0
17653,-100,4,2,1,70,0,0
28179,-83.3333333333333,4,2,1,70,0,0
28530,-100,4,2,1,70,0,0
28881,350.877192982456,3,2,1,65,1,0
28881,-125,3,2,1,65,0,0
35898,350.877192982456,4,2,1,60,1,0
35898,-166.666666666667,4,2,1,60,0,0
38705,350.877192982456,4,2,1,80,1,1
38705,-66.6666666666667,4,2,1,80,0,1
39055,-83.3333333333333,4,2,1,80,0,1
39231,-66.6666666666667,4,2,1,80,0,1
39582,-83.3333333333333,4,2,1,80,0,1
40108,-111.111111111111,4,2,1,80,0,1
40810,-90.9090909090909,4,2,1,80,0,1
41512,-83.3333333333333,4,2,1,80,0,1
42915,-100,4,2,1,80,0,1
43968,-142.857142857143,4,2,1,80,0,1
44319,-100,4,2,1,80,0,1
46073,-125,4,2,1,80,0,1
46424,-111.111111111111,4,2,1,80,0,1
46775,-100,4,2,1,80,0,1
47126,-66.6666666666667,4,2,1,80,0,1
47476,-83.3333333333333,4,2,1,80,0,1
47827,-125,4,2,1,80,0,1
49933,-83.3333333333333,4,2,1,80,0,1
50459,-100,4,2,1,80,0,1
51161,-83.3333333333333,4,2,1,80,0,1
52038,-100,4,2,1,80,0,1
53617,-83.3333333333333,4,2,1,80,0,1
53968,-83.3333333333333,4,2,1,80,0,1
55547,-66.6666666666667,4,2,1,80,0,1
55897,-83.3333333333333,4,2,1,80,0,1
58003,-66.6666666666667,4,2,1,80,0,1
58354,-83.3333333333333,4,2,1,80,0,1
61161,350.877192982456,3,2,1,65,1,0
61161,-125,3,2,1,65,0,0
78003,350.877192982456,6,2,1,70,1,0
78003,-100,6,2,1,70,0,0
87125,-200,6,2,1,70,0,0
93792,350.877192982456,4,2,1,70,1,0
93792,-100,4,2,1,70,0,0
95195,-100,4,2,1,70,0,0
96072,-200,4,2,1,50,0,0
96599,350.877192982456,4,2,1,50,1,0
96599,-166.666666666667,4,2,1,50,0,0
105020,350.877192982456,4,2,1,50,1,0
105020,-66.6666666666667,4,2,1,80,0,1
105370,-83.3333333333333,4,2,1,80,0,1
105546,-66.6666666666667,4,2,1,80,0,1
105897,-83.3333333333333,4,2,1,80,0,1
106423,-111.111111111111,4,2,1,80,0,1
106949,-90.9090909090908,4,2,1,80,0,1
107827,-83.3333333333333,4,2,1,80,0,1
109230,-100,4,2,1,80,0,1
110283,-142.857142857143,4,2,1,80,0,1
110634,-100,4,2,1,80,0,1
112388,-125,4,2,1,80,0,1
112739,-111.111111111111,4,2,1,80,0,1
113090,-100,4,2,1,80,0,1
113441,-66.6666666666667,4,2,1,80,0,1
113791,-83.3333333333333,4,2,1,80,0,1
114142,-125,4,2,1,80,0,1
116248,-83.3333333333333,4,2,1,80,0,1
116774,-100,4,2,1,80,0,1
117476,-83.3333333333333,4,2,1,80,0,1
118353,-100,4,2,1,80,0,1
119932,-83.3333333333333,4,2,1,80,0,1
120283,-83.3333333333333,4,2,1,80,0,1
121862,-66.6666666666667,4,2,1,80,0,1
122212,-83.3333333333333,4,2,1,80,0,1
124318,-66.6666666666667,4,2,1,80,0,1
124669,-83.3333333333333,4,2,1,80,0,1
127476,-100,4,2,1,80,0,1
128879,-250,4,2,1,70,0,0

[Colours]
Combo1 : 232,125,129
Combo2 : 255,191,244
Combo3 : 150,119,202
Combo4 : 138,237,242

[HitObjects]
0,0,110,5,2,0:0:0:0:
71,9,285,1,2,0:0:0:0:
142,18,460,1,6,0:0:0:0:
149,35,987,5,0,0:0:0:0:
156,52,1338,5,0,0:0:0:0:
156,52,2039,1,0,0:0:0:0:
163,69,2566,5,0,0:0:0:0:
170,86,2917,5,2,0:0:0:0:
241,95,3092,1,2,0:0:0:0:
312,104,3267,1,6,0:0:0:0:
319,121,3794,5,0,0:0:0:0:
326,138,4145,5,0,0:0:0:0:
326,138,4846,1,0,0:0:0:0:
333,155,5197,5,2,0:0:0:0:
404,164,5373,1,2,0:0:0:0:
262,146,5548,1,0,0:0:0:0:
447,107,5724,6,0,B|407:236|407:236|426:250|426:250|444:237,1,180,8|2,0:1|0:0,0:0:0:0:
268,259,6250,5,8,0:1:0:0:
292,226,6338,1,8,0:1:0:0:
333,231,6425,1,0,1:0:0:0:
324,301,6601,1,0,0:0:0:0:
168,280,6952,6,0,P|179:246|212:221,1,72,2|0,0:0|0:0,0:0:0:0:
99,249,7302,2,0,P|90:274|95:300,1,53.9999999999999,8|0,0:1|0:0,0:0:0:0:
38,348,7653,2,0,P|27:333|22:316,1,36,2|0,0:0|1:0,0:0:0:0:
71,156,8004,5,0,0:0:0:0:
0,147,8180,1,2,0:0:0:0:
142,165,8355,1,8,0:1:0:0:
179,148,8443,1,8,0:1:0:0:
185,108,8531,6,0,B|144:237|144:237|157:252|157:252|172:229,1,180,8|2,0:1|0:0,0:0:0:0:
114,99,9057,1,8,0:1:0:0:
247,198,9232,1,8,1:0:0:0:
475,98,9408,5,2,0:0:0:0:
404,73,9583,1,2,0:0:0:0:
461,24,9759,1,2,0:0:0:0:
404,73,9934,5,8,0:1:0:0:
475,98,10109,1,8,0:1:0:0:
475,98,10460,5,8,0:1:0:0:
404,73,10636,1,0,1:0:0:0:
489,172,10811,1,2,0:0:0:0:
461,24,10987,1,2,0:0:0:0:
417,147,11162,1,0,0:0:0:0:
203,71,11338,6,0,B|231:203|231:203|212:214|212:214|199:190,1,180,8|2,0:1|0:0,0:0:0:0:
363,205,11864,1,8,0:1:0:0:
343,169,11952,1,8,0:1:0:0:
301,168,12039,1,0,1:0:0:0:
300,241,12215,6,0,P|345:168|435:174,2,180,2|0|8,0:0|0:0|0:1,0:0:0:0:
477,384,13267,1,0,0:0:0:0:
477,384,13443,2,0,P|458:365|434:362,1,45,0|0,1:0|0:0,0:0:0:0:
407,240,13794,2,0,P|382:247|367:266,1,45,2|0,0:0|0:0,0:0:0:0:
366,339,13969,5,2,0:0:0:0:
503,311,14145,2,0,P|462:234|377:232,1,180,8|0,0:1|0:0,0:0:0:0:
245,284,14671,1,8,0:1:0:0:
282,299,14759,1,8,0:1:0:0:
317,280,14846,1,0,1:0:0:0:
144,183,15022,6,0,P|153:219|190:248,1,72
276,195,15373,1,8,0:1:0:0:
276,195,15724,5,8,0:1:0:0:
174,321,15899,2,0,P|139:330|82:313,1,90,8|0,0:1|0:0,0:0:0:0:
425,67,17127,5,2,0:0:0:0:
488,34,17302,1,2,0:0:0:0:
365,29,17478,1,0,0:0:0:0:
485,105,17653,6,0,B|501:130|501:130|499:135|499:135|493:128,1,45,12|0,0:1|0:0,0:0:0:0:
368,174,17828,1,8,0:1:0:0:
405,158,17916,1,8,0:1:0:0:
439,180,18003,1,0,1:0:0:0:
423,359,18179,5,2,0:0:0:0:
416,336,18267,1,2,0:0:0:0:
393,327,18354,2,0,P|399:297|392:217,1,90,8|8,0:0|0:1,0:0:0:0:
302,152,18705,1,2,0:0:0:0:
110,221,18881,6,0,P|132:241|283:274,1,180,8|2,0:1|0:0,0:0:0:0:
273,275,19407,1,2,0:0:0:0:
109,315,19582,2,0,P|85:310|38:315,1,45,8|0,0:1|0:0,0:0:0:0:
177,344,19758,1,8,0:0:0:0:
94,87,19933,5,2,0:0:0:0:
76,158,20109,1,8,0:1:0:0:
23,106,20284,1,2,0:0:0:0:
165,68,20460,6,0,B|186:47|186:47|180:41|180:41|179:48,1,45,8|0,0:1|0:0,0:0:0:0:
257,177,20635,1,8,0:1:0:0:
223,153,20723,1,8,0:1:0:0:
223,113,20810,1,0,1:0:0:0:
168,270,20986,5,2,0:0:0:0:
196,265,21074,1,2,0:0:0:0:
203,238,21161,2,0,P|222:197|222:151,1,90,8|8,0:0|0:1,0:0:0:0:
112,16,21512,1,2,0:0:0:0:
52,209,21688,6,0,P|74:206|102:193,1,45,0|0,1:0|0:0,0:0:0:0:
145,137,21863,1,2,0:0:0:0:
287,83,22038,2,0,P|244:73|199:80,1,90,8|2,0:1|0:0,0:0:0:0:
272,384,22389,5,8,0:1:0:0:
167,306,22565,2,0,P|147:294|137:272,1,45,8|0,0:0|0:0,0:0:0:0:
242,315,22740,1,2,0:0:0:0:
210,193,22916,2,0,P|210:169|224:150,1,45,0|0,1:0|0:0,0:0:0:0:
242,315,23091,1,2,0:0:0:0:
439,373,23267,6,0,B|449:378|449:378|470:373|470:373|458:368,1,45,8|0,0:1|0:0,0:0:0:0:
332,314,23442,1,8,0:1:0:0:
366,292,23530,1,8,0:1:0:0:
403,312,23617,1,0,1:0:0:0:
480,143,23793,5,2,0:0:0:0:
480,166,23881,1,2,0:0:0:0:
460,176,23968,2,0,P|467:218|453:262,1,90,8|8,0:0|0:1,0:0:0:0:
369,374,24319,1,2,0:0:0:0:
297,151,24495,2,0,P|227:209|123:224,2,180,8|0|8,0:1|1:0|0:1,0:0:0:0:
86,53,25372,6,0,B|41:62|41:62|20:58|20:58|48:35|48:35|81:40,1,135,8|0,0:0|0:0,0:0:0:0:
94,34,25723,2,0,B|111:38|111:38|123:68,1,45,2|0,0:0|0:0,0:0:0:0:
107,147,25898,1,2,0:0:0:0:
251,18,26074,6,0,B|226:4|226:4|216:11|216:11|232:15,1,45,8|0,0:1|0:0,0:0:0:0:
374,59,26249,1,8,0:1:0:0:
343,85,26337,1,8,0:1:0:0:
303,70,26424,1,8,1:0:0:0:
239,201,26600,5,2,0:0:0:0:
211,195,26688,1,2,0:0:0:0:
206,168,26775,2,0,P|207:123|233:88,2,90,8|8|2,0:0|0:1|0:0,0:0:0:0:
217,346,27302,5,8,0:1:0:0:
121,328,27477,2,0,P|205:328|233:248,1,180,8|2,0:1|0:0,0:0:0:0:
107,163,28003,5,2,0:0:0:0:
107,163,28062,5,2,0:0:0:0:
107,163,28120,5,2,0:0:0:0:
107,163,28179,6,0,B|138:183|177:185|177:185|189:173|208:167,1,108,8|8,0:0|0:1,0:0:0:0:
396,33,28530,2,0,B|445:30|481:55|481:55|480:61|480:61|464:57|441:63,1,135,8|0,0:0|0:0,0:0:0:0:
432,77,28881,6,0,P|400:92|388:125,1,72,12|0,0:1|0:0,0:0:0:0:
301,208,29231,1,2,0:0:0:0:
365,244,29407,2,0,P|401:234|435:231,1,72,2|0,0:0|0:0,0:0:0:0:
492,303,29758,1,2,0:0:0:0:
492,303,29933,2,0,P|421:307|345:327,1,144,2|2,0:0|0:0,0:0:0:0:
287,375,30635,5,2,0:0:0:0:
141,323,30810,1,8,0:1:0:0:
0,384,30986,6,0,P|56:328|66:263,1,144,12|0,0:1|0:0,0:0:0:0:
129,221,31512,2,0,P|124:186|101:153,1,72,2|0,0:0|0:0,0:0:0:0:
7,38,31863,1,2,0:0:0:0:
74,5,32038,2,0,P|75:69|1:113,2,144,2|2|2,0:0|0:0|0:0,0:0:0:0:
150,93,32916,5,8,0:1:0:0:
261,17,33091,2,0,P|252:50|216:80,1,72,12|0,0:1|0:0,0:0:0:0:
363,107,33442,5,2,0:0:0:0:
396,177,33617,2,0,P|430:187|464:178,1,72,8|0,0:1|0:0,0:0:0:0:
319,259,33968,5,8,0:1:0:0:
319,259,34144,2,0,P|272:206|202:200,1,144,8|2,0:1|0:0,0:0:0:0:
202,200,34845,6,0,P|237:196|279:209,1,72,2|8,0:0|0:1,0:0:0:0:
69,251,35196,2,0,P|73:233|83:218,1,36,2|0,0:0|0:0,0:0:0:0:
138,171,35372,1,8,0:1:0:0:
99,321,35547,1,8,0:0:0:0:
29,60,35898,6,0,P|28:110|81:147,1,108,2|0,0:0|0:0,0:0:0:0:
147,26,36424,1,2,0:0:0:0:
182,21,36599,2,0,P|138:45|132:109,1,108,2|0,0:0|0:0,0:0:0:0:
282,87,37126,1,2,0:0:0:0:
282,87,37301,2,0,P|232:86|195:139,1,108,2|0,0:0|0:0,0:0:0:0:
138,171,38178,5,2,0:0:0:0:
263,155,38354,1,2,0:0:0:0:
196,127,38529,1,0,0:0:0:0:
397,211,38705,6,0,B|430:189|445:113|413:63|356:72|343:112,1,202.5,12|0,0:1|0:0,0:0:0:0:
415,96,39055,2,0,P|429:123|427:163,1,54,8|0,0:0|0:0,0:0:0:0:
273,228,39231,2,0,P|371:214|456:269,1,202.5,8|0,0:1|0:0,0:0:0:0:
512,141,39582,2,0,P|510:171|488:205,1,54,8|0,0:1|0:0,0:0:0:0:
466,222,39757,1,8,0:0:0:0:
330,183,39933,5,2,0:0:0:0:
102,363,40108,2,0,B|145:366|177:340|177:340|133:338|102:363,1,162,8|8,0:1|0:0,0:0:0:0:
340,256,40634,5,2,0:0:0:0:
64,143,40810,2,0,B|86:192|133:211|133:211|116:164|64:143,1,198,8|8,0:1|0:0,0:0:0:0:
399,211,41336,5,2,0:0:0:0:
216,273,41512,2,0,B|259:273|286:313|286:313|268:318|250:314,1,108,8|0,0:1|0:0,0:0:0:0:
330,183,41862,1,8,0:0:0:0:
409,284,42038,5,0,1:0:0:0:
261,155,42213,2,0,B|239:117|257:76|257:76|275:83|279:105,1,108,8|8,0:1|0:1,0:0:0:0:
147,245,42564,1,8,0:0:0:0:
340,256,42740,5,2,0:0:0:0:
138,171,42915,2,0,B|96:172|76:205|81:216|58:249|51:250|42:250|20:261|7:214|41:215,2,180,8|8|8,0:1|0:0|0:1,0:0:0:0:
40,214,43792,5,8,0:1:0:0:
69,296,43968,2,0,P|63:262|77:226,1,62.9999999999999,8|0,0:0|0:0,0:0:0:0:
256,192,44319,5,12,0:1:0:0:
203,125,44494,1,2,0:0:0:0:
308,258,44669,5,8,0:0:0:0:
171,203,44845,1,8,0:1:0:0:
425,168,45020,1,2,0:0:0:0:
425,168,45371,5,8,0:0:0:0:
171,203,45547,1,2,0:0:0:0:
308,258,45722,1,8,0:1:0:0:
256,192,45897,1,8,0:1:0:0:
191,349,46073,6,0,B|193:330|205:316|205:316|202:334|191:349,1,72,8|0,0:0|0:0,0:0:0:0:
425,168,46424,6,0,B|404:177|386:173|386:173|403:165|425:168,1,81.0000000000001,8|8,0:1|0:1,0:0:0:0:
151,56,46775,6,0,B|172:69|179:90|179:90|161:77|151:56,1,90,8|0,0:0|0:0,0:0:0:0:
256,192,47126,6,0,B|209:169|157:191|146:231|142:235|138:239|91:255|65:222,1,202.500007724762,12|0,0:1|0:0,0:0:0:0:
71,217,47476,2,0,P|56:192|61:160,1,53.9999983520508,8|0,0:0|0:0,0:0:0:0:
223,262,47652,1,2,0:0:0:0:
70,163,47827,6,0,P|83:142|96:132,1,36,8|0,0:1|0:0,0:0:0:0:
225,268,48003,2,0,P|234:303|227:268,1,108,8|0,0:1|0:0,0:0:0:0:
51,304,48354,5,8,0:1:0:0:
461,80,48704,1,8,0:1:0:0:
406,23,48880,5,8,0:0:0:0:
440,157,49055,1,2,0:0:0:0:
461,80,49231,1,8,0:1:0:0:
172,81,49406,5,8,0:1:0:0:
306,119,49582,2,0,L|259:136,1,36,8|0,0:0|0:0,0:0:0:0:
250,63,49757,6,0,L|283:50,1,36,8|0,0:1|0:0,0:0:0:0:
206,216,49933,2,0,B|256:67|256:67|279:61|279:61|274:82|274:82|269:70,1,216,12|8,0:1|0:0,0:0:0:0:
70,170,50459,2,0,B|145:155|145:155|130:145,1,90,8|0,0:1|0:0,0:0:0:0:
331,236,50810,2,0,L|281:226,1,45,8|0,0:1|0:0,0:0:0:0:
214,210,50985,1,8,0:0:0:0:
428,370,51161,6,0,B|411:291|406:215|406:215|404:210|412:181|435:176|462:184,1,215.999993408203,2|8,0:0|0:1,0:0:0:0:
268,69,51687,1,8,0:0:0:0:
477,272,51862,1,8,0:1:0:0:
446,267,51950,1,8,0:1:0:0:
429,294,52038,2,0,P|380:301|332:316,1,90,8|0,0:1|0:0,0:0:0:0:
265,312,52389,1,8,0:0:0:0:
121,383,52740,6,0,P|164:370|208:364,1,90,12|0,0:1|0:0,0:0:0:0:
60,330,53090,1,8,0:0:0:0:
83,302,53178,1,2,0:0:0:0:
91,266,53266,1,2,0:0:0:0:
81,231,53354,1,2,0:0:0:0:
57,203,53441,1,2,0:0:0:0:
226,249,53617,2,0,B|198:275|165:279|165:279|172:256|154:221,1,107.999996704102,8|8,0:1|0:0,0:0:0:0:
107,50,53968,6,0,B|124:30|161:31|161:31|188:60|181:103|155:118|151:123|147:128|126:147|130:183,1,215.999993408203,2|8,0:0|0:1,0:0:0:0:
11,269,54494,1,8,0:0:0:0:
205,179,54669,1,8,0:1:0:0:
0,127,54845,5,8,0:1:0:0:
31,196,55020,1,2,0:0:0:0:
281,159,55196,1,8,0:0:0:0:
407,1,55547,6,0,B|375:-2|368:19|368:19|365:34|367:115|396:184,1,202.500007724762,12|0,0:1|0:0,0:0:0:0:
406,159,55897,2,0,P|426:177|450:172,1,53.9999983520508,8|0,0:0|0:0,0:0:0:0:
307,231,56073,1,8,0:1:0:0:
512,18,56248,6,0,P|476:40|500:113,1,107.999996704102,8|8,0:1|0:1,0:0:0:0:
312,335,56599,5,8,0:0:0:0:
386,288,56775,2,0,P|310:315|233:295,1,162,2|0,0:0|0:0,0:0:0:0:
216,312,57126,2,0,P|214:282|207:259,1,54,8|0,0:1|0:0,0:0:0:0:
178,384,57301,1,8,0:0:0:0:
307,231,57476,5,2,0:0:0:0:
76,184,57652,2,0,P|22:221|85:257,1,162,8|0,0:1|0:0,0:0:0:0:
12,236,58003,6,0,B|33:287|101:293|121:253|115:221|111:214|105:205|92:183|91:127|137:105,1,270,8|12,0:0|0:1,0:0:0:0:
136,90,58441,1,2,0:0:0:0:
159,77,58529,1,2,0:0:0:0:
185,73,58617,1,2,0:0:0:0:
210,80,58704,1,8,0:0:0:0:
283,126,58880,1,8,0:1:0:0:
445,140,59055,5,8,0:1:0:0:
430,162,59143,1,2,0:0:0:0:
407,175,59231,1,2,0:0:0:0:
381,179,59319,1,2,0:0:0:0:
356,172,59406,1,8,0:0:0:0:
329,53,59582,1,8,0:0:0:0:
237,199,59757,6,0,P|233:254|257:305,1,108,2|8,0:0|0:1,0:0:0:0:
484,352,60108,5,12,0:1:0:0:
449,308,60225,5,2,0:0:0:0:
397,293,60342,5,2,0:0:0:0:
343,302,60459,5,12,0:0:0:0:
348,334,60576,5,2,0:0:0:0:
372,353,60693,5,2,0:0:0:0:
403,356,60810,5,4,1:0:0:0:
445,140,60985,5,2,0:0:0:0:
510,183,61161,2,0,P|454:161|369:160,1,144,12|0,0:1|0:0,0:0:0:0:
370,159,61687,1,2,0:0:0:0:
302,182,61862,1,2,0:0:0:0:
230,173,62038,1,2,0:0:0:0:
169,135,62213,2,0,P|97:118|24:132,1,144,2|0,0:0|0:0,0:0:0:0:
29,130,63090,5,8,0:1:0:0:
62,63,63266,2,0,P|72:136|43:215,1,144,8|0,0:1|0:0,0:0:0:0:
51,201,63792,1,2,0:0:0:0:
103,150,63968,1,2,0:0:0:0:
170,125,64143,1,2,0:0:0:0:
240,140,64318,2,0,P|230:213|259:292,1,144,2|0,0:0|0:0,0:0:0:0:
300,336,64845,1,8,0:1:0:0:
300,336,65020,1,8,1:0:0:0:
250,278,65196,5,8,0:1:0:0:
300,336,65371,2,0,P|241:290|158:276,1,144,8|0,0:1|0:0,0:0:0:0:
106,300,65897,1,2,0:0:0:0:
106,300,66248,5,2,0:0:0:0:
59,354,66424,2,0,P|127:326|181:261,1,144,2|0,0:0|0:0,0:0:0:0:
142,87,67125,1,2,0:0:0:0:
190,33,67301,1,8,0:1:0:0:
258,10,67476,6,0,P|247:83|277:162,1,144,12|2,0:1|0:0,0:0:0:0:
319,201,68003,1,2,0:0:0:0:
319,201,68353,1,2,0:0:0:0:
268,148,68529,2,0,P|236:129|200:118,1,72,2|0,0:0|0:0,0:0:0:0:
62,243,68880,5,2,0:0:0:0:
450,141,69231,5,8,0:1:0:0:
367,49,69406,1,8,0:1:0:0:
433,13,69582,2,0,P|434:83|370:125,1,144,12|0,0:1|0:0,0:0:0:0:
328,178,70108,2,0,P|293:174|261:142,1,72,2|0,0:0|0:0,0:0:0:0:
195,129,70459,1,8,0:1:0:0:
272,0,70634,2,0,P|219:46|140:53,1,144,8|0,0:1|0:0,0:0:0:0:
23,343,71336,5,2,0:0:0:0:
75,243,71511,1,8,0:1:0:0:
0,234,71687,2,0,P|17:291|96:316,1,144,12|0,0:1|0:0,0:0:0:0:
222,357,72213,2,0,P|203:327|162:310,1,72,2|0,0:0|0:0,0:0:0:0:
135,384,72564,1,8,0:1:0:0:
152,192,72739,6,0,P|202:240|295:242,2,144,8|2|2,0:1|0:0|0:0,0:0:0:0:
342,123,73617,5,8,0:1:0:0:
308,59,73792,2,0,P|291:126|336:207,3,144,8|2|2|2,0:1|0:0|0:0|0:0,0:0:0:0:
494,375,75546,6,0,P|458:367|406:369,1,72,2|8,0:0|0:1,0:0:0:0:
455,292,75897,2,0,P|438:323|328:361,1,144,12|2,0:1|0:0,0:0:0:0:
273,343,76424,1,2,0:0:0:0:
456,147,76775,5,8,0:1:0:0:
422,83,76950,2,0,P|440:112|419:227,1,144,8|2,0:1|0:0,0:0:0:0:
421,223,77389,1,2,0:0:0:0:
411,228,77476,1,8,0:1:0:0:
400,227,77564,1,8,0:1:0:0:
392,218,77652,2,0,P|408:207|433:207,1,36,0|0,1:0|0:0,0:0:0:0:
311,144,77827,2,0,P|328:152|341:174,1,36,8|0,0:1|0:0,0:0:0:0:
261,299,78003,5,12,0:1:0:0:
332,269,78178,1,2,0:0:0:0:
271,223,78353,1,8,1:0:0:0:
332,269,78529,5,2,0:0:0:0:
261,299,78704,1,8,1:0:0:0:
271,223,78880,1,2,0:0:0:0:
261,299,79055,5,8,0:1:0:0:
332,269,79231,1,2,0:0:0:0:
271,223,79406,1,8,1:0:0:0:
332,269,79581,5,2,0:0:0:0:
261,299,79757,1,8,1:0:0:0:
342,193,79932,5,8,0:1:0:0:
129,282,80108,5,12,0:1:0:0:
191,329,80283,1,2,0:0:0:0:
200,252,80459,1,8,1:0:0:0:
191,329,80634,5,2,0:0:0:0:
129,282,80810,1,8,1:0:0:0:
200,252,80985,1,2,0:0:0:0:
129,282,81160,5,8,0:1:0:0:
191,329,81336,1,2,0:0:0:0:
200,252,81511,1,8,1:0:0:0:
120,359,81687,5,8,0:1:0:0:
200,252,81862,1,8,1:0:0:0:
147,129,82038,1,8,0:1:0:0:
227,21,82213,5,12,0:1:0:0:
218,98,82388,1,2,0:0:0:0:
156,51,82564,1,8,1:0:0:0:
218,98,82739,5,2,0:0:0:0:
227,21,82915,1,8,1:0:0:0:
156,51,83090,1,2,0:0:0:0:
227,21,83266,5,8,0:1:0:0:
218,98,83441,1,2,0:0:0:0:
156,51,83617,1,8,1:0:0:0:
218,98,83792,5,2,0:0:0:0:
227,21,83967,1,8,1:0:0:0:
147,129,84143,5,8,0:1:0:0:
361,37,84318,5,12,0:1:0:0:
352,114,84494,1,2,0:0:0:0:
290,67,84669,1,8,1:0:0:0:
352,114,84845,5,2,0:0:0:0:
361,37,85020,1,8,1:0:0:0:
290,67,85195,1,2,0:0:0:0:
423,84,85371,5,8,0:1:0:0:
352,114,85546,1,2,0:0:0:0:
485,131,85722,5,8,1:0:0:0:
290,67,85897,1,8,0:1:0:0:
494,54,86073,5,8,1:0:0:0:
281,144,86248,1,8,0:1:0:0:
466,284,86424,1,12,0:1:0:0:
466,284,86950,5,2,0:0:0:0:
458,287,87008,5,2,0:0:0:0:
449,291,87067,5,2,0:0:0:0:
441,295,87125,6,0,L|420:294,5,15,2|2|2|2|2|2,0:0|0:0|0:0|0:0|0:0|0:0,0:0:0:0:
359,261,87476,2,0,L|322:267,2,30,2|2|2,0:0|0:0|0:0,0:0:0:0:
317,276,87827,5,2,0:0:0:0:
153,49,88178,5,2,0:0:0:0:
226,23,88353,1,8,0:1:0:0:
80,75,88529,5,12,0:1:0:0:
345,123,89055,5,2,0:0:0:0:
52,228,89581,5,2,0:0:0:0:
15,252,89698,5,2,0:0:0:0:
24,296,89815,5,2,0:0:0:0:
64,317,89932,5,2,0:0:0:0:
73,361,90049,5,2,0:0:0:0:
34,384,90166,5,2,0:0:0:0:
25,373,90283,5,2,0:0:0:0:
126,221,90459,1,8,0:1:0:0:
143,342,90634,5,12,0:1:0:0:
38,45,91160,5,2,0:0:0:0:
74,109,91336,1,0,1:0:0:0:
112,44,91511,1,8,0:1:0:0:
0,110,91687,5,12,0:1:0:0:
395,123,92213,5,2,0:0:0:0:
326,78,92388,1,0,1:0:0:0:
321,160,92564,1,8,0:1:0:0:
400,41,92739,5,12,0:1:0:0:
471,368,93266,5,2,0:0:0:0:
406,334,93441,1,0,1:0:0:0:
402,260,93617,1,8,0:1:0:0:
344,375,93792,5,12,0:1:0:0:
462,147,94142,5,2,0:0:0:0:
471,368,94493,5,2,0:0:0:0:
267,45,94844,5,2,0:0:0:0:
90,384,95195,5,6,0:0:0:0:
90,384,96072,5,2,0:0:0:0:
152,350,96248,1,2,0:0:0:0:
214,316,96423,1,2,0:0:0:0:
274,352,96599,2,0,L|234:241,1,108,2|2,0:0|0:0,0:0:0:0:
177,214,97125,2,0,L|153:147,1,53.9999999999999,2|0,0:0|0:0,0:0:0:0:
181,97,97476,1,2,0:0:0:0:
181,97,97827,5,2,0:0:0:0:
158,163,98002,2,0,L|194:264,1,108,2|2,0:0|0:0,0:0:0:0:
240,317,98528,1,2,0:0:0:0:
262,250,98704,1,2,0:0:0:0:
240,317,98879,1,2,0:0:0:0:
240,317,99230,5,2,0:0:0:0:
194,264,99406,2,0,L|300:283,1,108,2|0,0:0|0:0,0:0:0:0:
346,336,99932,1,2,0:0:0:0:
406,302,100107,2,0,L|473:314,1,53.9999999999999,2|0,0:0|0:0,0:0:0:0:
346,336,100634,5,2,0:0:0:0:
300,283,100809,2,0,L|194:264,2,108,2|2|2,0:0|0:0|0:0,0:0:0:0:
133,298,101862,6,0,L|79:288,1,53.9999999999999,2|0,0:0|0:0,0:0:0:0:
0,193,102213,5,2,0:0:0:0:
66,219,102388,1,2,0:0:0:0:
121,174,102563,1,2,0:0:0:0:
109,103,102739,1,2,0:0:0:0:
41,77,102914,1,2,0:0:0:0:
41,77,103265,5,2,0:0:0:0:
109,103,103441,1,2,0:0:0:0:
53,148,103616,1,2,0:0:0:0:
459,236,104493,5,2,0:0:0:0:
388,217,104669,1,2,0:0:0:0:
512,184,104844,1,0,0:0:0:0:
246,179,105020,6,0,B|209:243|221:302|256:325|296:323|317:280,1,202.5,12|0,0:1|0:0,0:0:0:0:
233,300,105370,2,0,P|221:276|217:237,1,54,8|0,0:0|0:0,0:0:0:0:
369,147,105546,2,0,P|278:169|185:114,1,202.5,8|0,0:1|0:0,0:0:0:0:
133,249,105897,6,0,P|134:222|150:186,1,54,8|0,0:1|0:0,0:0:0:0:
317,198,106072,1,8,0:0:0:0:
141,356,106248,5,2,0:0:0:0:
22,156,106423,2,0,B|-2:187|0:232|0:232|24:193|22:156,1,162,8|8,0:1|0:0,0:0:0:0:
233,300,106949,5,2,0:0:0:0:
493,113,107125,2,0,B|502:63|473:20|473:20|459:76|493:113,1,198,8|8,0:1|0:0,0:0:0:0:
226,108,107651,5,2,0:0:0:0:
408,288,107827,2,0,B|423:326|392:357|392:357|379:343|376:327,1,108,8|0,0:1|0:0,0:0:0:0:
440,166,108177,1,8,0:0:0:0:
194,230,108353,5,0,1:0:0:0:
347,75,108528,2,0,B|373:43|415:54|415:54|410:72|397:83,1,108,8|8,0:1|0:1,0:0:0:0:
226,108,108879,1,8,0:0:0:0:
317,198,109055,5,2,0:0:0:0:
142,281,109230,2,0,B|124:270|99:228|125:191|134:185|141:181|153:150|122:127|95:152|100:174,2,180,8|8|8,0:1|0:0|0:1,0:0:0:0:
99,169,110107,5,8,0:1:0:0:
195,156,110283,2,0,P|163:162|141:181,1,62.9999999999999,8|0,0:0|0:0,0:0:0:0:
324,238,110634,5,12,0:1:0:0:
399,223,110809,1,2,0:0:0:0:
248,252,110984,5,8,0:0:0:0:
373,294,111160,1,8,0:1:0:0:
222,123,111335,1,2,0:0:0:0:
222,123,111686,5,8,0:0:0:0:
373,294,111862,1,2,0:0:0:0:
248,252,112037,1,8,0:1:0:0:
324,238,112212,1,8,0:1:0:0:
275,382,112388,6,0,B|274:363|285:347|285:347|284:365|275:382,1,72,8|0,0:0|0:0,0:0:0:0:
445,77,112739,6,0,B|427:88|405:86|405:86|423:74|445:77,1,81.0000000000001,8|8,0:1|0:1,0:0:0:0:
94,82,113090,6,0,B|112:90|124:114|124:114|102:100|94:82,1,90,8|0,0:0|0:0,0:0:0:0:
272,181,113441,6,0,B|214:156|177:190|165:225|164:228|163:232|142:274|78:252,1,202.500007724762,12|0,0:1|0:0,0:0:0:0:
92,247,113791,2,0,P|65:240|47:215,1,53.9999983520508,8|0,0:0|0:0,0:0:0:0:
242,252,113967,1,2,0:0:0:0:
56,206,114142,6,0,P|53:181|66:154,1,36,8|0,0:1|0:0,0:0:0:0:
244,260,114318,2,0,P|263:288|245:258,1,108,8|0,0:1|0:0,0:0:0:0:
147,384,114669,5,8,0:1:0:0:
365,0,115020,1,8,0:1:0:0:
465,80,115195,5,8,0:0:0:0:
318,57,115370,1,2,0:0:0:0:
438,11,115546,1,8,0:1:0:0:
225,172,115721,5,8,0:1:0:0:
345,126,115897,2,0,L|324:172,1,36,8|0,0:0|0:0,0:0:0:0:
245,46,116072,6,0,L|259:13,1,36,8|0,0:1|0:0,0:0:0:0:
428,223,116248,2,0,B|312:109|312:109|303:129|303:129|323:128|323:128|314:121,1,216,12|8,0:1|0:0,0:0:0:0:
465,80,116774,2,0,B|452:141|452:141|480:120,1,90,8|0,0:1|0:0,0:0:0:0:
398,342,117125,2,0,L|408:298,1,45,8|0,0:1|0:0,0:0:0:0:
428,223,117300,1,8,0:0:0:0:
34,337,117476,6,0,B|115:308|189:305|189:305|196:304|213:311|227:328|220:352,1,215.999993408203,2|8,0:0|0:1,0:0:0:0:
398,342,118002,1,8,0:0:0:0:
148,358,118177,1,8,0:1:0:0:
122,352,118265,1,8,0:1:0:0:
109,331,118353,2,0,P|96:290|67:245,1,90,8|0,0:1|0:0,0:0:0:0:
10,206,118704,1,8,0:0:0:0:
77,55,119055,6,0,P|64:96|35:141,1,90,12|0,0:1|0:0,0:0:0:0:
153,45,119405,1,8,0:0:0:0:
182,71,119493,1,2,0:0:0:0:
220,84,119581,1,2,0:0:0:0:
259,80,119669,1,2,0:0:0:0:
293,57,119756,1,2,0:0:0:0:
312,234,119932,2,0,B|281:217|272:182|272:182|295:167|302:138,1,107.999996704102,8|8,0:1|0:0,0:0:0:0:
487,10,120283,6,0,B|506:39|504:78|504:78|429:109|343:102,1,215.999993408203,2|8,0:0|0:1,0:0:0:0:
228,0,120809,1,8,0:0:0:0:
312,234,120984,1,8,0:1:0:0:
487,10,121160,5,8,0:1:0:0:
456,145,121335,1,2,0:0:0:0:
436,69,121511,1,8,0:0:0:0:
40,319,121862,6,0,P|3:244|21:129,1,202.500007724762,12|0,0:1|0:0,0:0:0:0:
40,305,122212,2,0,P|63:302|71:330,1,53.9999983520508,8|0,0:0|0:0,0:0:0:0:
215,209,122388,1,8,0:1:0:0:
91,98,122563,6,0,P|116:136|77:181,1,107.999996704102,8|8,0:1|0:1,0:0:0:0:
183,315,122914,5,8,0:0:0:0:
120,255,123090,2,0,P|188:296|268:300,1,162,2|0,0:0|0:0,0:0:0:0:
281,317,123441,2,0,P|291:291|318:256,1,54,8|0,0:1|0:0,0:0:0:0:
318,384,123616,1,8,0:0:0:0:
215,209,123791,5,2,0:0:0:0:
435,167,123967,2,0,P|489:204|426:240,1,162,8|0,0:1|0:0,0:0:0:0:
499,219,124318,6,0,B|478:270|410:276|390:236|396:204|400:197|406:188|419:166|420:110|374:88,1,270,8|12,0:0|0:1,0:0:0:0:
375,73,124756,1,2,0:0:0:0:
352,60,124844,1,2,0:0:0:0:
326,56,124932,1,2,0:0:0:0:
301,63,125019,1,8,0:0:0:0:
228,109,125195,1,8,0:1:0:0:
67,122,125370,5,8,0:1:0:0:
81,145,125458,1,2,0:0:0:0:
104,158,125546,1,2,0:0:0:0:
130,162,125634,1,2,0:0:0:0:
155,155,125721,1,8,0:0:0:0:
182,36,125897,1,8,0:0:0:0:
274,182,126072,6,0,P|235:218|224:278,1,108,2|8,0:0|0:1,0:0:0:0:
6,358,126423,5,12,0:0:0:0:
55,382,126540,5,2,0:0:0:0:
109,372,126657,5,2,0:0:0:0:
147,330,126774,5,12,0:1:0:0:
126,309,126891,5,2,0:0:0:0:
98,307,127008,5,2,0:0:0:0:
70,316,127125,5,12,0:0:0:0:
236,362,127300,1,8,0:1:0:0:
104,174,127476,5,8,0:1:0:0:
151,236,127651,1,0,0:0:0:0:
135,103,127827,5,12,0:0:0:0:
151,236,128002,1,8,0:1:0:0:
243,23,128177,5,8,0:0:0:0:
151,236,128353,1,8,0:1:0:0:
12,49,128528,1,8,0:0:0:0:
366,76,128704,5,2,0:0:0:0:
324,163,128879,2,0,L|322:81,1,72,2|0,0:0|0:0,0:0:0:0:
401,147,129405,2,0,L|403:197,1,36
347,240,129756,1,0,0:0:0:0:
347,240,129932,1,2,0:0:0:0:
401,147,130283,5,0,0:0:0:0:
401,147,130458,2,0,L|403:197,1,36
