osu file format v14

[General]
AudioFilename: audio.mp3
AudioLeadIn: 0
PreviewTime: 38090
Countdown: 0
SampleSet: Soft
StackLeniency: 0.5
Mode: 0
LetterboxInBreaks: 0
WidescreenStoryboard: 1

[Editor]
Bookmarks: 5724,17653,28881,38705,49933,61161,69582,78003,86424,93792,105027,116255,128886
DistanceSpacing: 1.8
BeatDivisor: 4
GridSize: 4
TimelineZoom: 2

[Metadata]
Title:IDSMILE
TitleUnicode:アイディスマイル
Artist:Akiyama Mizuki (CV: Satou Hinata)
ArtistUnicode:暁山瑞希 (CV: 佐藤日向)
Creator:Kudou Chitose
Version:Insane.
Source:プロジェクトセカイ カラフルステージ! feat. 初音ミク
Tags:hatsune miku: colorful stage! 25時、ナイトコードで。 25-ji nightcord de. at 25:00 ニーゴ ni-go nightcode project sekai プロセカ proseka puroseka japanese pop jpop j-pop toa id smile mrrrk
BeatmapID:3968732
BeatmapSetID:1811835

[Difficulty]
HPDrainRate:6
CircleSize:4
OverallDifficulty:7
ApproachRate:8.5
SliderMultiplier:1.6
SliderTickRate:1

[Events]
//Background and Video events
0,0,"bgmzk.jpg",0,0
//Break Periods
//Storyboard Layer 0 (Background)
//Storyboard Layer 1 (Fail)
//Storyboard Layer 2 (Pass)
//Storyboard Layer 3 (Foreground)
//Storyboard Layer 4 (Overlay)
//Storyboard Sound Samples

[TimingPoints]
110,350.877192982456,4,2,1,50,1,0
110,-125,4,2,1,50,0,0
5197,-100,4,2,1,55,0,0
5724,-100,4,2,1,60,0,0
6952,-125,4,2,1,60,0,0
8531,-100,4,2,1,60,0,0
16250,-100,4,2,1,5,0,0
17127,-100,4,2,1,60,0,0
17653,350.877192982456,4,2,1,70,1,0
17653,-83.3333333333333,4,2,1,70,0,0
27477,-76.9230769230769,4,2,1,70,0,0
27828,-71.4285714285714,4,2,1,70,0,0
28881,350.877192982456,3,2,1,65,1,0
28881,-111.111111111111,3,2,1,65,0,0
34845,-100,3,2,1,65,0,0
35898,350.877192982456,4,2,1,60,1,0
35898,-166.666666666666,4,2,1,60,0,0
38705,350.877192982456,4,2,1,80,1,1
38705,-62.5,4,2,1,80,0,1
40108,-71.4285714285714,4,2,1,80,0,1
42915,-83.3333333333333,4,2,1,80,0,1
43968,-100,4,2,1,80,0,1
46073,-83.3333333333333,4,2,1,80,0,1
49933,-83.3333333333333,4,2,1,80,0,1
51161,-71.4285714285714,4,2,1,80,0,1
51687,-83.3333333333333,4,2,1,80,0,1
53968,-71.4285714285714,4,2,1,80,0,1
54494,-83.3333333333333,4,2,1,80,0,1
57652,-62.5,4,2,1,80,0,1
58354,-71.4285714285714,4,2,1,80,0,1
59757,-83.3333333333333,4,2,1,80,0,1
61161,350.877192982456,3,2,1,65,1,0
61161,-100,3,2,1,65,0,0
78003,350.877192982456,6,2,1,70,1,0
78003,-100,6,2,1,70,0,0
93792,350.877192982456,4,2,1,70,1,0
93792,-100,4,2,1,70,0,0
95195,-100,4,2,1,70,0,0
96072,-100,4,2,1,50,0,0
96599,350.877192982456,4,2,1,50,1,0
96599,-125,4,2,1,50,0,0
105020,350.877192982456,4,2,1,80,1,0
105020,-62.5,4,2,1,80,0,1
106423,-71.4285714285714,4,2,1,80,0,1
109230,-83.3333333333333,4,2,1,80,0,1
110283,-100,4,2,1,80,0,1
112388,-83.3333333333333,4,2,1,80,0,1
117476,-71.4285714285714,4,2,1,80,0,1
118002,-83.3333333333333,4,2,1,80,0,1
120283,-71.4285714285714,4,2,1,80,0,1
120809,-83.3333333333333,4,2,1,80,0,1
123967,-62.5,4,2,1,80,0,1
124669,-71.4285714285714,4,2,1,80,0,1
126072,-83.3333333333333,4,2,1,80,0,1
127476,-71.4285714285714,4,2,1,80,0,1
128879,-250,4,2,1,70,0,0

[Colours]
Combo1 : 232,125,129
Combo2 : 255,191,244
Combo3 : 150,119,202
Combo4 : 138,237,242

[HitObjects]
0,0,110,5,2,0:0:0:0:
78,11,285,1,2,0:0:0:0:
156,22,460,1,6,0:0:0:0:
156,22,987,5,0,0:0:0:0:
78,11,1338,5,0,0:0:0:0:
312,44,2039,5,0,0:0:0:0:
156,22,2566,5,0,0:0:0:0:
390,55,2917,5,2,0:0:0:0:
312,44,3092,1,2,0:0:0:0:
234,33,3267,1,6,0:0:0:0:
234,33,3794,5,0,0:0:0:0:
312,44,4145,5,0,0:0:0:0:
78,11,4846,5,0,0:0:0:0:
468,66,5197,5,2,0:0:0:0:
439,135,5373,1,2,0:0:0:0:
410,204,5548,1,0,0:0:0:0:
491,273,5724,6,0,B|353:225|353:225|309:249,1,160,8|2,0:1|0:0,0:0:0:0:
200,128,6250,1,8,0:1:0:0:
170,155,6338,1,8,0:1:0:0:
130,149,6425,1,0,1:0:0:0:
146,76,6601,1,0,0:0:0:0:
247,212,6952,6,0,P|253:244|238:290,1,64,2|0,0:0|0:0,0:0:0:0:
180,318,7302,2,0,P|204:296|252:286,1,64,8|0,0:1|0:0,0:0:0:0:
306,324,7653,2,0,P|275:313|242:277,1,64,2|0,0:0|1:0,0:0:0:0:
130,373,8004,1,0,0:0:0:0:
77,317,8180,1,2,0:0:0:0:
3,333,8355,5,8,0:1:0:0:
13,360,8443,1,8,0:1:0:0:
0,384,8531,2,0,B|43:243|43:243|32:237,1,160,8|2,0:1|0:0,0:0:0:0:
0,171,9057,1,8,0:1:0:0:
0,171,9232,1,8,1:0:0:0:
86,40,9408,6,0,P|125:45|165:44,1,80,2|2,0:0|0:0,0:0:0:0:
160,123,9759,1,2,0:0:0:0:
160,123,9934,2,0,P|121:118|81:119,1,80,8|8,0:1|0:1,0:0:0:0:
379,71,10460,5,8,0:1:0:0:
379,71,10636,2,0,P|418:69|458:74,1,80,0|2,1:0|0:0,0:0:0:0:
455,150,10987,2,0,P|415:151|375:146,1,80,2|0,0:0|0:0,0:0:0:0:
305,16,11338,6,0,B|371:149|371:149|358:162,1,160,8|2,0:1|0:0,0:0:0:0:
450,288,11864,1,8,0:1:0:0:
431,323,11952,1,8,0:1:0:0:
442,360,12039,1,0,1:0:0:0:
512,331,12215,6,0,P|433:318|351:356,2,160,2|0|8,0:0|0:0|0:1,0:0:0:0:
378,244,13267,5,0,0:0:0:0:
378,244,13443,2,0,P|303:272|251:346,1,160,0|2,1:0|0:0,0:0:0:0:
124,311,13969,1,2,0:0:0:0:
132,384,14145,6,0,B|164:246|164:246|152:233,1,160,8|0,0:1|0:0,0:0:0:0:
73,103,14671,1,8,0:1:0:0:
103,77,14759,1,8,0:1:0:0:
101,37,14846,1,0,1:0:0:0:
28,44,15022,6,0,P|58:71|96:82,1,80
144,150,15373,2,0,P|183:157|221:148,1,80,8|0,0:1|0:0,0:0:0:0:
304,179,15724,1,8,0:1:0:0:
304,179,15899,2,0,P|342:165|397:67,1,160,8|0,0:1|0:0,0:0:0:0:
512,384,17127,5,2,0:0:0:0:
453,340,17302,1,2,0:0:0:0:
465,384,17478,1,0,0:0:0:0:
511,256,17653,6,0,B|499:239|499:239|472:234,1,48,12|0,0:1|0:0,0:0:0:0:
380,191,17828,1,8,0:1:0:0:
386,187,17916,1,8,0:1:0:0:
392,183,18003,2,0,L|410:316,1,96,0|2,1:0|0:0,0:0:0:0:
491,99,18354,5,8,0:0:0:0:
406,43,18530,1,8,0:1:0:0:
476,28,18705,1,2,0:0:0:0:
420,113,18881,6,0,P|335:149|225:152,1,192,8|2,0:1|0:0,0:0:0:0:
306,185,19407,1,2,0:0:0:0:
192,93,19582,2,0,P|155:114|165:165,1,96,8|8,0:1|0:0,0:0:0:0:
120,320,19933,5,2,0:0:0:0:
66,384,20109,1,8,0:1:0:0:
118,372,20284,1,2,0:0:0:0:
14,286,20460,6,0,B|0:254|0:254|18:235,1,48,8|0,0:1|0:0,0:0:0:0:
98,202,20635,1,8,0:1:0:0:
102,208,20723,1,8,0:1:0:0:
106,214,20810,2,0,L|-12:238,1,96,0|2,1:0|0:0,0:0:0:0:
230,241,21161,5,8,0:0:0:0:
331,292,21337,1,8,0:1:0:0:
255,317,21512,1,2,0:0:0:0:
306,216,21688,2,0,P|315:168|309:120,1,96,0|2,1:0|0:0,0:0:0:0:
346,299,22038,5,8,0:1:0:0:
346,299,22389,5,8,0:1:0:0:
217,234,22565,1,8,0:0:0:0:
282,267,22740,1,2,0:0:0:0:
314,202,22916,5,0,1:0:0:0:
249,331,23091,1,2,0:0:0:0:
404,225,23267,6,0,B|441:216|441:216|458:239,1,48,8|0,0:1|0:0,0:0:0:0:
236,153,23442,1,8,0:1:0:0:
233,145,23530,1,8,0:1:0:0:
230,137,23617,2,0,L|127:122,1,96,0|2,1:0|0:0,0:0:0:0:
62,136,23968,1,8,0:0:0:0:
209,47,24144,6,0,B|217:61|217:61|315:76,1,96,8|2,0:1|0:0,0:0:0:0:
410,12,24495,2,0,B|382:2|336:10|314:57|321:96|321:96|342:112|350:134,1,192,8|0,0:1|1:0,0:0:0:0:
314,202,25021,1,0,0:0:0:0:
251,300,25196,5,8,0:1:0:0:
176,310,25372,2,0,P|275:325|367:355,1,192,8|2,0:0|0:0,0:0:0:0:
251,300,25898,1,2,0:0:0:0:
424,309,26074,6,0,B|446:321|446:321|437:342,1,48,8|0,0:1|0:0,0:0:0:0:
359,275,26249,1,8,0:1:0:0:
345,258,26337,1,8,0:1:0:0:
349,237,26424,1,8,1:0:0:0:
451,144,26600,5,2,0:0:0:0:
467,189,26688,1,2,0:0:0:0:
436,225,26775,1,8,0:0:0:0:
278,187,26951,2,0,P|232:199|176:206,1,96,8|2,0:1|0:0,0:0:0:0:
349,237,27302,5,8,0:1:0:0:
197,160,27477,2,0,P|229:202|273:240,1,104,8|0,0:1|0:0,0:0:0:0:
134,291,27828,6,0,B|111:344|26:339|26:339|21:315|-1:296,1,168,2|0,0:0|0:0,0:0:0:0:
0,384,28179,2,0,P|26:337|20:273,1,112,8|8,0:0|0:1,0:0:0:0:
94,146,28530,6,0,B|75:119|41:117|41:117|-13:195|38:283,1,224.638393164063,8|12,0:0|0:1,0:0:0:0:
30,269,29231,5,2,0:0:0:0:
2,201,29407,2,0,P|52:249|130:280,1,144,2|2,0:0|0:0,0:0:0:0:
155,344,29933,2,0,P|222:360|305:348,1,144,2|2,0:0|0:0,0:0:0:0:
486,265,30635,5,2,0:0:0:0:
453,199,30810,1,8,0:1:0:0:
504,145,30986,2,0,P|436:161|353:149,1,144,12|0,0:1|0:0,0:0:0:0:
305,105,31512,1,2,0:0:0:0:
149,75,31863,5,2,0:0:0:0:
90,122,32038,2,0,P|157:105|240:117,1,144,2|2,0:0|0:0,0:0:0:0:
512,73,32916,5,8,0:1:0:0:
496,0,33091,2,0,P|476:66|424:132,1,144,12|2,0:1|0:0,0:0:0:0:
428,199,33617,2,0,P|397:217|341:230,1,72.0000000000001,8|0,0:1|0:0,0:0:0:0:
317,286,33968,1,8,0:1:0:0:
317,286,34144,2,0,P|247:284|170:251,1,144,8|2,0:1|0:0,0:0:0:0:
20,99,34845,6,0,P|31:61|30:8,1,80,2|8,0:0|0:1,0:0:0:0:
113,37,35196,2,0,P|102:75|103:128,1,80,2|8,0:0|0:1,0:0:0:0:
20,99,35547,1,8,0:0:0:0:
193,56,35898,6,0,P|205:102|205:162,1,96.0000000000004,2|0,0:0|0:0,0:0:0:0:
202,159,36424,1,2,0:0:0:0:
276,63,36599,6,0,P|288:109|288:169,1,96.0000000000004,2|0,0:0|0:0,0:0:0:0:
285,166,37126,1,2,0:0:0:0:
359,70,37301,6,0,P|371:116|371:176,1,96.0000000000004,2|0,0:0|0:0,0:0:0:0:
368,173,38178,5,2,0:0:0:0:
298,194,38354,1,2,0:0:0:0:
426,218,38529,1,0,0:0:0:0:
235,157,38705,6,0,P|260:248|246:342,1,192,12|0,0:1|0:0,0:0:0:0:
298,194,39055,1,8,0:0:0:0:
163,158,39231,2,0,P|149:104|212:91,1,128,8|0,0:1|0:0,0:0:0:0:
111,209,39582,1,8,0:1:0:0:
235,157,39757,1,8,0:0:0:0:
107,56,39933,5,2,0:0:0:0:
29,72,40108,2,0,P|43:129|35:66,1,224,8|8,0:1|0:0,0:0:0:0:
69,288,40634,5,2,0:0:0:0:
147,304,40810,2,0,P|133:361|141:298,1,224,8|8,0:1|0:0,0:0:0:0:
324,222,41336,5,2,0:0:0:0:
397,245,41512,2,0,P|401:292|347:311,2,112,8|0|8,0:1|0:0|0:0,0:0:0:0:
331,134,42038,5,0,1:0:0:0:
258,157,42213,2,0,P|254:204|308:223,2,112,8|8|8,0:1|0:1|0:0,0:0:0:0:
454,120,42740,5,2,0:0:0:0:
400,171,42915,2,0,P|306:188|202:223,2,192,8|8|8,0:1|0:0|0:1,0:0:0:0:
258,157,43792,5,8,0:1:0:0:
345,221,43968,2,0,P|313:195|280:148,1,80,8|0,0:0|0:0,0:0:0:0:
101,92,44319,5,12,0:1:0:0:
180,60,44494,1,2,0:0:0:0:
22,124,44669,1,8,0:0:0:0:
69,13,44845,1,8,0:1:0:0:
133,171,45020,1,2,0:0:0:0:
133,171,45371,5,8,0:0:0:0:
69,13,45547,1,2,0:0:0:0:
22,124,45722,1,8,0:1:0:0:
101,92,45897,1,8,0:1:0:0:
180,60,46073,6,0,P|261:98|373:110,2,192,8|8|8,0:0|0:1|0:0,0:0:0:0:
378,39,47126,6,0,P|304:90|238:181,1,192,12|8,0:1|0:0,0:0:0:0:
280,54,47652,1,2,0:0:0:0:
450,14,47827,2,0,P|466:57|433:91,1,96,8|8,0:1|0:1,0:0:0:0:
467,184,48354,5,8,0:1:0:0:
401,257,48704,5,8,0:1:0:0:
437,349,49055,5,2,0:0:0:0:
467,184,49406,5,8,0:1:0:0:
401,257,49582,1,8,0:0:0:0:
437,349,49757,1,8,0:1:0:0:
378,264,49933,6,0,B|351:227|286:216|244:266|244:266|250:288|241:307,1,192,12|8,0:1|0:0,0:0:0:0:
28,336,50459,2,0,P|74:338|121:355,1,96,8|0,0:1|0:0,0:0:0:0:
137,258,50810,2,0,P|158:278|171:300,1,48,8|0,0:1|0:0,0:0:0:0:
197,365,50985,1,8,0:0:0:0:
0,238,51161,6,0,B|101:247|144:172|144:172|139:141|150:113,1,224,2|8,0:0|0:1,0:0:0:0:
264,15,51687,6,0,P|309:27|360:22,1,96,8|8,0:0|0:1,0:0:0:0:
189,33,52038,2,0,P|155:66|134:113,1,96,8|0,0:1|0:0,0:0:0:0:
242,90,52389,1,8,0:0:0:0:
360,384,52740,6,0,P|265:371|149:378,1,192,12|8,0:1|0:0,0:0:0:0:
159,363,53178,1,2,0:0:0:0:
111,367,53266,1,2,0:0:0:0:
75,334,53354,1,2,0:0:0:0:
79,286,53441,1,2,0:0:0:0:
257,264,53617,6,0,P|266:310|237:346,1,96,8|8,0:1|0:0,0:0:0:0:
180,225,53968,2,0,B|190:267|224:305|276:307|313:298|313:298|326:264|356:245,1,224,2|8,0:0|0:1,0:0:0:0:
448,230,54494,2,0,P|400:230|355:265,1,96,8|8,0:0|0:1,0:0:0:0:
377,149,54845,5,8,0:1:0:0:
490,118,55020,1,2,0:0:0:0:
508,189,55196,5,8,0:0:0:0:
319,24,55547,6,0,P|259:80|144:110,1,192,12|8,0:1|0:0,0:0:0:0:
244,41,56073,1,8,0:1:0:0:
231,116,56248,2,0,P|260:153|310:147,1,96,8|8,0:1|0:1,0:0:0:0:
155,110,56599,5,8,0:0:0:0:
93,154,56775,2,0,P|64:191|14:185,1,96,2|0,0:0|0:0,0:0:0:0:
231,116,57126,5,8,0:1:0:0:
93,154,57301,1,8,0:0:0:0:
154,384,57476,5,2,0:0:0:0:
216,339,57652,2,0,B|130:362|49:336|22:308|22:308|24:290|40:273|53:268,2,256,8|8|12,0:1|0:0|0:1,0:0:0:0:
218,324,58441,1,2,0:0:0:0:
254,297,58529,1,2,0:0:0:0:
298,294,58617,1,2,0:0:0:0:
338,313,58704,1,8,0:0:0:0:
283,379,58880,1,8,0:1:0:0:
272,217,59055,6,0,P|279:202|269:217,4,56,8|2|2|2|8,0:1|0:0|0:0|0:0|0:0,0:0:0:0:
283,379,59582,1,8,0:0:0:0:
171,170,59757,6,0,P|270:178|361:152,1,192,2|12,0:0|0:1,0:0:0:0:
388,111,60225,5,2,0:0:0:0:
435,92,60342,5,2,0:0:0:0:
485,101,60459,6,0,P|505:107|485:103,3,64,12|2|2|4,0:0|0:0|0:0|1:0,0:0:0:0:
425,299,60985,5,2,0:0:0:0:
504,329,61161,2,0,P|430:317|337:328,1,160,12|0,0:1|0:0,0:0:0:0:
280,365,61687,1,2,0:0:0:0:
280,365,61862,2,0,P|239:367|184:357,1,80,2|2,0:0|0:0,0:0:0:0:
158,300,62213,2,0,P|84:288|-9:299,1,160,2|0,0:0|0:0,0:0:0:0:
0,296,63090,5,8,0:1:0:0:
29,376,63266,2,0,P|20:296|32:217,1,160,8|0,0:1|0:0,0:0:0:0:
87,165,63792,1,2,0:0:0:0:
87,165,63968,2,0,P|96:127|95:76,1,80,2|2,0:0|0:0,0:0:0:0:
37,38,64318,2,0,P|115:50|195:41,1,160,2|0,0:0|0:0,0:0:0:0:
195,41,65196,5,8,0:1:0:0:
274,23,65371,2,0,P|194:14|115:26,1,160,8|0,0:1|0:0,0:0:0:0:
37,38,65897,1,2,0:0:0:0:
195,41,66248,5,2,0:0:0:0:
249,101,66424,2,0,P|258:179|246:268,1,160,2|0,0:0|0:0,0:0:0:0:
248,259,67125,5,2,0:0:0:0:
226,180,67301,1,8,0:1:0:0:
305,162,67476,2,0,P|387:169|473:157,1,160,12|2,0:1|0:0,0:0:0:0:
385,181,68003,1,2,0:0:0:0:
385,181,68353,5,2,0:0:0:0:
401,102,68529,2,0,P|394:184|406:270,1,160,2|2,0:0|0:0,0:0:0:0:
414,267,69055,1,8,0:1:0:0:
332,384,69231,5,8,0:1:0:0:
257,380,69406,1,8,0:1:0:0:
223,312,69582,2,0,P|139:301|28:306,1,160,12|0,0:1|0:0,0:0:0:0:
0,261,70108,1,2,0:0:0:0:
67,128,70459,5,8,0:1:0:0:
130,168,70634,2,0,P|209:167|289:178,1,160,8|0,0:1|0:0,0:0:0:0:
358,50,71336,5,2,0:0:0:0:
419,14,71511,1,8,0:1:0:0:
349,42,71687,2,0,P|269:31|189:31,1,160,12|0,0:1|0:0,0:0:0:0:
122,0,72213,1,2,0:0:0:0:
130,168,72564,5,8,0:1:0:0:
69,215,72739,2,0,P|69:294|58:374,2,160,8|2|2,0:1|0:0|0:0,0:0:0:0:
28,307,73617,1,8,0:1:0:0:
99,284,73792,2,0,P|178:294|258:294,2,160,8|2|2,0:1|0:0|0:0,0:0:0:0:
258,294,74845,5,2,0:0:0:0:
258,293,75546,6,0,P|219:296|170:293,1,80,2|8,0:0|0:1,0:0:0:0:
223,375,75897,2,0,P|218:295|222:216,1,160,12|2,0:1|0:0,0:0:0:0:
283,133,76424,2,0,P|285:93|283:53,1,80,2|0,0:0|0:0,0:0:0:0:
203,89,76775,1,8,0:1:0:0:
203,89,76950,2,0,P|282:92|362:87,1,160,8|2,0:1|0:0,0:0:0:0:
369,96,77389,1,2,0:0:0:0:
400,94,77476,1,8,0:1:0:0:
430,104,77564,1,8,0:1:0:0:
452,126,77652,2,0,P|450:140|450:126,3,40,0|0|8|0,1:0|0:0|0:1|0:0,0:0:0:0:
416,208,78003,5,12,0:1:0:0:
456,270,78178,1,2,0:0:0:0:
490,205,78353,1,8,1:0:0:0:
416,208,78529,5,2,0:0:0:0:
382,273,78704,1,8,1:0:0:0:
456,270,78880,1,2,0:0:0:0:
416,208,79055,6,0,B|379:193|379:193|342:212,2,80,8|2|8,0:1|0:0|1:0,0:0:0:0:
303,149,79581,1,2,0:0:0:0:
269,214,79757,1,8,1:0:0:0:
195,217,79932,1,8,0:1:0:0:
47,223,80108,5,12,0:1:0:0:
80,157,80283,1,2,0:0:0:0:
7,160,80459,1,8,1:0:0:0:
47,223,80634,5,2,0:0:0:0:
120,219,80810,1,8,1:0:0:0:
80,157,80985,1,2,0:0:0:0:
47,223,81160,6,0,B|52:262|52:262|87:285,2,80,8|2|8,0:1|0:0|1:0,0:0:0:0:
153,153,81687,1,8,0:1:0:0:
226,149,81862,1,8,1:0:0:0:
259,83,82038,1,8,0:1:0:0:
266,211,82213,5,12,0:1:0:0:
192,215,82388,1,2,0:0:0:0:
231,277,82564,1,8,1:0:0:0:
266,211,82739,5,2,0:0:0:0:
226,149,82915,1,8,1:0:0:0:
192,215,83090,1,2,0:0:0:0:
266,211,83266,6,0,B|297:186|297:186|299:144,2,80,8|2|8,0:1|0:0|1:0,0:0:0:0:
373,142,83792,1,2,0:0:0:0:
333,80,83967,1,8,1:0:0:0:
368,14,84143,1,8,0:1:0:0:
373,142,84318,6,0,B|410:156|410:156|447:138,2,80,12|2|8,0:1|0:0|1:0,0:0:0:0:
333,80,84845,5,2,0:0:0:0:
259,84,85020,1,8,1:0:0:0:
299,146,85195,1,2,0:0:0:0:
293,18,85371,5,8,0:1:0:0:
293,18,85546,1,2,0:0:0:0:
165,24,85722,1,8,1:0:0:0:
165,24,85897,1,8,0:1:0:0:
37,30,86073,1,8,1:0:0:0:
37,30,86248,1,8,0:1:0:0:
43,158,86424,5,12,0:1:0:0:
43,158,86950,6,0,L|48:186,12,26.6666666666667,2|2|2|2|2|2|2|2|2|2|2|2|2,0:0|0:0|0:0|0:0|0:0|0:0|0:0|0:0|0:0|0:0|0:0|0:0|0:0,0:0:0:0:
3,96,87827,1,2,0:0:0:0:
37,30,88178,5,2,0:0:0:0:
43,158,88353,1,8,0:1:0:0:
49,286,88529,1,12,0:1:0:0:
49,286,89055,5,2,0:0:0:0:
49,286,89581,5,2,0:0:0:0:
84,309,89698,5,2,0:0:0:0:
126,305,89815,5,2,0:0:0:0:
155,274,89932,6,0,P|161:259|156:275,3,53.3333333333333,2|2|2|2,0:0|0:0|0:0|0:0,0:0:0:0:
181,352,90459,1,8,0:1:0:0:
262,357,90634,5,12,0:1:0:0:
262,357,91160,5,2,0:0:0:0:
155,274,91511,5,8,0:1:0:0:
262,357,91687,1,12,0:1:0:0:
428,143,92213,5,2,0:0:0:0:
321,60,92388,5,0,1:0:0:0:
402,65,92564,1,8,0:1:0:0:
347,138,92739,1,12,0:1:0:0:
347,138,93266,5,2,0:0:0:0:
402,65,93441,1,0,1:0:0:0:
321,60,93617,1,8,0:1:0:0:
428,143,93792,5,12,0:1:0:0:
321,60,94142,5,2,0:0:0:0:
195,111,94493,5,2,0:0:0:0:
176,245,94844,5,2,0:0:0:0:
282,328,95195,5,6,0:0:0:0:
282,328,96072,5,2,0:0:0:0:
216,303,96248,1,2,0:0:0:0:
150,278,96423,1,2,0:0:0:0:
80,292,96599,6,0,L|69:145,1,128,2|2,0:0|0:0,0:0:0:0:
9,125,97125,1,2,0:0:0:0:
9,125,97300,2,0,L|3:46,1,64,0|2,0:0|0:0,0:0:0:0:
4,61,97827,5,2,0:0:0:0:
4,61,98002,2,0,L|13:188,1,128,2|2,0:0|0:0,0:0:0:0:
75,228,98528,2,0,L|80:292,2,64,2|2|2,0:0|0:0|0:0,0:0:0:0:
257,66,99230,5,2,0:0:0:0:
289,0,99406,2,0,L|298:127,1,128,2|0,0:0|0:0,0:0:0:0:
236,163,99932,1,2,0:0:0:0:
236,163,100107,2,0,L|245:290,1,128,2|0,0:0|0:0,0:0:0:0:
317,321,100634,1,2,0:0:0:0:
317,321,100809,2,0,L|323:400,1,64,2|0,0:0|0:0,0:0:0:0:
245,290,101335,5,0,0:0:0:0:
245,290,101511,2,0,L|240:226,1,64,2|0,0:0|0:0,0:0:0:0:
306,190,101862,1,2,0:0:0:0:
512,104,102213,6,0,L|507:40,1,64,2|2,0:0|0:0,0:0:0:0:
444,0,102563,1,2,0:0:0:0:
385,46,102739,1,2,0:0:0:0:
318,15,102914,1,2,0:0:0:0:
318,15,103265,5,2,0:0:0:0:
385,46,103441,1,2,0:0:0:0:
444,0,103616,5,2,0:0:0:0:
92,229,104493,5,2,0:0:0:0:
160,194,104669,1,2,0:0:0:0:
28,185,104844,1,0,0:0:0:0:
222,238,105020,6,0,P|190:157|186:54,1,192,12|0,0:1|0:0,0:0:0:0:
160,194,105370,1,8,0:0:0:0:
297,237,105546,2,0,P|310:290|250:307,1,128,8|0,0:1|0:0,0:0:0:0:
340,175,105897,1,8,0:1:0:0:
222,238,106072,1,8,0:0:0:0:
349,374,106248,5,2,0:0:0:0:
418,341,106423,2,0,P|364:290|409:351,1,223.999993164063,8|8,0:1|0:0,0:0:0:0:
481,139,106949,5,2,0:0:0:0:
412,106,107125,2,0,P|448:55|416:114,1,223.999993164063,8|8,0:1|0:0,0:0:0:0:
170,125,107651,5,2,0:0:0:0:
99,98,107827,2,0,P|92:46|141:28,2,112,8|0|8,0:1|0:0|0:0,0:0:0:0:
155,214,108353,5,0,1:0:0:0:
226,187,108528,2,0,P|232:135|183:117,2,112,8|8|8,0:1|0:1|0:0,0:0:0:0:
47,237,109055,5,2,0:0:0:0:
90,174,109230,2,0,P|181:155|279:109,2,192,8|8|8,0:1|0:0|0:1,0:0:0:0:
226,187,110107,5,8,0:1:0:0:
153,120,110283,2,0,P|182:150|209:195,1,80,8|0,0:0|0:0,0:0:0:0:
378,271,110634,5,12,0:1:0:0:
347,347,110809,1,2,0:0:0:0:
454,302,110984,1,8,0:0:0:0:
302,240,111160,1,8,0:1:0:0:
409,195,111335,1,2,0:0:0:0:
409,195,111686,5,8,0:0:0:0:
347,347,111862,1,2,0:0:0:0:
454,302,112037,1,8,0:1:0:0:
378,271,112212,1,8,0:1:0:0:
302,240,112388,6,0,P|222:281|117:295,2,192,8|8|8,0:0|0:1|0:0,0:0:0:0:
138,215,113441,6,0,P|196:290|275:343,1,192,12|8,0:1|0:0,0:0:0:0:
121,295,113967,1,2,0:0:0:0:
82,156,114142,2,0,P|44:183|59:227,1,96,8|8,0:1|0:1,0:0:0:0:
53,88,114669,5,8,0:1:0:0:
148,84,115020,5,8,0:1:0:0:
194,0,115370,5,2,0:0:0:0:
53,88,115721,5,8,0:1:0:0:
148,84,115897,1,8,0:0:0:0:
194,0,116072,1,8,0:1:0:0:
161,105,116248,6,0,B|177:148|230:177|280:166|280:166|294:141|328:123,1,192,12|8,0:1|0:0,0:0:0:0:
283,271,116774,2,0,P|253:228|254:183,1,96,8|0,0:1|0:0,0:0:0:0:
413,94,117125,2,0,P|404:121|381:143,1,48,8|0,0:1|0:0,0:0:0:0:
312,132,117300,1,8,0:0:0:0:
261,359,117476,6,0,B|283:266|378:256|378:256|407:279|441:281,1,224,2|8,0:0|0:1,0:0:0:0:
162,374,118002,2,0,P|119:353|69:348,1,96,8|8,0:0|0:1,0:0:0:0:
103,259,118353,2,0,P|146:280|196:285,1,96,8|0,0:1|0:0,0:0:0:0:
4,274,118704,1,8,0:0:0:0:
353,30,119055,6,0,P|255:38|152:29,1,192,12|8,0:1|0:0,0:0:0:0:
151,42,119493,1,2,0:0:0:0:
103,33,119581,1,2,0:0:0:0:
60,54,119669,1,2,0:0:0:0:
47,99,119756,1,2,0:0:0:0:
237,159,119932,6,0,P|249:114|218:67,1,96,8|8,0:1|0:0,0:0:0:0:
156,189,120283,2,0,B|173:149|213:117|264:124|299:140|299:140|306:175|332:199,1,224,2|8,0:0|0:1,0:0:0:0:
396,254,120809,2,0,P|348:242|318:206,1,96,8|8,0:0|0:1,0:0:0:0:
179,262,121160,5,8,0:1:0:0:
65,296,121335,1,2,0:0:0:0:
86,368,121511,5,8,0:0:0:0:
290,120,121862,6,0,P|383:103|454:21,1,192,12|8,0:1|0:0,0:0:0:0:
357,80,122388,1,8,0:1:0:0:
429,111,122563,2,0,P|450:152|426:197,1,96,8|8,0:1|0:1,0:0:0:0:
290,120,122914,5,8,0:0:0:0:
233,66,123090,2,0,P|186:69|161:108,1,96,2|0,0:0|0:0,0:0:0:0:
357,80,123441,5,8,0:1:0:0:
233,66,123616,1,8,0:0:0:0:
229,369,123791,5,2,0:0:0:0:
167,324,123967,2,0,B|253:347|334:321|361:293|361:293|359:275|343:258|330:253,2,256,8|8|12,0:1|0:0|0:1,0:0:0:0:
165,309,124756,1,2,0:0:0:0:
129,282,124844,1,2,0:0:0:0:
85,279,124932,1,2,0:0:0:0:
45,298,125019,1,8,0:0:0:0:
100,364,125195,1,8,0:1:0:0:
111,202,125370,6,0,P|104:187|115:202,4,56,8|2|2|2|8,0:1|0:0|0:0|0:0|0:0,0:0:0:0:
100,364,125897,1,8,0:0:0:0:
191,174,126072,5,2,0:0:0:0:
113,113,126248,1,8,0:1:0:0:
283,141,126423,5,12,0:0:0:0:
332,129,126540,5,2,0:0:0:0:
379,147,126657,5,2,0:0:0:0:
407,189,126774,6,0,P|402:211|411:191,3,64,12|2|2|12,0:1|0:0|0:0|0:0,0:0:0:0:
482,157,127300,1,8,0:1:0:0:
315,217,127476,6,0,P|356:107|357:-19,2,224,8|12|8,0:1|0:0|0:0,0:0:0:0:
335,78,128353,1,8,0:1:0:0:
365,153,128528,1,8,0:0:0:0:
239,233,128704,5,2,0:0:0:0:
239,233,128879,2,0,P|225:276|186:319,1,96,2|0,0:0|0:0,0:0:0:0:
108,311,129756,5,0,0:0:0:0:
108,311,129932,2,0,P|84:336|67:376,1,64,2|0,0:0|0:0,0:0:0:0:
0,384,130458,1,0,0:0:0:0:
