osu file format v14

[General]
AudioFilename: audio.mp3
AudioLeadIn: 0
PreviewTime: 45443
Countdown: 0
SampleSet: Soft
StackLeniency: 0.7
Mode: 0
LetterboxInBreaks: 0
WidescreenStoryboard: 0

[Editor]
Bookmarks: 32357,69857,89688,112521
DistanceSpacing: 2
BeatDivisor: 4
GridSize: 4
TimelineZoom: 2.899999

[Metadata]
Title:Heart Goes Boom!! [GAME Mix]
TitleUnicode:Heart Goes Boom!![GAME Mix]
Artist:Akiyama Mio (CV: Hikasa Yoko)
ArtistUnicode:秋山澪 (CV: 日笠陽子)
Creator:TT Mouse
Version:sahuang's Sweetness
Source:けいおん! 放課後ライブ!!
Tags:K-ON! MUSIC HISTORY'S BOX Houkago Ho-kago Live raibu sahuang Pata-Mon Yugu kencho
BeatmapID:1784189
BeatmapSetID:844633

[Difficulty]
HPDrainRate:6
CircleSize:4
OverallDifficulty:9
ApproachRate:9.4
SliderMultiplier:1.6
SliderTickRate:1

[Events]
//Background and Video events
0,0,"Akiyama.jpg",0,0
//Break Periods
//Storyboard Layer 0 (Background)
//Storyboard Layer 1 (Fail)
//Storyboard Layer 2 (Pass)
//Storyboard Layer 3 (Foreground)
//Storyboard Sound Samples

[TimingPoints]
360,333.333333333333,4,2,3,70,1,0
360,-133.333333333333,4,2,3,70,0,0
4359,-111.111111111111,4,2,3,70,0,0
5359,-66.6666666666667,4,2,3,70,0,0
5693,-100,4,2,3,70,0,0
10193,-83.3333333333333,4,2,3,70,0,0
11026,-100,4,2,3,70,0,0
31026,-83.3333333333333,4,2,3,70,0,0
32193,-90.9090909090909,4,2,3,70,0,0
42859,-71.4285714285714,4,2,3,70,0,0
45526,-83.3333333333333,4,2,3,70,0,1
69693,-125,4,2,3,70,0,0
73526,-100,4,2,3,70,0,0
80193,-76.9230769230769,4,2,3,70,0,0
82859,-83.3333333333333,4,2,3,70,0,0
88193,-71.4285714285714,4,2,3,70,0,0
89526,-90.9090909090909,4,2,3,70,0,0
89693,-83.3333333333333,4,2,3,70,0,1
112359,-100,4,2,3,70,0,0
124193,-133.333333333333,4,2,3,70,0,0
125609,-133.333333333333,4,2,3,5,0,0

[Colours]
Combo1 : 223,223,223
Combo2 : 49,206,189
Combo3 : 31,152,169
Combo4 : 78,97,114

[HitObjects]
140,224,360,6,0,P|164:265|244:279,1,120.000004577637,2|0,0:0|0:0,0:0:0:0:
301,227,859,1,0,0:0:0:0:
246,91,1026,2,0,B|221:127|221:127|218:203,1,120.000004577637,2|0,0:0|0:0,0:0:0:0:
301,227,1526,1,0,0:0:0:0:
376,177,1693,2,0,L|437:181,2,60.0000022888184,2|0|0,0:0|0:0|0:0,0:0:0:0:
344,306,2193,2,0,L|485:314,1,120.000004577637,2|0,0:0|0:0,0:0:0:0:
301,227,2693,2,0,L|218:235,1,60.0000022888184,0|0,0:0|0:0,0:0:0:0:
124,286,3026,6,0,L|109:142,1,120.000004577637,2|0,0:0|0:0,0:0:0:0:
138,81,3526,1,0,0:0:0:0:
241,232,3693,2,0,L|256:88,1,120.000004577637,2|0,0:0|0:0,0:0:0:0:
333,154,4193,1,0,0:0:0:0:
138,81,4359,6,0,P|172:182|253:113,1,251.999992309571,2|0,0:0|0:0,0:0:0:0:
234,80,5026,1,0,0:0:0:0:
54,165,5193,1,2,0:0:0:0:
216,281,5359,6,0,B|261:304|296:297|296:297|327:259,1,120.000004577637,8|0,0:0|0:0,0:0:0:0:
336,232,5609,1,0,0:0:0:0:
336,232,5693,6,0,L|431:241,1,80,6|0,0:0|0:2,0:0:0:0:
251,111,6026,2,0,L|156:120,1,80,8|0,0:0|0:0,0:0:0:0:
29,226,6359,1,2,0:0:0:0:
10,112,6526,1,2,0:0:0:0:
186,261,6693,1,8,0:0:0:0:
186,261,7026,5,2,0:0:0:0:
31,129,7193,1,0,0:0:0:0:
73,326,7359,1,8,0:2:0:0:
273,219,7526,2,0,L|105:215,1,160,2|2,0:2|0:0,0:0:0:0:
183,26,8026,2,0,P|179:66|185:108,1,80,8|0,0:0|0:0,0:0:0:0:
243,301,8359,6,0,P|286:294|324:289,1,80,2|0,0:2|0:0,0:0:0:0:
485,221,8693,2,0,P|442:214|404:209,1,80,8|0,0:0|0:0,0:0:0:0:
252,199,9026,1,2,0:0:0:0:
392,337,9193,1,2,0:0:0:0:
364,84,9359,1,8,0:0:0:0:
364,84,9693,5,2,0:2:0:0:
395,240,9859,1,0,0:0:0:0:
445,14,10026,1,8,0:2:0:0:
207,150,10193,2,0,B|254:169|295:134|295:134|333:178|380:164,1,191.999994140625,6|8,0:0|0:0,0:0:0:0:
239,71,10693,1,8,0:0:0:0:
285,324,10859,1,8,0:0:0:0:
11,201,11026,5,6,0:0:0:0:
11,201,11359,1,8,0:0:0:0:
76,282,11526,1,0,0:0:0:0:
112,184,11693,2,0,P|114:143|117:101,1,80,2|2,0:0|0:0,0:0:0:0:
148,4,12026,1,8,0:0:0:0:
215,83,12193,1,0,0:0:0:0:
309,41,12359,6,0,L|394:35,1,80,2|0,0:0|0:0,0:0:0:0:
467,105,12693,1,8,0:0:0:0:
467,105,12859,1,2,0:0:0:0:
394,224,13026,2,0,P|391:180|384:122,1,80,0|2,0:0|0:0,0:0:0:0:
488,328,13359,2,0,P|491:284|498:226,1,80,8|0,0:0|0:0,0:0:0:0:
337,335,13693,5,2,0:0:0:0:
337,335,14026,1,8,0:0:0:0:
242,290,14193,1,0,0:0:0:0:
145,327,14359,2,0,L|57:336,1,80,2|2,0:0|0:0,0:0:0:0:
162,224,14693,2,0,L|82:232,1,80,8|0,0:0|0:0,0:0:0:0:
195,125,15026,5,2,0:0:0:0:
261,205,15193,1,0,0:0:0:0:
341,139,15359,1,8,0:0:0:0:
275,59,15526,1,2,0:0:0:0:
261,205,15693,2,0,L|270:291,1,80,0|2,0:0|0:0,0:0:0:0:
362,337,16026,1,8,0:0:0:0:
225,353,16193,1,0,0:0:0:0:
394,227,16359,5,2,0:0:0:0:
394,227,16693,2,0,P|411:186|410:148,1,80,8|0,0:0|0:0,0:0:0:0:
283,57,17026,1,2,0:0:0:0:
292,186,17193,1,2,0:0:0:0:
99,118,17359,1,8,0:0:0:0:
205,269,17526,1,0,0:0:0:0:
187,166,17693,6,0,L|198:82,1,80,2|0,0:0|0:0,0:0:0:0:
289,143,18026,1,8,0:0:0:0:
205,269,18193,2,0,P|128:253|85:189,1,160,2|2,0:0|0:0,0:0:0:0:
120,46,18693,5,8,0:0:0:0:
125,60,18859,1,0,0:0:0:0:
349,142,19193,5,0,0:0:0:0:
344,157,19359,1,8,0:0:0:0:
339,172,19526,1,0,0:0:0:0:
131,316,19859,5,2,0:0:0:0:
146,312,20026,1,8,0:0:0:0:
161,306,20193,1,0,0:0:0:0:
298,352,20359,6,0,P|329:318|334:285,1,80,2|0,0:0|0:0,0:0:0:0:
212,167,20693,1,8,0:0:0:0:
251,283,20859,1,2,0:0:0:0:
212,167,21026,1,0,0:0:0:0:
162,311,21193,1,2,0:0:0:0:
337,197,21359,1,8,0:0:0:0:
148,87,21526,1,8,0:0:0:0:
90,356,21693,6,0,L|269:341,1,160,2|8,0:0|0:0,0:0:0:0:
369,278,22193,1,0,0:0:0:0:
245,165,22359,2,0,L|253:257,1,80,2|2,0:0|0:0,0:0:0:0:
341,141,22693,1,8,0:0:0:0:
178,96,22859,1,0,0:0:0:0:
341,141,23026,6,0,L|426:126,1,80,2|0,0:0|0:0,0:0:0:0:
270,57,23359,1,8,0:0:0:0:
251,244,23526,2,0,B|299:234|299:234|350:260|350:260|406:249,1,160,2|2,0:0|0:0,0:0:0:0:
192,301,24026,2,0,P|172:267|170:228,1,80,8|0,0:0|0:0,0:0:0:0:
270,57,24359,6,0,B|294:98|294:98|270:234,1,160,2|8,0:0|0:0,0:0:0:0:
192,301,24859,1,0,0:0:0:0:
79,174,25026,2,0,L|167:156,1,80,2|2,0:0|0:0,0:0:0:0:
290,187,25359,1,8,0:0:0:0:
98,83,25526,1,0,0:0:0:0:
204,229,25693,5,2,0:0:0:0:
233,116,25859,2,0,L|226:32,1,80,0|8,0:0|0:0,0:0:0:0:
428,114,26193,2,0,L|408:293,1,160,2|2,0:0|0:0,0:0:0:0:
341,347,26693,1,8,0:0:0:0:
504,258,26859,1,0,0:0:0:0:
310,214,27026,6,0,B|235:199|240:262|152:242,1,160,2|8,0:0|0:0,0:0:0:0:
42,199,27526,1,0,0:0:0:0:
161,72,27693,2,0,P|172:116|176:163,1,80,2|2,0:0|0:0,0:0:0:0:
105,316,28026,1,8,0:0:0:0:
52,172,28193,1,0,0:0:0:0:
236,252,28359,6,0,P|181:249|154:242,1,80,2|0,0:0|0:0,0:0:0:0:
52,172,28693,1,8,0:0:0:0:
200,57,28859,2,0,B|232:48|250:59|250:59|270:111|232:177,1,160,2|2,0:0|0:0,0:0:0:0:
97,305,29359,5,8,0:0:0:0:
110,313,29526,1,0,0:0:0:0:
390,214,29859,5,0,0:0:0:0:
375,220,30026,1,8,0:0:0:0:
360,227,30193,1,0,0:0:0:0:
161,45,30526,5,2,0:0:0:0:
176,51,30693,1,8,0:0:0:0:
191,58,30860,1,0,0:0:0:0:
321,189,31026,6,0,P|379:157|313:131,1,143.999995605469,2|0,0:0|0:0,0:0:0:0:
337,119,31359,1,8,0:0:0:0:
371,281,31526,1,2,0:0:0:0:
436,47,31693,1,8,0:0:0:0:
474,307,31859,1,2,0:0:0:0:
474,307,32193,6,0,P|406:315|362:204,1,176.000005371094,6|2,0:0|0:0,0:0:0:0:
138,249,32693,2,0,P|180:243|211:212,1,88.000002685547,8|0,0:0|0:0,0:0:0:0:
256,88,33026,1,2,0:0:0:0:
243,295,33193,1,2,0:0:0:0:
142,161,33359,1,8,0:0:0:0:
56,324,33526,6,0,P|52:278|50:228,1,88.000002685547,0|2,0:0|0:0,0:0:0:0:
23,109,33859,1,0,0:0:0:0:
23,109,34026,1,8,0:0:0:0:
165,243,34193,2,0,P|169:197|171:147,1,88.000002685547,0|2,0:0|0:0,0:0:0:0:
130,33,34526,1,2,0:0:0:0:
291,118,34693,1,8,0:0:0:0:
322,266,34859,1,0,0:0:0:0:
494,138,35026,6,0,P|449:134|396:162,1,88.000002685547,2|0,0:0|0:0,0:0:0:0:
291,359,35359,2,0,P|336:363|389:335,1,88.000002685547,8|0,0:0|0:0,0:0:0:0:
231,203,35693,1,2,0:0:0:0:
322,266,35859,2,0,L|335:179,1,88.000002685547,2|8,0:0|0:0,0:0:0:0:
99,95,36193,6,0,B|149:84|149:84|217:113|217:113|277:101,1,176.000005371094,0|0,0:0|0:0,0:0:0:0:
431,78,36693,1,8,0:0:0:0:
419,257,36859,1,0,0:0:0:0:
266,103,37026,2,0,L|278:11,1,88.000002685547,2|2,0:0|0:0,0:0:0:0:
321,182,37359,1,8,0:0:0:0:
147,95,37526,1,2,0:0:0:0:
233,280,37693,6,0,L|221:188,1,88.000002685547,0|2,0:0|0:0,0:0:0:0:
106,253,38026,1,8,0:0:0:0:
333,146,38193,1,0,0:0:0:0:
124,156,38359,1,2,0:0:0:0:
328,249,38526,1,2,0:0:0:0:
145,329,38693,2,0,P|192:325|244:320,1,88.000002685547,8|0,0:0|0:0,0:0:0:0:
427,312,39026,5,2,0:0:0:0:
343,153,39193,2,0,L|354:248,1,88.000002685547,0|8,0:0|0:0,0:0:0:0:
334,49,39526,1,0,0:0:0:0:
228,176,39693,2,0,P|183:169|132:155,1,88.000002685547,2|2,0:0|0:0,0:0:0:0:
20,14,40026,1,8,0:0:0:0:
82,85,40193,1,0,0:0:0:0:
69,228,40359,5,2,0:0:0:0:
147,293,40693,5,8,0:0:0:0:
138,308,40859,1,0,0:0:0:0:
313,207,41026,5,2,0:0:0:0:
321,241,41193,1,2,0:0:0:0:
329,275,41359,1,10,0:0:0:0:
337,309,41526,1,2,0:0:0:0:
212,200,41693,5,2,0:0:0:0:
178,192,41860,1,2,0:0:0:0:
144,184,42026,1,10,0:0:0:0:
110,176,42193,1,2,0:0:0:0:
258,29,42359,5,2,0:0:0:0:
284,103,42526,1,2,0:0:0:0:
206,87,42693,1,10,0:0:0:0:
466,128,42859,6,0,P|496:193|440:135,1,223.999993164063,2|2,0:0|0:0,0:0:0:0:
444,18,43359,5,8,0:0:0:0:
414,34,43526,1,0,0:0:0:0:
179,77,43693,5,2,0:0:0:0:
260,113,43859,1,2,0:0:0:0:
289,221,44026,1,10,0:0:0:0:
229,354,44193,1,2,0:0:0:0:
40,255,44359,6,0,L|163:235,1,111.999996582031,2|2,0:0|0:0,0:0:0:0:
447,315,44693,2,0,P|439:235|365:204,1,167.999994873047,2|0,0:0|0:0,0:0:0:0:
289,221,45026,5,8,0:0:0:0:
503,158,45193,1,2,0:0:0:0:
157,92,45359,1,8,0:0:0:0:
291,361,45526,6,0,L|275:153,1,191.999994140625,6|2,0:0|0:0,0:0:0:0:
366,8,46026,1,8,0:0:0:0:
366,8,46359,1,2,0:0:0:0:
424,181,46526,1,2,0:0:0:0:
452,65,46693,1,8,0:0:0:0:
276,169,46859,1,0,0:0:0:0:
123,8,47026,6,0,P|167:17|217:57,1,95.9999970703126,2|0,0:0|0:0,0:0:0:0:
144,241,47359,2,0,L|133:137,1,95.9999970703126,8|0,0:0|0:0,0:0:0:0:
273,237,47693,1,2,0:0:0:0:
43,190,47859,1,2,0:0:0:0:
297,315,48026,2,0,P|342:280|353:238,1,95.9999970703126,8|0,0:0|0:0,0:0:0:0:
199,42,48359,6,0,B|149:71|150:120|150:120|173:166|226:167,1,191.999994140625,4|8,0:3|0:0,0:0:0:0:
307,90,48859,1,0,0:0:0:0:
227,275,49026,1,2,0:0:0:0:
199,42,49193,1,2,0:0:0:0:
341,218,49359,2,0,P|394:209|450:203,1,95.9999970703126,8|0,0:0|0:0,0:0:0:0:
196,299,49693,6,0,P|148:294|100:286,1,95.9999970703126,4|0,0:3|0:0,0:0:0:0:
213,136,50026,2,0,L|194:11,1,95.9999970703126,8|0,0:0|0:0,0:0:0:0:
83,153,50359,1,2,0:0:0:0:
231,222,50526,1,2,0:0:0:0:
309,32,50693,2,0,P|359:44|407:86,1,95.9999970703126,8|0,0:0|0:0,0:0:0:0:
336,247,51026,6,0,P|279:223|322:127,1,191.999994140625,2|8,0:0|0:0,0:0:0:0:
430,183,51526,1,0,0:0:0:0:
196,127,51693,1,2,0:0:0:0:
432,310,51859,1,2,0:0:0:0:
217,333,52026,2,0,L|342:318,1,95.9999970703126,8|0,0:0|0:0,0:0:0:0:
114,244,52359,6,0,L|-11:229,1,95.9999970703126,2|2,0:0|0:0,0:0:0:0:
230,321,52693,2,0,L|355:306,1,95.9999970703126,8|0,0:0|0:0,0:0:0:0:
267,189,53026,1,2,0:0:0:0:
301,383,53193,1,2,0:0:0:0:
297,98,53359,1,8,0:0:0:0:
217,333,53526,1,0,0:0:0:0:
107,154,53693,6,0,P|144:199|276:178,1,191.999994140625,2|8,0:0|0:0,0:0:0:0:
297,98,54193,1,0,0:0:0:0:
190,24,54359,2,0,L|198:120,1,95.9999970703126,2|2,0:0|0:0,0:0:0:0:
289,308,54693,2,0,L|296:212,1,95.9999970703126,8|0,0:0|0:0,0:0:0:0:
45,204,55026,6,0,B|80:185|113:204|113:204|131:184|131:184|162:219|226:215,1,191.999994140625,2|8,0:0|0:0,0:0:0:0:
377,185,55526,1,0,0:0:0:0:
290,86,55693,1,2,0:0:0:0:
262,314,55859,1,2,0:0:0:0:
162,44,56026,2,0,P|155:90|170:135,1,95.9999970703126,8|0,0:0|0:0,0:0:0:0:
312,229,56359,6,0,B|393:243|454:203|454:203|463:148,1,191.999994140625,4|8,0:0|0:0,0:0:0:0:
422,61,56859,1,0,0:0:0:0:
227,206,57026,2,0,P|225:253|250:292,1,95.9999970703126,2|2,0:0|0:0,0:0:0:0:
497,89,57359,2,0,P|499:41|474:2,1,95.9999970703126,8|0,0:0|0:0,0:0:0:0:
199,57,57693,6,0,L|389:61,1,143.999995605469,2|0,0:0|0:0,0:0:0:0:
422,61,58026,1,8,0:0:0:0:
269,198,58193,1,0,0:0:0:0:
493,156,58359,2,0,P|450:154|397:157,1,95.9999970703126,2|2,0:0|0:0,0:0:0:0:
231,329,58693,2,0,P|274:331|327:328,1,95.9999970703126,8|0,0:0|0:0,0:0:0:0:
182,108,59026,6,0,P|102:128|105:246,1,191.999994140625,4|8,0:3|0:0,0:0:0:0:
231,329,59526,2,0,P|311:309|308:191,1,191.999994140625,0|2,0:0|0:0,0:0:0:0:
88,225,60026,2,0,L|190:219,1,95.9999970703126,8|0,0:0|0:0,0:0:0:0:
343,110,60359,6,0,B|325:53|247:14|247:14|265:40|268:75,1,191.999994140625,4|8,0:3|0:0,0:0:0:0:
263,168,60859,1,0,0:0:0:0:
421,141,61026,1,2,0:0:0:0:
166,100,61193,1,2,0:0:0:0:
336,275,61359,1,8,0:0:0:0:
374,22,61526,1,0,0:0:0:0:
191,248,61693,5,2,0:0:0:0:
434,221,61859,1,0,0:0:0:0:
266,62,62026,2,0,L|276:159,1,95.9999970703126,8|0,0:0|0:0,0:0:0:0:
294,334,62359,1,2,0:0:0:0:
378,143,62526,1,2,0:0:0:0:
112,223,62693,2,0,L|236:213,1,95.9999970703126,8|0,0:0|0:0,0:0:0:0:
466,150,63026,6,0,L|266:137,1,191.999994140625,2|8,0:0|0:0,0:0:0:0:
98,20,63526,1,0,0:0:0:0:
62,132,63693,2,0,P|70:179|80:235,1,95.9999970703126,2|2,0:0|0:0,0:0:0:0:
221,361,64026,2,0,P|229:314|239:258,1,95.9999970703126,8|0,0:0|0:0,0:0:0:0:
368,86,64359,6,0,P|312:119|204:52,1,191.999994140625,4|8,0:0|0:0,0:0:0:0:
296,26,64859,1,2,0:3:0:0:
440,265,65026,1,8,0:0:0:0:
157,322,65193,1,2,0:3:0:0:
402,159,65359,1,8,0:0:0:0:
117,98,65526,1,2,0:3:0:0:
436,55,65693,5,8,0:0:0:0:
176,182,65859,1,2,0:3:0:0:
510,222,66026,1,8,0:0:0:0:
276,96,66193,1,2,0:3:0:0:
341,325,66359,5,8,0:0:0:0:
436,55,66526,1,2,0:3:0:0:
447,346,66693,1,8,0:0:0:0:
356,76,66859,1,2,0:3:0:0:
189,340,67026,5,8,0:0:0:0:
276,96,67193,1,2,0:3:0:0:
274,348,67359,1,8,0:0:0:0:
171,92,67526,1,2,0:3:0:0:
407,227,67693,5,8,0:0:0:0:
122,191,67859,1,2,0:3:0:0:
122,191,67943,1,2,0:3:0:0:
122,191,68026,1,8,0:0:0:0:
383,349,68193,2,0,L|380:289,1,47.9999985351563,2|0,0:3|0:0,0:0:0:0:
433,147,68359,5,12,0:0:0:0:
129,281,68526,1,2,0:0:0:0:
381,302,68693,5,8,0:0:0:0:
151,66,68859,1,2,0:0:0:0:
488,86,69026,5,8,0:0:0:0:
258,322,69193,1,2,0:0:0:0:
208,4,69359,5,8,0:0:0:0:
507,186,69526,1,2,0:0:0:0:
237,215,69693,6,0,P|219:177|213:149,1,64,6|0,0:0|0:0,0:0:0:0:
246,71,70026,2,0,P|274:57|305:48,1,64,8|0,0:0|0:0,0:0:0:0:
379,99,70359,2,0,P|397:137|403:165,1,64,2|0,0:0|0:0,0:0:0:0:
370,242,70692,2,0,P|341:256|310:265,1,64,8|0,0:0|0:0,0:0:0:0:
139,201,71026,6,0,P|162:166|184:147,1,64,2|0,0:0|0:0,0:0:0:0:
267,137,71359,2,0,P|293:154|316:176,1,64,8|0,0:0|0:0,0:0:0:0:
310,265,71693,2,0,P|286:299|264:318,1,64,2|0,0:0|0:0,0:0:0:0:
182,329,72026,2,0,P|155:311|132:289,1,64,8|0,0:0|0:0,0:0:0:0:
178,151,72359,6,0,L|186:79,1,64,2|0,0:0|0:0,0:0:0:0:
326,136,72693,2,0,L|318:199,1,64,8|0,0:0|0:0,0:0:0:0:
101,112,73026,2,0,L|109:40,1,64,2|0,0:0|0:0,0:0:0:0:
406,164,73359,2,0,L|399:212,1,32,8|0,0:0|0:0,0:0:0:0:
336,293,73526,6,0,P|282:286|233:177,1,160,2|2,0:0|0:0,0:0:0:0:
258,107,74026,1,0,0:0:0:0:
192,7,74193,1,0,0:0:0:0:
258,107,74359,1,0,0:0:0:0:
192,7,74526,2,0,L|197:55,1,40,2|0,0:0|0:0,0:0:0:0:
76,88,74693,2,0,L|72:49,1,40,8|0,0:0|0:0,0:0:0:0:
108,196,74859,6,0,P|142:222|259:219,1,160,6|0,0:0|0:0,0:0:0:0:
408,132,75359,2,0,P|368:148|332:199,1,80,8|0,0:0|0:0,0:0:0:0:
345,352,75693,2,0,P|350:309|324:252,1,80,2|2,0:0|0:0,0:0:0:0:
255,222,76026,1,8,0:0:0:0:
343,175,76193,1,0,0:0:0:0:
164,204,76359,6,0,P|176:275|254:314,1,160,2|8,0:0|0:0,0:0:0:0:
340,274,76859,1,0,0:0:0:0:
258,123,77026,1,2,0:0:0:0:
159,70,77193,1,2,0:0:0:0:
253,11,77359,1,10,0:0:0:0:
164,182,77526,6,0,B|118:173|93:147|93:147|108:181|99:225,1,160,4|2,0:0|0:0,0:0:0:0:
179,346,78026,2,0,P|228:336|261:329,1,80,8|0,0:0|0:0,0:0:0:0:
386,266,78359,1,2,0:0:0:0:
321,174,78526,1,2,0:0:0:0:
364,70,78693,1,8,0:0:0:0:
226,157,78859,6,0,L|394:147,1,160,0|0,0:0|0:0,0:0:0:0:
202,39,79359,2,0,L|102:44,1,80,8|0,0:0|0:0,0:0:0:0:
35,115,79693,1,2,0:0:0:0:
55,240,79859,1,2,0:0:0:0:
179,313,80026,1,8,0:0:0:0:
331,265,80193,6,0,B|341:236|317:213|317:213|286:289|384:342,1,207.999990478516,4|2,0:0|0:0,0:0:0:0:
353,142,80693,2,0,P|298:135|253:170,1,103.999995239258,8|0,0:0|0:0,0:0:0:0:
179,313,81026,5,2,0:0:0:0:
318,214,81193,1,2,0:0:0:0:
219,75,81359,1,8,0:0:0:0:
80,174,81526,1,0,0:0:0:0:
228,235,81693,5,2,0:0:0:0:
240,164,81860,1,0,0:0:0:0:
169,152,82026,1,8,0:0:0:0:
157,223,82193,1,0,0:0:0:0:
219,75,82359,5,8,0:0:0:0:
352,240,82526,1,2,0:0:0:0:
299,25,82693,1,8,0:0:0:0:
157,223,82859,6,0,B|104:129|200:118|144:32,1,191.999994140625,4|2,0:0|0:0,0:0:0:0:
155,222,83359,1,8,0:0:0:0:
118,317,83693,5,2,0:3:0:0:
194,319,83859,1,2,0:0:0:0:
270,320,84026,1,8,0:0:0:0:
346,322,84192,1,0,0:0:0:0:
355,101,84359,5,2,0:3:0:0:
266,140,84525,1,2,0:0:0:0:
231,231,84692,1,8,0:0:0:0:
270,320,84859,1,0,0:0:0:0:
400,246,85026,5,8,0:0:0:0:
171,155,85193,1,2,0:0:0:0:
400,246,85359,1,8,0:0:0:0:
171,155,85526,6,0,P|117:165|137:282,1,191.999994140625,4|2,0:0|0:0,0:0:0:0:
233,311,86026,2,0,L|337:298,1,95.9999970703126,8|0,0:0|0:0,0:0:0:0:
448,233,86359,1,8,0:0:0:0:
293,179,86526,1,2,0:0:0:0:
499,157,86693,1,8,0:0:0:0:
276,167,86859,1,2,0:0:0:0:
471,74,87026,5,8,0:0:0:0:
259,155,87193,1,2,0:0:0:0:
367,21,87359,1,8,0:0:0:0:
448,233,87526,1,2,0:0:0:0:
367,21,87693,1,8,0:0:0:0:
329,268,87859,1,2,0:3:0:0:
331,258,87943,1,2,0:3:0:0:
333,248,88026,1,8,0:0:0:0:
132,221,88193,6,0,P|217:194|87:131,1,335.999989746094,6|0,0:0|0:0,0:0:0:0:
158,152,89026,1,0,0:0:0:0:
213,290,89193,1,2,0:0:0:0:
195,70,89359,1,8,0:0:0:0:
122,234,89526,2,0,L|134:303,1,44.0000013427735,6|0,0:0|0:0,0:0:0:0:
287,338,89693,6,0,L|292:239,1,95.9999970703126,0|2,0:0|0:0,0:0:0:0:
162,56,90026,2,0,L|157:151,1,95.9999970703126,8|0,0:0|0:0,0:0:0:0:
269,123,90360,1,2,0:0:0:0:
80,38,90526,1,2,0:0:0:0:
293,45,90693,2,0,P|338:80|349:122,1,95.9999970703126,8|0,0:0|0:0,0:0:0:0:
178,318,91026,6,0,B|135:297|131:239|131:239|165:205|156:150,1,191.999994140625,4|8,0:3|0:0,0:0:0:0:
258,255,91526,1,0,0:0:0:0:
64,173,91693,1,2,0:0:0:0:
231,93,91860,1,2,0:0:0:0:
178,318,92026,2,0,L|170:206,1,95.9999970703126,8|0,0:0|0:0,0:0:0:0:
326,105,92360,6,0,L|218:91,1,95.9999970703126,4|0,0:3|0:0,0:0:0:0:
430,250,92693,2,0,P|466:219|480:173,1,95.9999970703126,8|0,0:0|0:0,0:0:0:0:
326,105,93026,1,2,0:0:0:0:
448,61,93193,1,2,0:0:0:0:
355,250,93359,2,0,L|247:236,1,95.9999970703126,8|8,0:0|0:0,0:0:0:0:
165,89,93693,6,0,P|108:113|151:209,1,191.999994140625,4|8,0:0|0:0,0:0:0:0:
259,153,94193,1,0,0:0:0:0:
20,177,94360,1,2,0:0:0:0:
246,38,94526,1,2,0:0:0:0:
42,7,94693,2,0,L|167:22,1,95.9999970703126,8|0,0:0|0:0,0:0:0:0:
336,162,95026,6,0,L|323:259,1,95.9999970703126,2|0,0:0|0:0,0:0:0:0:
92,367,95359,2,0,L|104:271,1,95.9999970703126,8|0,0:0|0:0,0:0:0:0:
245,192,95693,1,2,0:0:0:0:
51,158,95860,1,2,0:0:0:0:
336,162,96026,1,8,0:0:0:0:
101,242,96193,1,0,0:0:0:0:
216,107,96359,6,0,L|232:308,1,191.999994140625,2|8,0:0|0:0,0:0:0:0:
325,369,96860,1,0,0:0:0:0:
431,203,97026,2,0,L|418:319,1,95.9999970703126,2|2,0:0|0:0,0:0:0:0:
315,65,97359,1,8,0:0:0:0:
315,65,97693,6,0,B|269:100|269:100|123:78,1,191.999994140625,2|8,0:0|0:0,0:0:0:0:
14,59,98193,1,0,0:0:0:0:
171,181,98360,1,2,0:0:0:0:
102,9,98526,1,2,0:0:0:0:
146,275,98693,1,8,0:0:0:0:
262,24,98859,1,8,0:0:0:0:
431,240,99026,6,0,P|345:244|297:153,1,191.999994140625,4|8,0:0|0:0,0:0:0:0:
422,323,99526,1,0,0:0:0:0:
218,184,99693,2,0,P|216:137|241:98,1,95.9999970703126,2|2,0:0|0:0,0:0:0:0:
497,295,100026,2,0,P|499:343|474:382,1,95.9999970703126,8|0,0:0|0:0,0:0:0:0:
199,327,100360,6,0,L|389:323,1,143.999995605469,2|0,0:0|0:0,0:0:0:0:
422,323,100693,1,8,0:0:0:0:
269,186,100860,1,0,0:0:0:0:
493,228,101026,2,0,L|397:227,1,95.9999970703126,2|2,0:0|0:0,0:0:0:0:
231,55,101360,2,0,L|327:56,1,95.9999970703126,8|0,0:0|0:0,0:0:0:0:
182,276,101693,6,0,P|102:256|105:138,1,191.999994140625,6|8,0:3|0:0,0:0:0:0:
231,55,102193,2,0,P|311:75|308:193,1,191.999994140625,0|2,0:0|0:0,0:0:0:0:
88,159,102693,2,0,L|190:165,1,95.9999970703126,8|0,0:0|0:0,0:0:0:0:
428,314,103026,2,0,L|212:327,1,191.999994140625,6|8,0:3|0:0,0:0:0:0:
78,330,103526,1,0,0:0:0:0:
183,164,103693,1,2,0:0:0:0:
188,378,103859,1,2,0:0:0:0:
16,257,104026,2,0,L|116:243,1,95.9999970703126,8|8,0:0|0:0,0:0:0:0:
327,156,104360,5,6,0:0:0:0:
153,73,104526,1,0,0:0:0:0:
241,305,104693,2,0,L|251:208,1,95.9999970703126,8|0,0:0|0:0,0:0:0:0:
286,47,105026,1,2,0:0:0:0:
365,258,105193,1,2,0:0:0:0:
153,73,105360,2,0,P|202:92|242:133,1,95.9999970703126,8|0,0:0|0:0,0:0:0:0:
474,229,105693,6,0,B|423:215|423:215|339:241|339:241|289:226,1,191.999994140625,2|8,0:0|0:0,0:0:0:0:
289,226,106359,1,2,0:0:0:0:
61,203,106526,1,2,0:0:0:0:
150,366,106693,2,0,L|145:258,1,95.9999970703126,8|0,0:0|0:0,0:0:0:0:
141,124,107026,5,4,0:0:0:0:
391,332,107193,1,0,0:3:0:0:
293,11,107359,1,8,0:0:0:0:
210,327,107526,1,2,0:3:0:0:
201,32,107693,5,8,0:0:0:0:
302,284,107859,1,2,0:3:0:0:
391,80,108026,1,8,0:0:0:0:
108,186,108193,1,2,0:3:0:0:
406,177,108359,5,8,0:0:0:0:
124,97,108526,1,2,0:3:0:0:
411,77,108693,1,8,0:0:0:0:
90,203,108859,1,2,0:3:0:0:
388,255,109026,5,8,0:0:0:0:
174,40,109193,1,2,0:3:0:0:
293,315,109359,1,8,0:0:0:0:
349,37,109526,1,2,0:3:0:0:
182,337,109693,5,8,0:0:0:0:
257,45,109859,1,2,0:3:0:0:
413,266,110026,1,8,0:0:0:0:
106,158,110193,1,2,0:3:0:0:
380,92,110359,1,8,0:0:0:0:
302,354,110526,1,2,0:3:0:0:
302,354,110609,1,2,0:3:0:0:
302,354,110693,1,8,0:0:0:0:
179,125,110859,2,0,L|190:186,1,47.9999985351563,2|0,0:3|0:0,0:0:0:0:
218,345,111026,5,12,0:0:0:0:
290,66,111193,1,2,0:0:0:0:
427,309,111359,5,8,0:0:0:0:
113,223,111526,1,2,0:0:0:0:
404,17,111693,5,8,0:0:0:0:
329,358,111859,1,2,0:0:0:0:
91,80,112026,5,8,0:0:0:0:
446,117,112193,1,0,0:0:0:0:
446,117,112276,1,0,0:0:0:0:
446,117,112359,6,0,L|455:212,1,80,6|0,0:0|0:0,0:0:0:0:
312,264,112692,2,0,L|303:169,1,80,10|2,0:3|0:3,0:0:0:0:
292,41,113026,1,2,0:0:0:0:
210,138,113193,1,2,0:0:0:0:
412,40,113359,1,10,0:3:0:0:
412,40,113692,5,2,0:0:0:0:
385,130,113859,1,2,0:3:0:0:
210,138,114026,5,8,0:0:0:0:
237,228,114193,1,2,0:3:0:0:
77,303,114359,6,0,L|92:201,1,80,0|2,0:0|0:0,0:0:0:0:
198,58,114693,2,0,L|213:160,1,80,8|0,0:0|0:0,0:0:0:0:
306,323,115026,6,0,L|321:221,1,80,2|0,0:0|0:0,0:0:0:0:
427,78,115360,2,0,L|442:180,1,80,10|2,0:3|0:3,0:0:0:0:
460,259,115692,1,2,0:0:0:0:
323,159,115859,1,2,0:0:0:0:
397,359,116025,1,10,0:3:0:0:
397,359,116359,5,2,0:0:0:0:
296,331,116526,1,2,0:3:0:0:
78,262,116693,5,8,0:0:0:0:
179,234,116860,1,2,0:3:0:0:
303,70,117026,6,0,P|263:53|227:58,1,80,0|2,0:0|0:0,0:0:0:0:
179,234,117359,2,0,P|219:251|255:246,1,80,8|0,0:0|0:0,0:0:0:0:
403,147,117693,6,0,L|236:158,1,160,2|10,0:0|0:3,0:0:0:0:
129,105,118193,1,2,0:3:0:0:
129,105,118359,2,0,L|134:10,1,80,2|2,0:0|0:0,0:0:0:0:
20,226,118693,2,0,L|15:131,1,80,10|2,0:3|0:3,0:0:0:0:
53,36,119026,5,10,0:0:0:0:
116,206,119193,1,2,0:3:0:0:
225,26,119359,1,8,0:0:0:0:
288,196,119526,1,0,0:0:0:0:
411,92,119693,2,0,P|357:88|329:102,1,80,0|2,0:0|0:0,0:0:0:0:
164,297,120026,2,0,P|203:303|240:290,1,80,8|0,0:0|0:0,0:0:0:0:
411,92,120359,6,0,L|238:85,1,160,2|8,0:0|0:0,0:0:0:0:
358,216,120859,1,2,0:0:0:0:
358,216,121026,2,0,L|453:219,1,80,2|2,0:0|0:0,0:0:0:0:
309,322,121359,1,8,0:0:0:0:
290,107,121526,1,2,0:0:0:0:
209,202,121693,5,8,0:0:0:0:
419,138,121859,1,2,0:3:0:0:
128,108,122026,1,8,0:0:0:0:
314,262,122193,1,2,0:3:0:0:
235,44,122359,5,8,0:0:0:0:
200,306,122526,1,2,0:3:0:0:
220,15,122693,5,8,0:0:0:0:
222,339,122859,1,2,0:3:0:0:
96,226,123026,5,2,2:0:0:0:
295,225,123193,1,8,2:0:0:0:
260,205,123276,1,8,0:0:0:0:
220,202,123359,1,8,0:0:0:0:
34,294,123526,5,10,0:3:0:0:
69,314,123609,1,10,0:3:0:0:
108,317,123692,1,10,0:3:0:0:
145,302,123775,1,2,0:3:0:0:
172,273,123859,1,2,0:3:0:0:
76,127,124026,2,0,L|84:175,1,40,2|0,2:0|2:0,2:2:0:0:
172,273,124193,22,0,B|253:288|253:288|287:295|309:264|299:228|266:221|266:221|207:210|207:210|192:198|192:198|134:187|134:187|117:183|104:166|107:147|107:147|120:80|120:80|123:63|109:43|93:39|93:39|56:34,1,540.000020599366,6|0,0:0|0:0,0:0:0:0:
