osu file format v14

[General]
AudioFilename: audio.mp3
AudioLeadIn: 0
PreviewTime: 45443
Countdown: 0
SampleSet: Soft
StackLeniency: 0.3
Mode: 0
LetterboxInBreaks: 0
WidescreenStoryboard: 1

[Editor]
Bookmarks: 32357,69857,89688,112521
DistanceSpacing: 1.6
BeatDivisor: 4
GridSize: 32
TimelineZoom: 1.9

[Metadata]
Title:Heart Goes Boom!! [GAME Mix]
TitleUnicode:Heart Goes Boom!![GAME Mix]
Artist:Akiyama Mio (CV: Hikasa Yoko)
ArtistUnicode:秋山澪 (CV: 日笠陽子)
Creator:TT Mouse
Version:Yugu's Light Insane
Source:けいおん! 放課後ライブ!!
Tags:K-ON! MUSIC HISTORY'S BOX Houkago Ho-kago Live raibu sahuang Pata-Mon Yugu kencho
BeatmapID:1790842
BeatmapSetID:844633

[Difficulty]
HPDrainRate:5
CircleSize:4.2
OverallDifficulty:8
ApproachRate:8.5
SliderMultiplier:1.6
SliderTickRate:1

[Events]
//Background and Video events
0,0,"Akiyama.jpg",0,0
//Break Periods
2,69893,74018
//Storyboard Layer 0 (Background)
//Storyboard Layer 1 (Fail)
//Storyboard Layer 2 (Pass)
//Storyboard Layer 3 (Foreground)
//Storyboard Sound Samples

[TimingPoints]
360,333.333333333333,4,2,3,30,1,0
360,-133.333333333333,4,2,3,30,0,0
5193,-133.333333333333,4,2,3,50,0,0
5693,-100,4,2,3,70,0,0
7776,-100,4,2,3,5,0,0
7859,-100,4,2,3,70,0,0
10443,-100,4,2,3,5,0,0
10526,-100,4,2,3,70,0,0
11359,-125,4,2,3,60,0,0
22026,-100,4,2,3,60,0,0
23776,-100,4,2,3,5,0,0
23859,-100,4,2,3,60,0,0
26443,-100,4,2,3,5,0,0
26526,-100,4,2,3,60,0,0
29109,-100,4,2,3,5,0,0
29192,-100,4,2,3,60,0,0
45526,-83.3333333333333,4,2,3,85,0,1
64609,-83.3333333333333,4,2,3,5,0,1
64693,-83.3333333333333,4,2,3,70,0,0
76276,-83.3333333333333,4,2,3,5,0,0
76359,-83.3333333333333,4,2,3,70,0,0
78943,-83.3333333333333,4,2,3,5,0,0
79026,-83.3333333333333,4,2,3,70,0,0
82859,-83.3333333333333,4,2,3,50,0,0
83693,-100,4,2,3,50,0,0
86026,-100,4,2,3,60,0,0
87026,-153.846153846154,4,2,3,60,0,0
87276,-153.846153846154,4,2,3,5,0,0
87359,-90.9090909090909,4,2,3,70,0,0
88193,-133.333333333333,4,2,3,70,0,0
89526,-133.333333333333,4,2,3,85,0,1
90026,-83.3333333333333,4,2,3,85,0,1
107276,-83.3333333333333,4,2,3,5,0,1
107359,-83.3333333333333,4,2,3,70,0,0
112359,-100,4,2,3,70,0,0
114401,-100,4,2,3,5,0,0
114484,-100,4,2,3,70,0,0
117068,-100,4,2,3,5,0,0
117151,-100,4,2,3,70,0,0
119734,-100,4,2,3,5,0,0
119818,-100,4,2,3,70,0,0
124193,-400,4,2,3,70,0,0
124276,-400,4,2,3,5,0,0

[Colours]
Combo1 : 223,223,223
Combo2 : 49,206,189
Combo3 : 31,152,169
Combo4 : 78,97,114

[HitObjects]
162,74,360,6,0,P|190:126|193:185,1,120.000004577637,2|0,0:0|0:0,0:0:0:0:
146,246,859,1,0,0:0:0:0:
208,293,1026,2,0,B|275:279|275:317|350:301,1,120.000004577637,2|0,0:0|0:0,0:0:0:0:
391,261,1526,1,0,0:0:0:0:
453,307,1693,2,0,P|457:338|451:378,2,60.0000022888184,2|0|0,0:0|0:0|0:0,0:0:0:0:
391,261,2193,2,0,P|374:205|385:146,1,120.000004577637,2|0,0:0|0:0,0:0:0:0:
446,97,2693,1,0,0:0:0:0:
446,97,2859,1,0,0:0:0:0:
397,35,3026,6,0,L|270:46,1,120.000004577637,2|0,0:0|0:0,0:0:0:0:
204,18,3526,1,0,0:0:0:0:
154,78,3693,2,0,L|27:89,1,120.000004577637,2|0,0:0|0:0,0:0:0:0:
3,160,4193,1,0,0:0:0:0:
63,208,4359,6,0,L|146:200,1,60.0000022888184,2|0,0:0|0:0,0:0:0:0:
180,148,4693,1,0,0:0:0:0:
256,159,4859,2,0,P|245:187|226:209,1,60.0000022888184,2|0,0:0|0:0,0:0:0:0:
271,352,5193,1,2,0:0:0:0:
201,297,5359,1,8,0:0:0:0:
201,297,5526,1,0,0:0:0:0:
271,352,5693,6,0,P|309:361|349:357,1,80,6|0,0:0|0:2,0:0:0:0:
400,285,6026,1,8,0:0:0:0:
400,285,6193,1,0,0:0:0:0:
411,138,6359,2,0,P|383:166|368:203,1,80,2|2,0:0|0:0,0:0:0:0:
400,285,6693,1,8,0:0:0:0:
400,285,6859,1,0,0:0:0:0:
491,174,7026,6,0,P|497:134|488:96,1,80,2|0,0:0|0:0,0:0:0:0:
414,51,7359,1,8,0:2:0:0:
293,144,7526,2,0,B|351:159|352:123|411:137,1,120,2|0,0:2|0:0,0:0:0:0:
410,137,7859,1,2,0:0:0:0:
238,204,8026,2,0,P|215:171|212:131,1,80,8|0,0:0|0:0,0:0:0:0:
294,271,8359,6,0,P|283:309|259:341,1,80,2|0,0:2|0:0,0:0:0:0:
170,347,8692,1,8,0:0:0:0:
170,347,8859,1,0,0:0:0:0:
38,284,9026,2,0,P|76:274|116:278,1,80,2|2,0:0|0:0,0:0:0:0:
170,347,9359,1,8,0:0:0:0:
170,347,9525,1,0,0:0:0:0:
165,205,9693,6,0,P|154:166|156:126,1,80,2|0,0:2|0:0,0:0:0:0:
224,70,10026,1,8,0:2:0:0:
357,150,10193,2,0,B|298:136|297:172|239:157,1,120,6|0,0:0|0:0,0:0:0:0:
239,157,10526,1,8,0:0:0:0:
141,40,10693,1,8,0:0:0:0:
239,157,10859,1,8,0:0:0:0:
165,205,11026,1,6,0:0:0:0:
152,196,11359,6,0,P|160:226|159:258,1,64,8|0,0:0|0:0,0:0:0:0:
252,260,11693,2,0,P|235:287|213:310,1,64,2|2,0:0|0:0,0:0:0:0:
280,377,12026,2,0,P|249:385|217:384,1,64,8|0,0:0|0:0,0:0:0:0:
316,308,12359,1,2,0:0:0:0:
316,308,12526,2,0,P|347:307|378:315,1,64,0|8,0:0|0:0,0:0:0:0:
435,367,12859,1,2,0:0:0:0:
435,367,13026,2,0,P|466:367|497:359,3,64,0|2|8|0,0:0|0:0|0:0|0:0,0:0:0:0:
511,282,13693,1,2,0:0:0:0:
502,270,14026,6,0,P|493:240|494:208,1,64,8|0,0:0|0:0,0:0:0:0:
404,203,14359,2,0,P|419:174|442:152,1,64,2|2,0:0|0:0,0:0:0:0:
382,84,14693,2,0,P|412:74|444:75,1,64,8|0,0:0|0:0,0:0:0:0:
343,150,15026,1,2,0:0:0:0:
343,150,15193,2,0,P|311:150|280:141,1,64,0|8,0:0|0:0,0:0:0:0:
247,72,15526,1,2,0:0:0:0:
247,72,15693,2,0,P|215:71|184:80,3,64,0|2|8|0,0:0|0:0|0:0|0:0,0:0:0:0:
145,146,16359,1,2,0:0:0:0:
132,142,16693,6,0,L|137:220,1,64,8|0,0:0|0:0,0:0:0:0:
207,278,17026,2,0,L|212:200,1,64,2|2,0:0|0:0,0:0:0:0:
282,142,17359,2,0,L|287:220,1,64,8|0,0:0|0:0,0:0:0:0:
357,278,17693,1,2,0:0:0:0:
357,278,17859,2,0,L|362:200,1,64,0|8,0:0|0:0,0:0:0:0:
353,367,18193,2,0,L|358:289,1,64,2|0,0:0|0:0,0:0:0:0:
280,307,18526,5,2,0:0:0:0:
363,194,18693,1,8,0:0:0:0:
282,142,18859,2,0,L|202:131,1,64,0|2,0:0|0:0,0:0:0:0:
153,175,19193,5,0,0:0:0:0:
81,56,19359,1,8,0:0:0:0:
24,134,19526,2,0,P|15:164|16:196,1,64,0|2,0:0|0:0,0:0:0:0:
2,271,19859,5,2,0:0:0:0:
132,324,20026,1,8,0:0:0:0:
91,236,20193,1,0,0:0:0:0:
43,359,20359,2,0,B|50:356|50:356|60:359|60:359|61:349|61:349|69:355|69:355|70:345|70:345|79:351|79:351|80:340|80:340|123:326|158:346|158:346|202:366|248:355,1,224,2|0,0:0|0:0,0:0:0:0:
245,354,21026,5,0,0:0:0:0:
316,283,21193,1,2,0:0:0:0:
257,348,21359,5,8,0:0:0:0:
429,375,21526,1,8,0:0:0:0:
367,212,21693,1,2,0:0:0:0:
378,201,22026,6,0,L|460:196,1,80,8|0,0:0|0:0,0:0:0:0:
351,123,22359,2,0,L|269:118,1,80,2|2,0:0|0:0,0:0:0:0:
378,45,22693,2,0,L|460:40,1,80,8|0,0:0|0:0,0:0:0:0:
351,123,23026,1,2,0:0:0:0:
293,45,23193,2,0,L|211:40,1,80,0|8,0:0|0:0,0:0:0:0:
126,84,23526,2,0,P|110:140|126:197,1,120,2|0,0:0|0:0,0:0:0:0:
141,211,23859,1,2,0:0:0:0:
94,295,24026,2,0,P|57:309|18:308,1,80,8|0,0:0|0:0,0:0:0:0:
178,342,24359,1,2,0:0:0:0:
225,258,24526,1,0,0:0:0:0:
225,258,24693,6,0,P|264:257|301:271,1,80,8|0,0:0|0:0,0:0:0:0:
349,179,25026,2,0,P|369:213|375:252,1,80,2|2,0:0|0:0,0:0:0:0:
479,246,25359,2,0,P|459:280|428:305,1,80,8|0,0:0|0:0,0:0:0:0:
444,156,25693,1,2,0:0:0:0:
488,71,25859,2,0,P|449:61|410:67,1,80,0|8,0:0|0:0,0:0:0:0:
317,35,26193,2,0,P|264:60|204:60,1,120,2|0,0:0|0:0,0:0:0:0:
186,53,26526,1,2,0:0:0:0:
228,139,26693,2,0,L|219:225,1,80,8|0,0:0|0:0,0:0:0:0:
33,227,27026,1,2,0:0:0:0:
125,198,27193,1,0,0:0:0:0:
125,198,27359,6,0,L|116:284,1,80,8|0,0:0|0:0,0:0:0:0:
217,383,27693,2,0,L|209:304,1,80,2|2,0:0|0:0,0:0:0:0:
309,198,28026,2,0,L|300:277,1,80,8|0,0:0|0:0,0:0:0:0:
372,341,28359,1,2,0:0:0:0:
463,369,28526,2,0,P|466:330|454:292,1,80,0|8,0:0|0:0,0:0:0:0:
406,209,28859,2,0,P|405:149|437:100,1,120,2|0,0:0|0:0,0:0:0:0:
455,91,29193,5,2,0:0:0:0:
283,46,29359,1,8,0:0:0:0:
208,106,29526,2,0,P|204:145|212:184,1,80,0|2,0:0|0:0,0:0:0:0:
309,198,29859,5,0,0:0:0:0:
126,152,30026,1,8,0:0:0:0:
79,289,30193,2,0,P|115:272|145:246,1,80,0|2,0:0|0:0,0:0:0:0:
126,152,30526,5,2,0:0:0:0:
157,341,30693,1,8,0:0:0:0:
235,286,30859,1,0,0:0:0:0:
243,381,31026,2,0,B|242:329|288:312|288:312|335:311|352:352|352:352|382:375|421:371|421:371|465:347|458:289,1,320,2|8,0:0|0:0,0:0:0:0:
415,209,31859,1,2,0:0:0:0:
409,193,32193,6,0,B|403:146|445:107|445:107|375:114,1,160,6|2,0:0|0:0,0:0:0:0:
309,50,32693,2,0,B|225:58,1,80,8|0,0:0|0:0,0:0:0:0:
140,21,33026,1,2,0:0:0:0:
140,21,33193,1,2,0:0:0:0:
153,116,33359,1,8,0:0:0:0:
63,80,33526,6,0,P|56:119|65:157,1,80,0|2,0:0|0:0,0:0:0:0:
114,240,33859,2,0,P|121:279|112:317,1,80,2|8,0:0|0:0,0:0:0:0:
204,288,34193,2,0,L|295:297,1,80,0|2,0:0|0:0,0:0:0:0:
366,346,34526,1,2,0:0:0:0:
366,346,34693,1,8,0:0:0:0:
368,249,34859,6,0,L|459:258,1,80,0|2,0:0|0:0,0:0:0:0:
299,182,35193,2,0,L|219:174,1,80,2|8,0:0|0:0,0:0:0:0:
137,224,35526,1,0,0:0:0:0:
74,151,35693,1,2,0:0:0:0:
137,224,35859,2,0,P|144:263|137:302,1,80,2|8,0:0|0:0,0:0:0:0:
74,151,36193,2,0,P|66:111|74:72,1,80,0|0,0:0|0:0,0:0:0:0:
159,28,36526,5,0,0:0:0:0:
243,73,36693,2,0,P|250:112|243:151,2,80,8|0|2,0:0|0:0|0:0,0:0:0:0:
327,26,37193,2,0,P|356:52|394:65,1,80,2|8,0:0|0:0,0:0:0:0:
479,21,37526,6,0,L|459:182,1,160,2|2,0:0|0:0,0:0:0:0:
389,246,38026,2,0,L|379:166,1,80,8|0,0:0|0:0,0:0:0:0:
296,215,38359,1,2,0:0:0:0:
296,215,38526,1,2,0:0:0:0:
296,119,38693,1,8,0:0:0:0:
212,168,38859,6,0,P|173:172|134:165,1,80,0|2,0:0|0:0,0:0:0:0:
91,78,39193,2,0,P|130:70|169:75,1,80,0|8,0:0|0:0,0:0:0:0:
212,168,39526,1,0,0:0:0:0:
212,168,39693,1,2,0:0:0:0:
187,260,39859,1,2,0:0:0:0:
162,352,40026,2,0,L|252:345,1,80,8|0,0:0|0:0,0:0:0:0:
313,281,40359,6,0,L|475:293,1,160,2|8,0:0|0:0,0:0:0:0:
504,202,40859,1,0,0:0:0:0:
504,202,41026,1,2,0:0:0:0:
504,202,41193,1,2,0:0:0:0:
461,116,41359,6,0,L|349:107,1,80,10|2,0:0|0:0,0:0:0:0:
314,39,41693,1,2,0:0:0:0:
314,39,41859,1,2,0:0:0:0:
223,72,42026,6,0,L|214:183,1,80,10|2,0:0|0:0,0:0:0:0:
132,198,42359,1,2,0:0:0:0:
132,198,42526,1,2,0:0:0:0:
244,226,42693,1,10,0:0:0:0:
163,308,42859,1,2,0:0:0:0:
150,297,43193,1,2,0:0:0:0:
58,326,43359,6,0,L|51:246,1,80,8|0,0:0|0:0,0:0:0:0:
0,164,43693,1,2,0:0:0:0:
0,164,43859,1,2,0:0:0:0:
55,85,44026,6,0,L|134:78,1,80,10|2,0:0|0:0,0:0:0:0:
215,10,44359,2,0,L|374:24,1,160,2|2,0:0|0:0,0:0:0:0:
427,104,44859,1,2,0:0:0:0:
491,22,45026,1,8,0:0:0:0:
439,121,45193,1,2,0:0:0:0:
466,237,45359,1,8,0:0:0:0:
427,104,45526,6,0,L|222:122,1,191.999994140625,6|2,0:0|0:0,0:0:0:0:
152,200,46026,2,0,L|275:210,1,95.9999970703126,8|0,0:0|0:0,0:0:0:0:
129,89,46359,1,2,0:0:0:0:
152,200,46526,1,2,0:0:0:0:
129,89,46693,2,0,L|33:97,1,95.9999970703126,8|0,0:0|0:0,0:0:0:0:
6,208,47026,2,0,P|96:201|139:280,1,191.999994140625,2|8,0:0|0:0,0:0:0:0:
139,280,47526,1,0,0:0:0:0:
236,343,47693,6,0,P|283:345|326:325,1,95.9999970703126,2|2,0:0|0:0,0:0:0:0:
436,293,48026,2,0,P|404:259|390:213,1,95.9999970703126,8|0,0:0|0:0,0:0:0:0:
272,115,48359,2,0,P|355:130|358:46,1,191.999994140625,4|8,0:3|0:0,0:0:0:0:
358,46,48859,1,0,0:0:0:0:
225,11,49026,1,2,0:0:0:0:
272,115,49193,1,2,0:0:0:0:
224,10,49359,2,0,P|177:14|138:40,1,95.9999970703126,8|0,0:0|0:0,0:0:0:0:
22,52,49693,6,0,P|113:62|151:146,1,191.999994140625,4|8,0:3|0:0,0:0:0:0:
151,146,50193,1,0,0:0:0:0:
97,248,50359,1,2,0:0:0:0:
59,139,50526,1,2,0:0:0:0:
97,248,50693,1,8,0:0:0:0:
120,245,50776,1,8,0:0:0:0:
143,242,50859,1,8,0:0:0:0:
167,239,50943,1,8,0:0:0:0:
190,236,51026,6,0,P|231:259|252:301,1,95.9999970703126,6|0,0:0|0:0,0:0:0:0:
351,357,51359,2,0,P|362:312|401:285,1,95.9999970703126,8|0,0:0|0:0,0:0:0:0:
302,132,51693,1,2,0:0:0:0:
317,245,51859,1,2,0:0:0:0:
302,132,52026,2,0,L|205:121,1,95.9999970703126,8|0,0:0|0:0,0:0:0:0:
282,34,52359,2,0,L|482:56,1,191.999994140625,2|8,0:0|0:0,0:0:0:0:
472,55,52859,1,0,0:0:0:0:
412,154,53026,6,0,P|397:198|404:246,1,95.9999970703126,2|2,0:0|0:0,0:0:0:0:
497,314,53359,2,0,P|464:348|418:360,1,95.9999970703126,8|0,0:0|0:0,0:0:0:0:
309,315,53693,2,0,P|217:297|134:341,1,191.999994140625,2|8,0:0|0:0,0:0:0:0:
134,341,54193,1,0,0:0:0:0:
90,196,54359,1,2,0:0:0:0:
41,300,54526,1,2,0:0:0:0:
90,195,54693,2,0,P|97:149|82:103,1,95.9999970703126,8|0,0:0|0:0,0:0:0:0:
156,14,55026,6,0,P|218:82|311:77,1,191.999994140625,2|8,0:0|0:0,0:0:0:0:
311,77,55526,1,0,0:0:0:0:
437,170,55693,1,2,0:0:0:0:
473,61,55859,1,2,0:0:0:0:
437,170,56026,1,8,0:0:0:0:
439,193,56109,1,8,0:0:0:0:
441,217,56193,1,8,0:0:0:0:
443,240,56276,1,8,0:0:0:0:
445,263,56359,6,0,L|331:278,1,95.9999970703126,6|0,0:0|0:0,0:0:0:0:
251,336,56693,2,0,L|137:321,1,95.9999970703126,8|0,0:0|0:0,0:0:0:0:
233,221,57026,1,2,0:0:0:0:
251,336,57193,1,2,0:0:0:0:
233,220,57359,2,0,P|252:177|290:148,1,95.9999970703126,8|0,0:0|0:0,0:0:0:0:
348,47,57693,2,0,P|258:73|174:30,1,191.999994140625,2|8,0:0|0:0,0:0:0:0:
174,30,58193,1,0,0:0:0:0:
104,121,58359,6,0,P|139:152|152:198,1,95.9999970703126,2|2,0:0|0:0,0:0:0:0:
247,265,58693,2,0,L|355:257,1,95.9999970703126,8|0,0:0|0:0,0:0:0:0:
275,363,59026,2,0,L|80:348,1,191.999994140625,4|8,0:3|0:0,0:0:0:0:
83,348,59526,1,0,0:0:0:0:
38,208,59693,1,2,0:0:0:0:
144,250,59859,1,2,0:0:0:0:
38,207,60026,2,0,P|50:162|81:126,1,95.9999970703126,8|0,0:0|0:0,0:0:0:0:
133,22,60359,6,0,L|328:37,1,191.999994140625,4|8,0:3|0:0,0:0:0:0:
324,36,60859,1,0,0:0:0:0:
226,153,61026,1,2,0:0:0:0:
337,121,61193,1,2,0:0:0:0:
226,153,61359,1,8,0:0:0:0:
202,151,61443,1,8,0:0:0:0:
178,150,61526,1,8,0:0:0:0:
154,148,61609,1,8,0:0:0:0:
129,146,61693,6,0,P|104:186|100:233,1,95.9999970703126,6|0,0:0|0:0,0:0:0:0:
193,302,62026,2,0,L|288:294,1,95.9999970703126,8|0,0:0|0:0,0:0:0:0:
399,207,62359,1,2,0:0:0:0:
369,318,62526,1,2,0:0:0:0:
399,207,62693,2,0,L|494:214,1,95.9999970703126,8|0,0:0|0:0,0:0:0:0:
484,99,63026,2,0,P|405:55|341:118,1,191.999994140625,2|8,0:0|0:0,0:0:0:0:
341,118,63526,1,0,0:0:0:0:
264,31,63693,6,0,P|229:62|182:73,1,95.9999970703126,2|2,0:0|0:0,0:0:0:0:
98,152,64026,2,0,P|136:179|183:186,1,95.9999970703126,8|0,0:0|0:0,0:0:0:0:
285,241,64359,2,0,P|227:281|213:350,1,143.999995605469,4|0,0:0|0:0,0:0:0:0:
234,361,64693,6,0,L|337:351,1,95.9999970703126,8|2,0:0|0:3,0:0:0:0:
285,241,65026,2,0,L|387:257,1,95.9999970703126,8|2,0:0|0:3,0:0:0:0:
365,138,65359,2,0,L|459:180,1,95.9999970703126,8|2,0:0|0:3,0:0:0:0:
285,241,65693,6,0,P|257:202|249:155,1,95.9999970703126,8|2,0:0|0:3,0:0:0:0:
159,229,66026,2,0,P|154:181|171:137,1,95.9999970703126,8|2,0:0|0:3,0:0:0:0:
55,156,66359,2,0,P|74:112|111:82,1,95.9999970703126,8|2,0:0|0:3,0:0:0:0:
1,42,66693,2,0,P|39:14|86:6,1,95.9999970703126,8|2,0:0|0:3,0:0:0:0:
264,60,67026,6,0,L|246:173,1,95.9999970703126,8|2,0:0|0:3,0:0:0:0:
340,28,67359,2,0,L|358:141,1,95.9999970703126,8|2,0:0|0:3,0:0:0:0:
441,94,67693,2,0,L|423:207,1,95.9999970703126,8|2,0:0|0:3,0:0:0:0:
429,227,67943,1,2,0:3:0:0:
432,265,68026,1,8,0:0:0:0:
494,338,68193,1,2,0:3:0:0:
349,288,68359,5,12,0:0:0:0:
84,356,68693,1,8,0:0:0:0:
21,94,69026,1,8,0:0:0:0:
281,23,69359,1,8,0:0:0:0:
185,191,69693,1,6,0:0:0:0:
226,163,74693,5,8,0:0:0:0:
226,163,74859,2,0,B|318:138|318:227|416:191,1,191.999994140625,6|0,0:0|0:0,0:0:0:0:
456,89,75359,2,0,P|430:180|452:272,1,191.999994140625,8|2,0:0|0:0,0:0:0:0:
345,315,75859,1,2,0:0:0:0:
257,238,76026,2,0,P|191:265|123:248,1,143.999995605469,8|0,0:0|0:0,0:0:0:0:
110,228,76359,6,0,L|129:22,1,191.999994140625,2|8,0:0|0:0,0:0:0:0:
118,19,77026,1,2,0:0:0:0:
216,78,77193,1,2,0:0:0:0:
304,4,77359,1,10,0:0:0:0:
304,4,77526,6,0,L|321:195,1,191.999994140625,4|2,0:0|0:0,0:0:0:0:
292,306,78026,2,0,B|407:323|385:244|482:257,1,191.999994140625,8|2,0:0|0:0,0:0:0:0:
431,147,78526,1,2,0:0:0:0:
469,255,78693,2,0,P|399:256|340:215,1,143.999995605469,8|0,0:0|0:0,0:0:0:0:
325,197,79026,6,0,P|232:184|165:248,1,191.999994140625,2|8,0:0|0:0,0:0:0:0:
170,267,79693,1,2,0:0:0:0:
87,346,79859,1,2,0:0:0:0:
60,234,80026,1,8,0:0:0:0:
60,234,80193,6,0,L|85:16,1,191.999994140625,4|2,0:0|0:0,0:0:0:0:
194,68,80693,2,0,P|277:33|340:98,1,191.999994140625,8|2,0:0|0:0,0:0:0:0:
440,40,81193,1,2,0:0:0:0:
428,154,81359,1,8,0:0:0:0:
415,268,81526,1,0,0:0:0:0:
404,382,81693,5,2,0:0:0:0:
332,318,81859,1,0,0:0:0:0:
239,291,82026,1,8,0:0:0:0:
146,317,82193,1,0,0:0:0:0:
72,378,82359,5,8,0:0:0:0:
63,301,82526,1,2,0:0:0:0:
54,224,82693,1,8,0:0:0:0:
45,147,82859,5,4,0:0:0:0:
45,147,83026,1,0,0:0:0:0:
36,70,83193,1,2,0:0:0:0:
36,70,83359,1,8,0:0:0:0:
113,61,83526,1,0,0:0:0:0:
122,138,83693,6,0,L|130:217,2,80,2|2|8,0:3|0:0|0:0,0:0:0:0:
199,129,84193,1,0,0:0:0:0:
199,129,84359,2,0,L|207:208,1,80,2|2,0:3|0:0,0:0:0:0:
276,120,84693,1,8,0:0:0:0:
282,105,85026,5,8,0:0:0:0:
359,96,85193,1,2,0:0:0:0:
436,87,85359,1,8,0:0:0:0:
436,87,85526,6,0,L|417:258,1,160,4|2,0:0|0:0,0:0:0:0:
409,322,86026,2,0,P|372:311|333:321,1,80,8|0,0:0|0:0,0:0:0:0:
338,217,86359,2,0,P|299:226|271:253,1,80,8|2,0:0|0:0,0:0:0:0:
222,161,86693,2,0,P|193:188|182:226,1,80,8|2,0:0|0:0,0:0:0:0:
93,170,87026,6,0,P|81:207|91:246,1,77.9999964294435,8|0,0:0|0:0,0:0:0:0:
101,248,87359,6,0,P|88:207|103:166,1,88.000002685547,8|2,0:0|0:0,0:0:0:0:
156,84,87693,1,8,0:0:0:0:
80,23,87859,1,2,0:3:0:0:
58,20,87943,1,2,0:3:0:0:
36,17,88026,1,8,0:0:0:0:
156,84,88193,6,0,L|343:68,1,180.000006866455,6|0,0:0|0:0,0:0:0:0:
344,60,89026,5,0,0:0:0:0:
420,28,89193,1,2,0:0:0:0:
402,128,89359,1,8,0:0:0:0:
440,22,89526,2,0,L|416:139,1,120.000004577637,6|2,0:0|0:0,0:0:0:0:
458,247,90026,1,8,0:0:0:0:
465,229,90359,6,0,L|364:205,1,95.9999970703126,2|2,0:0|0:0,0:0:0:0:
294,320,90693,2,0,L|395:296,1,95.9999970703126,8|0,0:0|0:0,0:0:0:0:
262,252,91026,2,0,B|209:290|227:348|227:348|188:304|116:323,1,191.999994140625,4|8,0:3|0:0,0:0:0:0:
154,317,91526,1,0,0:0:0:0:
47,357,91693,1,2,0:0:0:0:
67,244,91859,1,2,0:0:0:0:
87,131,92026,2,0,L|157:222,1,95.9999970703126,8|0,0:0|0:0,0:0:0:0:
259,186,92359,6,0,L|133:22,1,191.999994140625,4|8,0:3|0:0,0:0:0:0:
141,33,92859,1,0,0:0:0:0:
256,47,93026,1,2,0:0:0:0:
370,33,93193,1,2,0:0:0:0:
323,138,93359,2,0,P|311:183|320:230,1,95.9999970703126,8|8,0:0|0:0,0:0:0:0:
432,257,93693,6,0,P|387:270|359:308,1,95.9999970703126,4|0,0:0|0:0,0:0:0:0:
458,249,94026,2,0,P|467:202|454:156,1,95.9999970703126,8|0,0:0|0:0,0:0:0:0:
370,33,94359,1,2,0:0:0:0:
485,39,94526,1,2,0:0:0:0:
369,33,94693,2,0,P|325:50|277:51,1,95.9999970703126,8|0,0:0|0:0,0:0:0:0:
173,2,95026,2,0,L|187:234,1,191.999994140625,2|8,0:0|0:0,0:0:0:0:
184,193,95526,1,0,0:0:0:0:
77,235,95693,6,0,L|71:139,1,95.9999970703126,2|2,0:0|0:0,0:0:0:0:
153,267,96026,2,0,L|147:362,1,95.9999970703126,8|0,0:0|0:0,0:0:0:0:
241,246,96359,2,0,P|309:228|405:315,1,191.999994140625,2|8,0:0|0:0,0:0:0:0:
399,296,96859,1,0,0:0:0:0:
512,234,97026,1,2,0:0:0:0:
483,345,97193,1,2,0:0:0:0:
512,234,97359,2,0,L|506:139,1,95.9999970703126,8|0,0:0|0:0,0:0:0:0:
454,33,97693,6,0,P|367:69|275:47,1,191.999994140625,2|8,0:0|0:0,0:0:0:0:
275,47,98193,1,0,0:0:0:0:
324,158,98359,1,2,0:0:0:0:
217,114,98526,1,2,0:0:0:0:
324,158,98693,2,0,P|334:204|327:251,1,95.9999970703126,8|8,0:0|0:0,0:0:0:0:
233,318,99026,6,0,L|125:300,1,95.9999970703126,4|0,0:0|0:0,0:0:0:0:
46,231,99359,2,0,L|140:215,1,95.9999970703126,8|0,0:0|0:0,0:0:0:0:
107,91,99693,1,2,0:0:0:0:
217,114,99859,1,2,0:0:0:0:
105,91,100026,2,0,P|106:138|126:181,1,95.9999970703126,8|0,0:0|0:0,0:0:0:0:
217,113,100359,2,0,P|308:97|382:155,1,191.999994140625,2|8,0:0|0:0,0:0:0:0:
382,155,100859,1,0,0:0:0:0:
478,92,101026,6,0,P|468:138|477:185,1,95.9999970703126,2|2,0:0|0:0,0:0:0:0:
398,269,101359,2,0,P|408:315|399:362,1,95.9999970703126,8|0,0:0|0:0,0:0:0:0:
292,314,101693,2,0,P|200:295|118:340,1,191.999994140625,6|8,0:3|0:0,0:0:0:0:
118,340,102193,1,0,0:0:0:0:
48,223,102359,1,2,0:0:0:0:
156,262,102526,1,2,0:0:0:0:
48,222,102693,2,0,P|86:195|110:154,1,95.9999970703126,8|0,0:0|0:0,0:0:0:0:
108,38,103026,6,0,B|45:19|45:19|7:83|26:139,1,191.999994140625,6|8,0:3|0:0,0:0:0:0:
26,139,103526,1,0,0:0:0:0:
177,108,103693,1,2,0:0:0:0:
164,222,103859,1,2,0:0:0:0:
177,108,104026,1,8,0:0:0:0:
199,100,104109,1,8,0:0:0:0:
223,98,104193,1,8,0:0:0:0:
246,103,104276,1,8,0:0:0:0:
267,113,104359,6,0,P|311:129|359:126,1,95.9999970703126,6|0,0:0|0:0,0:0:0:0:
454,59,104693,2,0,L|437:176,1,95.9999970703126,8|0,0:0|0:0,0:0:0:0:
411,311,105026,1,2,0:0:0:0:
377,200,105193,1,2,0:0:0:0:
411,311,105359,2,0,P|458:310|496:283,1,95.9999970703126,8|0,0:0|0:0,0:0:0:0:
346,354,105693,2,0,L|127:330,1,191.999994140625,2|8,0:0|0:0,0:0:0:0:
155,333,106193,1,0,0:0:0:0:
105,229,106359,6,0,L|238:243,1,95.9999970703126,2|2,0:0|0:0,0:0:0:0:
262,141,106693,2,0,L|166:130,1,95.9999970703126,8|0,0:0|0:0,0:0:0:0:
54,136,107026,2,0,P|81:59|139:22,1,143.999995605469,4|0,0:0|0:0,0:0:0:0:
154,24,107359,6,0,L|249:34,1,95.9999970703126,8|2,0:0|0:3,0:0:0:0:
262,141,107693,2,0,L|349:102,1,95.9999970703126,8|2,0:0|0:3,0:0:0:0:
414,188,108026,2,0,L|470:110,1,95.9999970703126,8|2,0:0|0:3,0:0:0:0:
332,205,108359,6,0,P|328:252|342:298,1,95.9999970703126,8|2,0:0|0:3,0:0:0:0:
235,253,108693,2,0,P|244:299|269:340,1,95.9999970703126,8|2,0:0|0:3,0:0:0:0:
152,211,109026,2,0,P|142:257|117:298,1,95.9999970703126,8|2,0:0|0:3,0:0:0:0:
55,163,109359,2,0,P|58:210|44:256,1,95.9999970703126,8|2,0:0|0:3,0:0:0:0:
32,67,109693,6,0,L|147:54,1,95.9999970703126,8|2,0:0|0:3,0:0:0:0:
216,129,110026,2,0,L|331:116,1,95.9999970703126,8|2,0:0|0:3,0:0:0:0:
400,191,110359,2,0,L|515:178,1,95.9999970703126,8|2,0:0|0:3,0:0:0:0:
499,141,110609,1,2,0:3:0:0:
503,102,110693,1,8,0:0:0:0:
400,191,110859,1,2,0:3:0:0:
465,315,111026,5,12,0:0:0:0:
200,383,111360,1,8,0:0:0:0:
137,121,111693,1,8,0:0:0:0:
397,50,112026,1,8,0:0:0:0:
301,218,112359,6,0,P|270:242|232:255,1,80,6|0,0:0|0:0,0:0:0:0:
155,211,112693,1,10,0:3:0:0:
155,211,112859,1,2,0:3:0:0:
82,82,113026,2,0,P|119:95|148:122,1,80,2|2,0:0|0:0,0:0:0:0:
155,211,113359,1,10,0:3:0:0:
155,211,113526,1,2,0:3:0:0:
32,263,113693,6,0,L|42:368,1,80,2|2,0:0|0:3,0:0:0:0:
123,316,114026,1,8,0:0:0:0:
230,186,114193,2,0,B|245:244|209:245|223:304,1,120,2|0,0:3|0:0,0:0:0:0:
223,303,114526,1,2,0:0:0:0:
304,183,114693,2,0,P|292:145|262:118,1,80,8|0,0:0|0:0,0:0:0:0:
304,40,115026,6,0,L|404:32,1,80,2|0,0:0|0:0,0:0:0:0:
444,97,115359,1,10,0:3:0:0:
444,97,115526,1,2,0:3:0:0:
304,154,115693,2,0,L|404:162,1,80,2|2,0:0|0:0,0:0:0:0:
444,97,116026,1,10,0:3:0:0:
444,97,116193,1,2,0:3:0:0:
512,229,116359,6,0,L|432:235,1,80,2|2,0:0|0:3,0:0:0:0:
376,304,116693,1,8,0:0:0:0:
264,221,116859,2,0,P|286:284|277:351,1,120,2|0,0:3|0:0,0:0:0:0:
281,336,117193,1,2,0:0:0:0:
191,233,117359,2,0,P|194:193|218:162,1,80,8|0,0:0|0:0,0:0:0:0:
171,87,117693,6,0,L|71:95,1,80,2|0,0:0|0:0,0:0:0:0:
48,170,118026,1,10,0:3:0:0:
48,170,118193,1,2,0:3:0:0:
0,12,118359,2,0,L|8:112,1,80,2|2,0:0|0:0,0:0:0:0:
48,170,118692,1,10,0:3:0:0:
48,170,118859,1,2,0:3:0:0:
0,314,119026,6,0,P|17:279|51:258,1,80,10|2,0:0|0:3,0:0:0:0:
48,170,119359,1,8,0:0:0:0:
129,268,119526,2,0,P|187:259|225:215,1,120,0|0,0:0|0:0,0:0:0:0:
225,215,119859,1,2,0:0:0:0:
277,342,120026,2,0,P|280:302|301:268,1,80,8|0,0:0|0:0,0:0:0:0:
361,203,120359,6,0,P|397:218|437:216,1,80,2|0,0:0|0:0,0:0:0:0:
492,146,120693,1,8,0:0:0:0:
492,146,120859,1,2,0:0:0:0:
510,4,121026,2,0,P|478:28|459:63,1,80,2|2,0:0|0:0,0:0:0:0:
492,146,121360,1,8,0:0:0:0:
492,146,121526,1,2,0:0:0:0:
368,61,121693,6,0,L|281:66,1,80,8|2,0:0|0:3,0:0:0:0:
228,130,122026,1,8,0:0:0:0:
202,46,122193,1,2,0:3:0:0:
168,195,122359,5,8,0:0:0:0:
142,111,122526,1,2,0:3:0:0:
108,260,122693,5,8,0:0:0:0:
82,176,122860,1,2,0:3:0:0:
82,176,123026,1,2,2:0:0:0:
30,270,123193,5,8,2:0:0:0:
69,265,123276,1,8,0:0:0:0:
108,260,123359,1,8,0:0:0:0:
199,307,123526,6,0,P|202:326|202:346,2,40,10|10|10,0:3|0:3|0:3,0:0:0:0:
251,217,123859,2,0,P|250:197|254:177,1,40,2|0,0:3|0:0,0:0:0:0:
302,278,124026,2,0,P|305:297|305:317,1,40,2|0,2:0|2:0,2:2:0:0:
325,204,124193,6,0,L|508:194,1,180,6|0,0:0|0:0,0:0:0:0:
