osu file format v14

[General]
AudioFilename: audio.mp3
AudioLeadIn: 0
PreviewTime: 45443
Countdown: 0
SampleSet: Soft
StackLeniency: 0.7
Mode: 0
LetterboxInBreaks: 0
WidescreenStoryboard: 0

[Editor]
Bookmarks: 32357,69857,89688,112521
DistanceSpacing: 1.1
BeatDivisor: 4
GridSize: 4
TimelineZoom: 1.3

[Metadata]
Title:Heart Goes Boom!! [GAME Mix]
TitleUnicode:Heart Goes Boom!![GAME Mix]
Artist:Akiyama Mio (CV: Hikasa Yoko)
ArtistUnicode:秋山澪 (CV: 日笠陽子)
Creator:TT Mouse
Version:Normal
Source:けいおん! 放課後ライブ!!
Tags:K-ON! MUSIC HISTORY'S BOX Houkago Ho-kago Live raibu sahuang Pata-Mon Yugu kencho
BeatmapID:1766794
BeatmapSetID:844633

[Difficulty]
HPDrainRate:4
CircleSize:3.5
OverallDifficulty:4
ApproachRate:5
SliderMultiplier:0.8
SliderTickRate:1

[Events]
//Background and Video events
0,0,"Akiyama.jpg",0,0
//Break Periods
2,69893,73493
//Storyboard Layer 0 (Background)
//Storyboard Layer 1 (Fail)
//Storyboard Layer 2 (Pass)
//Storyboard Layer 3 (Foreground)
//Storyboard Sound Samples

[TimingPoints]
360,333.333333333333,4,2,3,50,1,0
5359,-100,4,2,3,50,0,0
5693,-100,4,2,3,50,0,0
11026,-100,4,2,3,50,0,0
20359,-100,4,2,3,50,0,0
21693,-100,4,2,3,50,0,0
32193,-100,4,2,3,50,0,0
45526,-100,4,2,3,50,0,1
64359,-100,4,2,3,50,0,0
83026,-100,4,2,3,50,0,0
87026,-100,4,2,3,50,0,0
87359,-100,4,2,3,50,0,0
87693,-100,4,2,3,50,0,0
89526,-100,4,2,3,50,0,1
107026,-100,4,2,3,50,0,0
124193,-100,4,2,3,50,0,0
125609,-100,4,2,3,5,0,0

[Colours]
Combo1 : 223,223,223
Combo2 : 49,206,189
Combo3 : 31,152,169
Combo4 : 78,97,114

[HitObjects]
45,329,360,6,0,P|125:230|131:355,1,320,2|2,0:0|0:0,0:0:0:0:
467,329,3026,2,0,P|387:230|381:355,1,320,2|2,0:0|0:0,0:0:0:0:
213,142,5359,1,8,0:0:0:0:
135,184,5693,6,0,P|121:221|124:260,1,80,6|8,0:0|0:0,0:0:0:0:
200,306,6359,1,2,0:0:0:0:
268,250,6693,1,8,0:0:0:0:
355,242,7026,2,0,L|448:266,1,80,2|8,0:0|0:2,0:0:0:0:
466,233,7526,2,0,P|472:185|416:142,1,120,2|8,0:2|0:0,0:0:0:0:
360,78,8359,6,0,L|263:96,1,80,2|8,0:2|0:0,0:0:0:0:
239,170,9025,1,2,0:0:0:0:
190,96,9359,1,8,0:0:0:0:
152,175,9692,2,0,L|163:257,1,80,2|8,0:2|0:2,0:0:0:0:
166,298,10193,2,0,P|222:309|264:259,1,120,6|8,0:0|0:0,0:0:0:0:
325,329,11026,6,0,P|368:315|408:332,1,80,6|8,0:0|0:0,0:0:0:0:
467,268,11693,1,2,0:0:0:0:
392,221,12026,1,8,0:0:0:0:
449,154,12359,2,0,L|437:71,1,80,2|8,0:0|0:0,0:0:0:0:
410,39,12859,2,0,B|375:29|375:29|277:55,1,120,2|8,0:0|0:0,0:0:0:0:
219,97,13693,6,0,P|179:101|141:89,1,80,2|8,0:0|0:0,0:0:0:0:
92,162,14360,1,2,0:0:0:0:
124,243,14693,1,8,0:0:0:0:
206,274,15026,2,0,L|253:201,1,80,2|8,0:0|0:0,0:0:0:0:
277,172,15526,2,0,B|320:182|320:182|379:254,1,120,2|8,0:0|0:0,0:0:0:0:
346,326,16359,6,0,P|317:340|260:340,1,80,2|8,0:0|0:0,0:0:0:0:
184,361,17026,1,2,0:0:0:0:
106,318,17359,1,8,0:0:0:0:
154,244,17692,2,0,L|136:162,1,80,2|8,0:0|0:0,0:0:0:0:
127,122,18192,2,0,B|174:108|174:108|255:137,1,120,2|8,0:0|0:0,0:0:0:0:
257,218,19026,5,2,0:0:0:0:
323,160,19359,1,8,0:0:0:0:
300,74,19693,1,2,0:0:0:0:
383,47,20026,1,8,0:0:0:0:
405,131,20359,2,0,B|421:174|421:174|396:246|396:246|406:293,1,160,2|0,0:0|0:0,0:0:0:0:
361,360,21359,2,0,P|335:353|312:353,1,40,8|8,0:0|0:0,0:0:0:0:
277,349,21693,6,0,L|261:263,1,80,2|8,0:0|0:0,0:0:0:0:
175,282,22359,2,0,L|159:196,1,80,2|8,0:0|0:0,0:0:0:0:
73,217,23026,1,2,0:0:0:0:
103,134,23359,1,8,0:0:0:0:
121,93,23526,2,0,P|180:83|241:121,1,120,2|8,0:0|0:0,0:0:0:0:
302,161,24359,6,0,P|346:137|371:98,1,80,2|8,0:0|0:0,0:0:0:0:
445,145,25025,2,0,P|438:184|454:224,1,80,2|8,0:0|0:0,0:0:0:0:
421,303,25692,1,2,0:0:0:0:
345,347,26025,1,8,0:0:0:0:
324,307,26193,2,0,P|274:279|204:308,1,120,2|8,0:0|0:0,0:0:0:0:
146,349,27026,6,0,L|64:341,1,80,2|8,0:0|0:0,0:0:0:0:
37,258,27692,2,0,L|127:266,1,80,2|8,0:0|0:0,0:0:0:0:
185,209,28359,1,2,0:0:0:0:
126,143,28692,1,8,0:0:0:0:
152,107,28859,2,0,L|275:126,1,120,2|8,0:0|0:0,0:0:0:0:
337,68,29693,6,0,P|381:92|400:121,1,80,2|8,0:0|0:0,0:0:0:0:
439,192,30359,2,0,L|416:269,1,80,2|8,0:0|0:0,0:0:0:0:
347,323,31026,1,2,0:0:0:0:
280,265,31359,2,0,L|236:271,1,40,8|2,0:0|0:0,0:0:0:0:
206,242,31693,2,0,L|162:247,1,40,8|2,0:0|0:0,0:0:0:0:
80,266,32193,6,0,P|80:221|98:188,1,80,6|2,0:0|0:0,0:0:0:0:
134,170,32693,1,8,0:0:0:0:
125,82,33026,1,2,0:0:0:0:
212,71,33359,2,0,L|220:117,1,40,8|0,0:0|0:0,0:0:0:0:
226,154,33693,2,0,P|271:159|308:134,1,80,2|8,0:0|0:0,0:0:0:0:
337,63,34359,1,2,0:0:0:0:
389,136,34693,2,0,L|395:176,1,40,8|0,0:0|0:0,0:0:0:0:
373,214,35026,6,0,L|384:299,1,80,2|8,0:0|0:0,0:0:0:0:
326,360,35693,1,2,0:0:0:0:
256,306,36026,1,8,0:0:0:0:
176,343,36359,2,0,P|166:300|177:265,1,80,2|8,0:0|0:0,0:0:0:0:
248,216,37026,1,2,0:0:0:0:
168,178,37359,2,0,L|155:128,1,40,8|2,0:0|0:0,0:0:0:0:
147,96,37693,6,0,P|107:92|71:111,1,80,6|8,0:0|0:0,0:0:0:0:
81,197,38359,1,2,0:0:0:0:
34,271,38693,1,8,0:0:0:0:
88,340,39026,2,0,L|182:337,1,80,2|8,0:0|0:0,0:0:0:0:
244,293,39693,2,0,L|338:290,1,80,2|8,0:0|0:0,0:0:0:0:
363,309,40193,1,0,0:0:0:0:
402,328,40359,6,0,L|481:325,1,80,6|8,0:0|0:0,0:0:0:0:
495,239,41026,2,0,P|497:218|488:195,1,40,2|2,0:0|0:0,0:0:0:0:
454,175,41359,2,0,P|435:182|419:194,1,40,10|0,0:0|0:0,0:0:0:0:
375,200,41693,2,0,L|291:184,1,80,2|10,0:0|0:0,0:0:0:0:
224,235,42359,2,0,L|233:287,2,40,2|2|10,0:0|0:0|0:0,0:0:0:0:
191,205,42859,6,0,L|202:115,1,80,6|2,0:0|0:0,0:0:0:0:
210,82,43359,1,8,0:0:0:0:
123,63,43693,2,0,L|104:21,2,40,2|2|10,0:0|0:0|0:0,0:0:0:0:
117,106,44193,2,0,P|79:127|26:122,1,80,2|2,0:0|0:0,0:0:0:0:
22,166,44693,1,2,0:0:0:0:
22,257,45026,1,8,0:0:0:0:
70,330,45359,1,8,0:0:0:0:
107,306,45526,6,0,L|128:219,1,80,6|2,0:0|0:0,0:0:0:0:
137,185,46026,1,8,0:0:0:0:
221,162,46359,1,2,0:0:0:0:
273,232,46693,1,8,0:0:0:0:
224,305,47026,2,0,P|257:330|306:327,1,80,2|8,0:0|0:0,0:0:0:0:
376,298,47693,2,0,L|385:247,1,40,2|2,0:0|0:0,0:0:0:0:
390,215,48026,1,8,0:0:0:0:
321,159,48359,6,0,P|334:121|320:74,1,80,4|8,0:3|0:0,0:0:0:0:
287,60,48859,1,0,0:0:0:0:
155,70,49359,2,0,L|163:125,1,40,8|0,0:0|0:0,0:0:0:0:
161,154,49693,2,0,P|124:168|85:163,1,80,4|8,0:3|0:0,0:0:0:0:
50,134,50193,1,0,0:0:0:0:
36,265,50693,1,8,0:0:0:0:
44,352,51026,5,2,0:0:0:0:
131,363,51359,1,8,0:0:0:0:
172,284,51693,1,2,0:0:0:0:
112,218,52026,1,8,0:0:0:0:
182,165,52359,2,0,P|198:122|189:75,1,80,2|8,0:0|0:0,0:0:0:0:
263,34,53026,2,0,P|274:52|292:66,1,40,2|2,0:0|0:0,0:0:0:0:
332,67,53359,2,0,P|350:56|364:38,1,40,8|0,0:0|0:0,0:0:0:0:
405,31,53693,6,0,P|450:27|495:41,1,80,2|8,0:0|0:0,0:0:0:0:
497,122,54359,2,0,L|479:208,1,80,2|8,0:0|0:0,0:0:0:0:
407,249,55026,2,0,L|424:341,1,80,2|8,0:0|0:0,0:0:0:0:
336,306,55693,2,0,L|284:317,1,40,2|2,0:0|0:0,0:0:0:0:
253,323,56026,1,8,0:0:0:0:
220,241,56359,5,4,0:0:0:0:
300,205,56693,1,8,0:0:0:0:
267,123,57026,1,2,0:0:0:0:
185,157,57359,1,8,0:0:0:0:
121,96,57693,2,0,P|122:49|150:17,1,80,2|8,0:0|0:0,0:0:0:0:
228,27,58359,2,0,L|277:28,1,40,2|2,0:0|0:0,0:0:0:0:
312,31,58693,1,8,0:0:0:0:
381,84,59026,6,0,P|380:131|352:163,1,80,4|8,0:3|0:0,0:0:0:0:
320,173,59526,1,0,0:0:0:0:
185,157,60026,2,0,L|128:168,1,40,8|0,0:0|0:0,0:0:0:0:
111,192,60359,2,0,P|103:234|118:273,1,80,4|8,0:3|0:0,0:0:0:0:
153,289,60859,1,0,0:0:0:0:
279,326,61359,2,0,L|330:322,1,40,8|0,0:0|0:0,0:0:0:0:
363,319,61693,5,2,0:0:0:0:
385,234,62026,1,8,0:0:0:0:
309,188,62359,1,2,0:0:0:0:
242,246,62693,1,8,0:0:0:0:
172,191,63026,2,0,P|162:148|181:106,1,80,2|8,0:0|0:0,0:0:0:0:
248,68,63693,2,0,L|246:24,2,40,2|2|8,0:0|0:0|0:0,0:0:0:0:
247,156,64359,5,4,0:0:0:0:
330,128,64693,1,8,0:0:0:0:
382,198,65026,1,8,0:0:0:0:
323,263,65359,1,8,0:0:0:0:
348,347,65693,1,8,0:0:0:0:
433,368,66026,1,8,0:0:0:0:
494,305,66359,1,8,0:0:0:0:
473,219,66693,2,0,L|465:175,1,40,8|2,0:0|0:3,0:0:0:0:
455,136,67026,5,8,0:0:0:0:
439,49,67359,1,8,0:0:0:0:
356,80,67693,2,0,L|309:69,1,40,8|2,0:0|0:3,0:0:0:0:
280,95,68026,2,0,L|229:84,1,40,8|2,0:0|0:3,0:0:0:0:
197,94,68359,2,0,P|182:135|197:183,1,80,12|8,0:0|0:0,0:0:0:0:
240,241,69026,2,0,P|246:279|231:316,1,80,8|8,0:0|0:0,0:0:0:0:
148,344,69693,1,6,0:0:0:0:
312,237,74693,5,8,0:0:0:0:
345,208,74859,2,0,L|352:122,1,80,6|0,0:0|0:0,0:0:0:0:
355,84,75359,1,8,0:0:0:0:
288,26,75693,1,2,0:0:0:0:
201,43,76026,1,8,0:0:0:0:
158,120,76359,2,0,P|120:131|81:123,1,80,2|8,0:0|0:0,0:0:0:0:
55,208,77026,2,0,L|4:212,2,40,2|2|10,0:0|0:0|0:0,0:0:0:0:
86,238,77526,6,0,L|68:316,1,80,4|2,0:0|0:0,0:0:0:0:
59,359,78026,1,8,0:0:0:0:
145,344,78359,1,2,0:0:0:0:
229,320,78693,1,8,0:0:0:0:
270,306,78859,2,0,L|285:226,1,80,0|0,0:0|0:0,0:0:0:0:
293,184,79359,1,8,0:0:0:0:
362,237,79693,2,0,L|353:283,2,40,2|2|8,0:0|0:0|0:0,0:0:0:0:
374,194,80193,6,0,P|408:172|451:175,1,80,4|2,0:0|0:0,0:0:0:0:
485,194,80693,1,8,0:0:0:0:
490,106,81026,1,2,0:0:0:0:
410,69,81359,1,8,0:0:0:0:
335,116,81693,1,2,0:0:0:0:
260,70,82026,2,0,L|245:22,2,40,8|0|8,0:0|0:0|0:0,0:0:0:0:
256,158,82693,1,8,0:0:0:0:
237,197,82859,6,0,L|258:275,1,80,4|2,0:0|0:0,0:0:0:0:
297,292,83359,1,8,0:0:0:0:
240,359,83693,2,0,L|194:362,1,40,2|2,0:3|0:0,0:0:0:0:
156,365,84026,1,8,0:0:0:0:
117,285,84359,2,0,L|71:288,1,40,2|2,0:3|0:0,0:0:0:0:
32,290,84693,1,8,0:0:0:0:
51,204,85026,2,0,L|5:207,2,40,8|2|8,0:0|0:0|0:0,0:0:0:0:
94,195,85526,6,0,B|107:157|107:157|96:114,1,80,4|2,0:0|0:0,0:0:0:0:
59,94,86026,1,8,0:0:0:0:
119,30,86359,1,8,0:0:0:0:
191,79,86693,1,8,0:0:0:0:
263,28,87026,1,8,0:0:0:0:
332,81,87359,2,0,L|320:164,1,80,8|8,0:0|0:0,0:0:0:0:
314,203,87859,1,2,0:3:0:0:
400,220,88193,6,0,P|448:269|337:285,1,240,6|2,0:0|0:0,0:0:0:0:
324,250,89359,1,8,0:0:0:0:
314,203,89526,2,0,B|253:192|253:192|195:217,1,120,6|8,0:0|0:0,0:0:0:0:
143,282,90359,2,0,L|150:335,1,40,2|2,0:0|0:0,0:0:0:0:
154,365,90693,1,8,0:0:0:0:
69,379,91026,6,0,L|59:291,1,80,4|8,0:3|0:0,0:0:0:0:
56,255,91526,1,0,0:0:0:0:
123,141,92026,2,0,L|162:139,1,40,8|0,0:0|0:0,0:0:0:0:
206,135,92359,2,0,P|220:93|203:45,1,80,4|8,0:3|0:0,0:0:0:0:
177,32,92859,1,0,0:0:0:0:
298,83,93359,1,8,0:0:0:0:
374,39,93693,5,4,0:0:0:0:
374,126,94026,1,8,0:0:0:0:
427,195,94359,1,2,0:0:0:0:
391,275,94693,1,8,0:0:0:0:
303,269,95026,2,0,L|343:189,1,80,2|8,0:0|0:0,0:0:0:0:
266,146,95693,2,0,P|258:169|242:191,1,40,2|2,0:0|0:0,0:0:0:0:
210,206,96026,2,0,P|186:202|168:191,1,40,8|0,0:0|0:0,0:0:0:0:
136,166,96359,6,0,P|95:161|50:178,1,80,2|8,0:0|0:0,0:0:0:0:
104,247,97026,2,0,L|117:343,1,80,2|8,0:0|0:0,0:0:0:0:
192,368,97693,2,0,L|277:354,1,80,2|8,0:0|0:0,0:0:0:0:
357,342,98359,2,0,L|350:292,1,40,2|2,0:0|0:0,0:0:0:0:
319,271,98693,2,0,L|311:221,1,40,8|8,0:0|0:0,0:0:0:0:
305,187,99026,5,4,0:0:0:0:
380,141,99359,1,8,0:0:0:0:
362,54,99693,1,2,0:0:0:0:
274,48,100026,1,8,0:0:0:0:
237,127,100359,2,0,B|194:135|194:135|145:115,1,80,2|8,0:0|0:0,0:0:0:0:
78,89,101026,2,0,L|83:140,1,40,2|2,0:0|0:0,0:0:0:0:
87,172,101359,1,8,0:0:0:0:
78,259,101693,6,0,P|122:245|169:254,1,80,6|8,0:3|0:0,0:0:0:0:
188,277,102193,1,0,0:0:0:0:
288,362,102693,2,0,L|296:309,1,40,8|0,0:0|0:0,0:0:0:0:
299,278,103026,2,0,L|289:182,1,80,6|8,0:3|0:0,0:0:0:0:
286,154,103526,1,0,0:0:0:0:
369,51,104026,1,8,0:0:0:0:
431,113,104359,5,6,0:0:0:0:
368,174,104693,1,8,0:0:0:0:
401,255,105026,1,2,0:0:0:0:
488,248,105359,1,8,0:0:0:0:
452,328,105693,2,0,L|373:340,1,80,2|8,0:0|0:0,0:0:0:0:
287,321,106359,2,0,L|281:271,2,40,2|2|8,0:0|0:0|0:0,0:0:0:0:
206,357,107026,5,4,0:0:0:0:
124,323,107359,1,8,0:0:0:0:
160,242,107693,1,8,0:0:0:0:
247,210,108026,1,8,0:0:0:0:
261,123,108359,1,8,0:0:0:0:
173,111,108693,1,8,0:0:0:0:
134,32,109026,1,8,0:0:0:0:
221,36,109359,2,0,L|269:39,1,40,8|2,0:0|0:3,0:0:0:0:
304,44,109693,5,8,0:0:0:0:
347,120,110026,1,8,0:0:0:0:
432,99,110359,2,0,L|427:152,1,40,8|2,0:0|0:3,0:0:0:0:
450,177,110693,2,0,L|435:220,1,40,8|2,0:0|0:3,0:0:0:0:
418,255,111026,2,0,B|395:267|395:267|326:252,1,80,12|8,0:0|0:0,0:0:0:0:
267,207,111693,2,0,B|214:195|214:195|191:207,1,80,8|8,0:0|0:0,0:0:0:0:
220,290,112359,5,6,0:0:0:0:
165,359,112693,2,0,P|127:372|88:368,1,80,10|2,0:3|0:0,0:0:0:0:
42,292,113359,1,10,0:3:0:0:
99,225,113693,2,0,L|94:145,1,80,2|8,0:0|0:0,0:0:0:0:
88,101,114193,2,0,P|136:70|188:95,1,120,2|8,0:3|0:0,0:0:0:0:
208,181,115026,5,2,0:0:0:0:
293,204,115360,2,0,P|296:164|282:127,1,80,10|2,0:3|0:0,0:0:0:0:
261,41,116026,1,10,0:3:0:0:
347,57,116360,2,0,L|435:73,1,80,2|8,0:0|0:0,0:0:0:0:
468,81,116860,2,0,P|452:136|396:152,1,120,2|8,0:3|0:0,0:0:0:0:
372,237,117693,5,2,0:0:0:0:
440,292,118027,2,0,P|442:331|428:367,1,80,10|2,0:3|0:0,0:0:0:0:
340,371,118693,1,10,0:3:0:0:
280,305,119027,2,0,L|196:314,1,80,10|8,0:0|0:0,0:0:0:0:
156,318,119527,2,0,P|150:270|206:227,1,120,0|8,0:0|0:0,0:0:0:0:
288,218,120359,5,2,0:0:0:0:
310,132,120693,2,0,P|275:112|236:109,1,80,8|2,0:0|0:0,0:0:0:0:
158,151,121359,1,8,0:0:0:0:
84,101,121693,1,8,0:0:0:0:
41,178,122026,1,8,0:0:0:0:
101,241,122359,2,0,L|91:288,1,40,8|2,0:0|0:3,0:0:0:0:
68,317,122693,2,0,L|79:367,1,40,8|2,0:0|0:3,0:0:0:0:
116,374,123026,5,2,2:0:0:0:
195,336,123359,1,8,0:0:0:0:
281,353,123693,1,10,0:3:0:0:
324,352,123859,2,0,L|336:311,1,40,2|2,0:3|2:0,2:2:0:0:
348,271,124193,2,0,P|381:224|249:254,1,360,6|0,0:0|0:0,0:0:0:0:
