osu file format v14

[General]
AudioFilename: audio.mp3
AudioLeadIn: 0
PreviewTime: 45443
Countdown: 0
SampleSet: Soft
StackLeniency: 0.7
Mode: 0
LetterboxInBreaks: 0
WidescreenStoryboard: 1

[Editor]
Bookmarks: 522,5855,11188,16521,21855,27188,32521,37855,43188,45855,51188,56521,61855,67188,69857,75188,80521,83188,88521,93855,99188,104521,109855,112521,117855,123188,128521
DistanceSpacing: 2.5
BeatDivisor: 4
GridSize: 16
TimelineZoom: 1.8

[Metadata]
Title:Heart Goes Boom!! [GAME Mix]
TitleUnicode:Heart Goes Boom!![GAME Mix]
Artist:Akiyama Mio (CV: Hikasa Yoko)
ArtistUnicode:秋山澪 (CV: 日笠陽子)
Creator:TT Mouse
Version:Kencho's Extra
Source:けいおん! 放課後ライブ!!
Tags:K-ON! MUSIC HISTORY'S BOX Houkago Ho-kago Live raibu sahuang Pata-Mon Yugu kencho
BeatmapID:1801761
BeatmapSetID:844633

[Difficulty]
HPDrainRate:5.4
CircleSize:4.1
OverallDifficulty:8.3
ApproachRate:9.2
SliderMultiplier:1.6
SliderTickRate:1

[Events]
//Background and Video events
0,0,"Akiyama.jpg",0,0
//Break Periods
2,69893,74012
//Storyboard Layer 0 (Background)
//Storyboard Layer 1 (Fail)
//Storyboard Layer 2 (Pass)
//Storyboard Layer 3 (Foreground)
//Storyboard Sound Samples

[TimingPoints]
360,333.333333333333,4,2,3,50,1,0
360,-166.666666666667,4,2,3,50,0,0
5026,-83.3333333333333,4,2,3,60,0,0
5359,-55.5555555555556,4,2,3,60,0,0
5693,-90.9090909090909,4,2,3,60,0,0
11026,-100,4,2,3,60,0,0
21693,-90.9090909090909,4,2,3,60,0,0
45526,-83.3333333333333,4,2,3,60,0,1
69693,-125,4,2,3,60,0,0
75026,-90.9090909090909,4,2,3,60,0,0
82859,-100,4,2,3,60,0,0
87026,-83.3333333333333,4,2,3,60,0,0
88193,-100,4,2,3,60,0,0
89693,-83.3333333333333,4,2,3,60,0,1
112359,-90.9090909090909,4,2,3,60,0,0
124193,-100,4,2,3,60,0,0
125609,-100,4,2,3,5,0,0

[Colours]
Combo1 : 223,223,223
Combo2 : 49,206,189
Combo3 : 31,152,169
Combo4 : 78,97,114

[HitObjects]
76,127,360,6,0,P|88:166|88:221,1,95.9999970703126,2|0,0:0|0:0,0:0:0:0:
53,309,859,1,0,0:0:0:0:
53,309,1026,2,0,L|3:305,1,47.9999985351563,2|0,0:0|0:0,0:0:0:0:
120,365,1359,2,0,L|170:361,1,47.9999985351563,0|0,0:0|0:0,0:0:0:0:
243,300,1693,6,0,P|249:277|245:238,1,47.9999985351563,2|0,0:0|0:0,0:0:0:0:
159,216,2026,1,0,0:0:0:0:
159,216,2193,2,0,L|256:210,2,95.9999970703126,2|0|0,0:0|0:0|0:0,0:0:0:0:
70,179,3026,6,0,P|49:138|45:89,1,95.9999970703126,2|0,0:0|0:0,0:0:0:0:
95,14,3526,1,0,0:0:0:0:
95,14,3693,2,0,L|143:10,1,47.9999985351563,2|0,0:0|0:0,0:0:0:0:
209,79,4026,2,0,L|257:75,1,47.9999985351563,0|0,0:0|0:0,0:0:0:0:
349,103,4359,5,2,0:0:0:0:
349,103,4526,1,0,0:0:0:0:
349,103,4693,2,0,L|354:55,1,47.9999985351563,0|2,0:0|0:0,0:0:0:0:
257,171,5026,6,0,L|257:74,1,95.9999970703126,0|2,0:0|0:0,0:0:0:0:
175,257,5359,6,0,L|160:112,1,143.999995605469,8|0,0:0|0:0,0:0:0:0:
79,93,5693,6,0,P|116:114|162:113,1,88.000002685547,6|0,0:0|0:2,0:0:0:0:
252,61,6026,1,8,0:0:0:0:
270,201,6193,1,0,0:0:0:0:
443,169,6359,6,0,P|406:148|360:149,1,88.000002685547,2|2,0:0|0:0,0:0:0:0:
270,201,6692,1,8,0:0:0:0:
252,61,6859,1,0,0:0:0:0:
270,201,7026,6,0,L|260:289,1,88.000002685547,2|0,0:0|0:0,0:0:0:0:
189,367,7359,1,8,0:2:0:0:
345,351,7526,2,0,P|263:325|189:367,1,176.000005371094,2|2,0:2|0:0,0:0:0:0:
156,239,8026,1,8,0:0:0:0:
260,288,8193,1,0,0:0:0:0:
227,160,8359,6,0,P|221:115|235:74,1,88.000002685547,2|0,0:2|0:0,0:0:0:0:
327,127,8693,1,8,0:0:0:0:
285,2,8859,1,0,0:0:0:0:
427,94,9026,6,0,P|433:139|419:180,1,88.000002685547,2|2,0:0|0:0,0:0:0:0:
327,127,9360,1,8,0:0:0:0:
369,252,9526,1,0,0:0:0:0:
327,127,9693,6,0,L|237:140,1,88.000002685547,2|0,0:2|0:0,0:0:0:0:
149,211,10026,1,8,0:2:0:0:
185,70,10193,2,0,P|151:15|45:36,1,176.000005371094,6|8,0:0|0:0,0:0:0:0:
20,201,10693,1,8,0:0:0:0:
109,78,10859,1,8,0:0:0:0:
52,301,11026,5,6,0:0:0:0:
52,301,11359,2,0,L|131:294,1,80,8|0,0:0|0:0,0:0:0:0:
218,242,11693,1,2,0:0:0:0:
153,374,11859,1,2,0:0:0:0:
274,301,12026,2,0,L|353:308,1,80,8|0,0:0|0:0,0:0:0:0:
447,356,12359,6,0,P|459:316|455:278,1,80,2|0,0:0|0:0,0:0:0:0:
377,212,12693,1,8,0:0:0:0:
512,228,12859,2,0,L|493:66,1,160,2|2,0:0|0:0,0:0:0:0:
383,117,13359,2,0,P|342:117|300:93,1,80,8|0,0:0|0:0,0:0:0:0:
233,15,13693,5,2,0:0:0:0:
233,15,14026,2,0,L|154:23,1,80,8|0,0:0|0:0,0:0:0:0:
89,130,14359,1,2,0:0:0:0:
66,20,14526,1,2,0:0:0:0:
173,104,14693,2,0,P|176:144|162:183,1,80,8|0,0:0|0:0,0:0:0:0:
36,263,15026,6,0,L|115:255,1,80,2|0,0:0|0:0,0:0:0:0:
219,328,15359,1,8,0:0:0:0:
247,204,15526,2,0,P|277:169|383:175,1,160,2|2,0:0|0:0,0:0:0:0:
362,313,16026,2,0,P|334:271|328:219,1,80,8|0,0:0|0:0,0:0:0:0:
383,87,16359,5,2,0:0:0:0:
383,87,16693,2,0,P|418:101|461:101,1,80,8|0,0:0|0:0,0:0:0:0:
341,11,17026,1,2,0:0:0:0:
303,128,17193,1,2,0:0:0:0:
260,48,17359,2,0,P|220:47|183:62,1,80,8|0,0:0|0:0,0:0:0:0:
125,130,17693,5,2,0:0:0:0:
207,144,17859,1,0,0:0:0:0:
99,48,18026,1,8,0:0:0:0:
78,197,18193,2,0,B|54:284|102:267|76:355,1,160,2|2,0:0|0:0,0:0:0:0:
165,239,18693,2,0,P|205:237|242:250,1,80,8|0,0:0|0:0,0:0:0:0:
324,327,19026,5,2,0:0:0:0:
342,188,19193,1,0,0:0:0:0:
342,188,19359,2,0,L|352:109,1,80,8|0,0:0|0:0,0:0:0:0:
214,31,19693,5,2,0:0:0:0:
232,170,19860,1,2,0:0:0:0:
232,170,20026,2,0,L|242:249,1,80,8|0,0:0|0:0,0:0:0:0:
342,188,20359,6,0,P|381:184|419:200,1,80,2|0,0:0|0:0,0:0:0:0:
397,344,20693,2,0,P|374:312|368:271,1,80,8|2,0:0|0:0,0:0:0:0:
495,164,21026,1,0,0:0:0:0:
455,278,21193,1,2,0:0:0:0:
336,128,21359,1,8,0:0:0:0:
418,199,21526,1,8,0:0:0:0:
281,286,21693,6,0,B|239:292|239:292|195:278|195:278|151:284,1,132.00000402832,2|0,0:0|0:0,0:0:0:0:
84,317,22026,2,0,P|99:278|100:231,1,88.000002685547,8|0,0:0|0:0,0:0:0:0:
26,163,22359,1,2,0:0:0:0:
169,187,22526,1,2,0:0:0:0:
60,89,22693,2,0,P|45:50|44:3,1,88.000002685547,8|0,0:0|0:0,0:0:0:0:
228,20,23026,6,0,L|141:31,1,88.000002685547,2|0,0:0|0:0,0:0:0:0:
317,9,23359,1,8,0:0:0:0:
213,106,23526,2,0,P|202:135|262:277,1,176.000005371094,2|2,0:0|0:0,0:0:0:0:
389,213,24026,2,0,B|348:198|348:198|304:205,1,88.000002685547,8|0,0:0|0:0,0:0:0:0:
458,278,24359,6,0,P|485:236|494:147,1,132.00000402832,2|0,0:0|0:0,0:0:0:0:
462,83,24693,2,0,L|374:101,1,88.000002685547,8|0,0:0|0:0,0:0:0:0:
301,177,25026,1,2,0:0:0:0:
329,23,25193,1,2,0:0:0:0:
230,124,25359,2,0,L|221:37,1,88.000002685547,8|0,0:0|0:0,0:0:0:0:
124,91,25693,6,0,P|80:92|41:72,1,88.000002685547,2|0,0:0|0:0,0:0:0:0:
100,0,26026,1,8,0:0:0:0:
63,174,26193,2,0,B|53:229|53:229|77:281|77:281|65:346,1,176.000005371094,2|2,0:0|0:0,0:0:0:0:
161,301,26693,2,0,B|168:260|168:260|148:215,1,88.000002685547,8|0,0:0|0:0,0:0:0:0:
63,174,27026,6,0,P|131:174|177:122,1,132.00000402832,2|0,0:0|0:0,0:0:0:0:
187,54,27359,2,0,P|148:55|108:88,1,88.000002685547,8|0,0:0|0:0,0:0:0:0:
235,192,27693,1,2,0:0:0:0:
268,62,27859,1,2,0:0:0:0:
317,206,28026,2,0,P|356:205|396:172,1,88.000002685547,8|0,0:0|0:0,0:0:0:0:
457,59,28359,6,0,L|474:164,1,88.000002685547,2|0,0:0|0:0,0:0:0:0:
490,264,28693,1,8,0:0:0:0:
393,175,28859,2,0,B|345:158|345:158|219:180,1,176.000005371094,2|2,0:0|0:0,0:0:0:0:
251,350,29359,2,0,P|265:322|262:258,1,88.000002685547,8|0,0:0|0:0,0:0:0:0:
128,200,29693,5,2,0:0:0:0:
128,200,29859,1,0,0:0:0:0:
96,311,30026,2,0,L|204:300,1,88.000002685547,8|0,0:0|0:0,0:0:0:0:
320,164,30359,5,2,0:0:0:0:
320,164,30525,1,2,0:0:0:0:
352,275,30692,2,0,L|244:264,1,88.000002685547,8|0,0:0|0:0,0:0:0:0:
228,166,31026,5,2,0:0:0:0:
303,368,31193,1,0,0:0:0:0:
287,102,31359,1,8,0:0:0:0:
183,302,31526,1,2,0:0:0:0:
203,83,31693,1,8,0:0:0:0:
382,209,31859,1,2,0:0:0:0:
382,209,32193,6,0,B|420:227|420:227|453:163|433:97,1,176.000005371094,6|2,0:0|0:0,0:0:0:0:
339,40,32693,2,0,P|297:48|251:71,1,88.000002685547,8|0,0:0|0:0,0:0:0:0:
181,183,33026,2,0,L|160:88,1,88.000002685547,2|2,0:0|0:0,0:0:0:0:
277,168,33359,1,8,0:0:0:0:
125,278,33526,6,0,L|103:178,1,88.000002685547,0|2,0:0|0:0,0:0:0:0:
57,58,33859,2,0,L|46:147,1,88.000002685547,0|8,0:0|0:0,0:0:0:0:
19,353,34193,2,0,L|32:259,1,88.000002685547,0|2,0:0|0:0,0:0:0:0:
155,373,34526,1,2,0:0:0:0:
140,199,34693,1,8,0:0:0:0:
236,311,34859,6,0,L|334:298,1,88.000002685547,0|2,0:0|0:0,0:0:0:0:
422,202,35193,1,0,0:0:0:0:
364,377,35359,1,8,0:0:0:0:
357,135,35526,1,0,0:0:0:0:
400,289,35692,1,2,0:0:0:0:
270,176,35859,2,0,P|261:129|277:76,1,88.000002685547,2|8,0:0|0:0,0:0:0:0:
188,276,36193,6,0,L|95:259,1,88.000002685547,0|0,0:0|0:0,0:0:0:0:
25,62,36526,1,0,0:0:0:0:
2,175,36693,2,0,L|92:158,1,88.000002685547,8|0,0:0|0:0,0:0:0:0:
194,121,37026,1,2,0:0:0:0:
119,62,37193,1,2,0:0:0:0:
158,218,37359,1,8,0:0:0:0:
284,97,37526,6,0,P|326:97|373:134,1,88.000002685547,2|0,0:0|0:0,0:0:0:0:
333,223,37859,1,2,0:0:0:0:
194,121,38026,2,0,L|185:31,1,88.000002685547,8|0,0:0|0:0,0:0:0:0:
100,248,38359,2,0,L|112:150,1,88.000002685547,2|2,0:0|0:0,0:0:0:0:
0,257,38693,1,8,0:0:0:0:
127,358,38859,6,0,L|228:338,1,88.000002685547,0|2,0:0|0:0,0:0:0:0:
297,233,39193,2,0,L|207:233,1,88.000002685547,0|8,0:0|0:0,0:0:0:0:
149,122,39526,2,0,L|235:139,1,88.000002685547,0|2,0:0|0:0,0:0:0:0:
209,233,39859,1,2,0:0:0:0:
210,47,40026,1,8,0:0:0:0:
345,137,40193,1,0,0:0:0:0:
345,137,40359,6,0,B|354:180|354:180|333:278,1,132.00000402832,2|0,0:0|0:0,0:0:0:0:
322,302,40693,2,0,L|411:293,1,88.000002685547,8|0,0:0|0:0,0:0:0:0:
216,174,41026,1,2,0:0:0:0:
216,174,41193,1,2,0:0:0:0:
113,308,41359,2,0,L|119:200,1,88.000002685547,10|2,0:0|0:0,0:0:0:0:
65,80,41693,5,2,0:0:0:0:
65,80,41859,1,2,0:0:0:0:
216,174,42026,2,0,L|321:166,1,88.000002685547,10|2,0:0|0:0,0:0:0:0:
431,54,42359,1,2,0:0:0:0:
431,54,42525,1,2,0:0:0:0:
385,224,42693,1,10,0:0:0:0:
252,72,42859,6,0,P|186:70|111:148,1,176.000005371094,2|2,0:0|0:0,0:0:0:0:
106,264,43359,2,0,L|-1:255,1,88.000002685547,8|0,0:0|0:0,0:0:0:0:
206,198,43693,1,2,0:0:0:0:
206,198,43859,1,2,0:0:0:0:
153,354,44026,1,10,0:0:0:0:
286,248,44193,5,2,0:0:0:0:
250,361,44359,1,2,0:0:0:0:
211,157,44526,1,2,0:0:0:0:
390,237,44693,2,0,P|435:233|481:200,1,88.000002685547,2|0,0:0|0:0,0:0:0:0:
307,152,45026,5,8,0:0:0:0:
349,350,45193,1,2,0:0:0:0:
499,212,45359,1,8,0:0:0:0:
225,112,45526,6,0,B|218:171|218:171|247:228|247:228|239:297,1,191.999994140625,6|2,0:0|0:0,0:0:0:0:
398,167,46026,2,0,P|354:148|307:151,1,95.9999970703126,8|0,0:0|0:0,0:0:0:0:
159,253,46359,1,2,0:0:0:0:
225,112,46526,1,2,0:0:0:0:
319,241,46693,2,0,L|306:338,1,95.9999970703126,8|0,0:0|0:0,0:0:0:0:
102,368,47026,6,0,L|89:264,1,95.9999970703126,2|0,0:0|0:0,0:0:0:0:
245,211,47359,2,0,L|231:314,1,95.9999970703126,8|0,0:0|0:0,0:0:0:0:
137,159,47693,1,2,0:0:0:0:
313,125,47859,1,2,0:0:0:0:
216,13,48026,2,0,L|202:116,1,95.9999970703126,8|0,0:0|0:0,0:0:0:0:
388,114,48359,6,0,B|330:123|330:123|265:97|265:97|203:108,1,191.999994140625,4|8,0:3|0:0,0:0:0:0:
344,32,48859,1,0,0:0:0:0:
250,184,49026,1,2,0:0:0:0:
388,114,49193,1,2,0:0:0:0:
198,253,49359,2,0,P|168:214|168:155,1,95.9999970703126,8|0,0:0|0:0,0:0:0:0:
42,0,49693,6,0,P|82:112|72:188,1,191.999994140625,4|8,0:3|0:0,0:0:0:0:
38,277,50193,1,0,0:0:0:0:
171,152,50359,1,2,0:0:0:0:
278,315,50526,1,2,0:0:0:0:
122,253,50693,1,8,0:0:0:0:
261,129,50859,1,0,0:0:0:0:
343,377,51026,6,0,P|363:341|359:281,1,95.9999970703126,2|0,0:0|0:0,0:0:0:0:
233,96,51359,2,0,L|242:198,1,95.9999970703126,8|0,0:0|0:0,0:0:0:0:
379,302,51693,1,2,0:0:0:0:
316,129,51859,1,2,0:0:0:0:
181,256,52026,2,0,P|133:251|96:221,1,95.9999970703126,8|0,0:0|0:0,0:0:0:0:
48,47,52359,6,0,L|63:153,1,95.9999970703126,2|2,0:0|0:0,0:0:0:0:
6,333,52693,2,0,L|17:223,1,95.9999970703126,8|0,0:0|0:0,0:0:0:0:
149,126,53026,2,0,P|183:123|246:156,1,95.9999970703126,2|2,0:0|0:0,0:0:0:0:
313,319,53359,2,0,P|293:291|290:219,1,95.9999970703126,8|0,0:0|0:0,0:0:0:0:
399,58,53693,6,0,L|373:265,1,191.999994140625,2|8,0:0|0:0,0:0:0:0:
448,369,54193,1,0,0:0:0:0:
313,319,54359,1,2,0:0:0:0:
468,234,54526,1,2,0:0:0:0:
231,289,54693,2,0,P|226:334|248:384,1,95.9999970703126,8|0,0:0|0:0,0:0:0:0:
278,197,55026,6,0,L|256:79,1,95.9999970703126,2|0,0:0|0:0,0:0:0:0:
130,327,55359,2,0,L|151:217,1,95.9999970703126,8|0,0:0|0:0,0:0:0:0:
72,87,55693,1,2,0:0:0:0:
46,269,55859,1,2,0:0:0:0:
75,54,56026,1,8,0:0:0:0:
125,208,56193,1,0,0:0:0:0:
260,102,56359,6,0,P|304:103|351:131,1,95.9999970703126,4|0,0:0|0:0,0:0:0:0:
300,300,56693,2,0,L|285:181,1,95.9999970703126,8|0,0:0|0:0,0:0:0:0:
388,292,57026,1,2,0:0:0:0:
255,177,57193,1,2,0:0:0:0:
423,83,57359,2,0,P|432:125|408:183,1,95.9999970703126,8|0,0:0|0:0,0:0:0:0:
295,354,57693,6,0,L|282:248,1,95.9999970703126,2|0,0:0|0:0,0:0:0:0:
415,175,58026,2,0,L|313:155,1,95.9999970703126,8|0,0:0|0:0,0:0:0:0:
201,84,58359,1,2,0:0:0:0:
336,58,58526,1,2,0:0:0:0:
146,16,58693,2,0,P|121:47|117:108,1,95.9999970703126,8|0,0:0|0:0,0:0:0:0:
201,204,59026,6,0,B|149:180|149:180|1:215,1,191.999994140625,4|8,0:3|0:0,0:0:0:0:
141,271,59526,1,0,0:0:0:0:
45,119,59693,1,2,0:0:0:0:
201,204,59859,1,2,0:0:0:0:
205,17,60026,2,0,L|104:28,1,95.9999970703126,8|0,0:0|0:0,0:0:0:0:
290,69,60359,6,0,B|326:39|326:39|363:104|326:182,1,191.999994140625,4|8,0:3|0:0,0:0:0:0:
265,258,60859,1,0,0:0:0:0:
428,168,61026,1,2,0:0:0:0:
350,298,61193,1,2,0:0:0:0:
422,136,61359,1,8,0:0:0:0:
440,346,61526,1,0,0:0:0:0:
293,171,61693,6,0,P|240:168|194:196,1,95.9999970703126,2|0,0:0|0:0,0:0:0:0:
141,346,62026,2,0,L|128:236,1,95.9999970703126,8|0,0:0|0:0,0:0:0:0:
50,101,62359,1,2,0:0:0:0:
29,269,62526,1,2,0:0:0:0:
130,32,62693,2,0,L|150:138,1,95.9999970703126,8|0,0:0|0:0,0:0:0:0:
281,309,63026,6,0,L|245:105,1,191.999994140625,2|8,0:0|0:0,0:0:0:0:
362,24,63526,1,0,0:0:0:0:
344,174,63693,1,2,0:0:0:0:
444,84,63859,1,2,0:0:0:0:
362,249,64026,1,8,0:0:0:0:
508,157,64193,1,0,0:0:0:0:
273,92,64359,6,0,L|149:107,1,95.9999970703126,4|0,0:0|0:0,0:0:0:0:
85,207,64693,1,8,0:0:0:0:
115,32,64859,1,2,0:3:0:0:
155,275,65026,2,0,L|169:176,1,95.9999970703126,8|2,0:0|0:3,0:0:0:0:
53,100,65359,1,8,0:0:0:0:
261,146,65526,1,2,0:3:0:0:
143,35,65693,5,8,0:0:0:0:
170,220,65859,1,2,0:3:0:0:
215,76,66026,1,8,0:0:0:0:
173,248,66193,1,2,0:3:0:0:
291,67,66359,1,8,0:0:0:0:
177,278,66526,1,2,0:3:0:0:
351,11,66693,2,0,P|371:45|362:107,1,95.9999970703126,8|2,0:0|0:3,0:0:0:0:
186,175,67026,6,0,L|291:163,1,95.9999970703126,8|2,0:0|0:3,0:0:0:0:
107,239,67359,1,8,0:0:0:0:
176,83,67526,1,2,0:3:0:0:
199,275,67693,1,8,0:0:0:0:
93,137,67859,1,2,0:3:0:0:
93,137,67943,1,2,0:3:0:0:
93,137,68026,1,8,0:0:0:0:
121,338,68193,1,2,0:3:0:0:
312,138,68359,5,12,0:0:0:0:
122,102,68526,1,2,0:0:0:0:
282,237,68693,5,8,0:0:0:0:
228,54,68859,1,2,0:0:0:0:
208,179,69026,5,8,0:0:0:0:
398,215,69193,1,2,0:0:0:0:
122,102,69359,5,8,0:0:0:0:
176,285,69525,1,2,0:0:0:0:
312,138,69693,5,6,0:0:0:0:
94,199,74582,6,0,L|93:145,1,42.6666666666667,0|8,0:0|0:0,0:0:0:0:
174,239,74859,6,0,L|313:220,1,128,6|0,0:0|0:0,0:0:0:0:
404,261,75359,2,0,L|397:348,1,88.000002685547,8|0,0:0|0:0,0:0:0:0:
456,187,75693,1,2,0:0:0:0:
311,296,75859,1,2,0:0:0:0:
372,136,76026,2,0,P|374:103|353:48,1,88.000002685547,8|0,0:0|0:0,0:0:0:0:
192,99,76359,6,0,L|294:112,1,88.000002685547,2|0,0:0|0:0,0:0:0:0:
116,40,76693,2,0,L|28:51,1,88.000002685547,8|0,0:0|0:0,0:0:0:0:
110,253,77026,1,2,0:0:0:0:
115,130,77193,1,2,0:0:0:0:
5,188,77359,1,10,0:0:0:0:
149,327,77526,6,0,P|202:324|258:226,1,176.000005371094,4|2,0:0|0:0,0:0:0:0:
203,76,78026,2,0,B|190:116|190:116|197:164,1,88.000002685547,8|0,0:0|0:0,0:0:0:0:
362,197,78359,1,2,0:0:0:0:
283,119,78526,1,2,0:0:0:0:
338,285,78693,1,8,0:0:0:0:
170,239,78859,6,0,P|117:242|61:340,1,176.000005371094,0|0,0:0|0:0,0:0:0:0:
198,162,79359,2,0,P|194:117|170:71,1,88.000002685547,8|0,0:0|0:0,0:0:0:0:
149,327,79693,1,2,0:0:0:0:
250,234,79859,1,2,0:0:0:0:
97,143,80026,1,8,0:0:0:0:
278,228,80193,6,0,B|333:239|333:239|396:217|396:217|458:230,1,176.000005371094,4|2,0:0|0:0,0:0:0:0:
356,73,80693,2,0,B|331:108|331:108|327:156,1,88.000002685547,8|0,0:0|0:0,0:0:0:0:
401,308,81026,5,2,0:0:0:0:
416,142,81193,1,2,0:0:0:0:
278,228,81359,5,8,0:0:0:0:
270,108,81526,1,0,0:0:0:0:
170,286,81693,5,2,0:0:0:0:
144,186,81859,1,0,0:0:0:0:
85,339,82026,5,8,0:0:0:0:
38,271,82193,1,0,0:0:0:0:
278,228,82359,5,8,0:0:0:0:
173,360,82526,1,2,0:0:0:0:
144,186,82693,1,8,0:0:0:0:
316,299,82859,6,0,B|353:314|353:314|388:268|382:201,1,160,4|2,0:0|0:0,0:0:0:0:
338,89,83359,2,0,L|256:98,1,80,8|0,0:0|0:0,0:0:0:0:
162,41,83693,1,2,0:3:0:0:
162,41,83859,1,2,0:0:0:0:
209,181,84026,2,0,P|216:216|204:274,1,80,8|0,0:0|0:0,0:0:0:0:
142,338,84359,5,2,0:3:0:0:
142,338,84526,1,2,0:0:0:0:
288,290,84693,2,0,L|380:304,1,80,8|0,0:0|0:0,0:0:0:0:
265,372,85026,1,8,0:0:0:0:
308,209,85193,1,2,0:0:0:0:
382,330,85359,1,8,0:0:0:0:
357,132,85526,6,0,B|313:161|313:161|206:142,1,160,4|2,0:0|0:0,0:0:0:0:
108,56,86026,2,0,P|122:91|119:140,1,80,8|0,0:0|0:0,0:0:0:0:
71,245,86359,1,8,0:0:0:0:
42,106,86526,1,2,0:0:0:0:
186,220,86693,1,8,0:0:0:0:
3,179,86859,1,2,0:0:0:0:
214,93,87026,5,8,0:0:0:0:
82,306,87193,1,2,0:0:0:0:
107,55,87359,5,8,0:0:0:0:
189,344,87526,1,2,0:0:0:0:
3,179,87693,5,8,0:0:0:0:
302,224,87859,2,0,L|294:216|291:158,2,47.9999985351563,2|2|8,0:3|0:3|0:0,0:0:0:0:
302,224,88193,6,0,B|352:218|352:218|400:242|400:242|459:235,1,160,6|0,0:0|0:0,0:0:0:0:
426,76,88693,2,0,P|413:112|416:153,1,80,0|0,0:0|0:0,0:0:0:0:
506,127,89026,1,0,0:0:0:0:
354,21,89193,1,2,0:0:0:0:
296,143,89360,2,0,P|256:143|216:124,1,80,8|6,0:0|0:0,0:0:0:0:
111,3,89693,6,0,L|132:96,1,95.9999970703126,0|2,0:0|0:0,0:0:0:0:
12,222,90026,2,0,L|23:114,1,95.9999970703126,8|0,0:0|0:0,0:0:0:0:
143,181,90360,1,2,0:0:0:0:
25,302,90526,1,2,0:0:0:0:
169,359,90693,2,0,P|190:318|103:282,1,143.999995605469,8|0,0:0|0:0,0:0:0:0:
123,270,91026,6,0,B|231:234|201:301|315:263,1,191.999994140625,4|8,0:3|0:0,0:0:0:0:
264,175,91526,1,0,0:0:0:0:
169,359,91693,1,2,0:0:0:0:
310,264,91860,1,2,0:0:0:0:
123,270,92026,2,0,P|76:259|46:222,1,95.9999970703126,8|0,0:0|0:0,0:0:0:0:
98,0,92360,6,0,L|120:192,1,191.999994140625,4|8,0:3|0:0,0:0:0:0:
22,63,92860,1,0,0:0:0:0:
194,133,93026,1,2,0:0:0:0:
32,151,93193,1,2,0:0:0:0:
184,47,93360,1,8,0:0:0:0:
43,239,93526,1,8,0:0:0:0:
184,47,93693,6,0,P|233:54|268:87,1,95.9999970703126,4|0,0:0|0:0,0:0:0:0:
203,223,94026,2,0,P|184:177|195:130,1,95.9999970703126,8|0,0:0|0:0,0:0:0:0:
341,38,94360,1,2,0:0:0:0:
272,172,94526,1,2,0:0:0:0:
408,96,94693,2,0,P|431:55|429:8,1,95.9999970703126,8|0,0:0|0:0,0:0:0:0:
347,215,95026,6,0,L|362:321,1,95.9999970703126,2|0,0:0|0:0,0:0:0:0:
498,360,95359,2,0,L|513:254,1,95.9999970703126,8|0,0:0|0:0,0:0:0:0:
372,132,95693,2,0,P|338:129|279:161,1,95.9999970703126,2|2,0:0|0:0,0:0:0:0:
156,251,96026,2,0,P|190:248|249:280,1,95.9999970703126,8|0,0:0|0:0,0:0:0:0:
77,317,96360,6,0,B|63:253|63:253|75:192|75:192|59:130,1,191.999994140625,2|8,0:0|0:0,0:0:0:0:
33,18,96860,1,0,0:0:0:0:
174,58,97026,1,2,0:0:0:0:
59,130,97193,1,2,0:0:0:0:
255,95,97360,2,0,P|261:47|240:1,1,95.9999970703126,8|0,0:0|0:0,0:0:0:0:
159,175,97693,6,0,L|254:186,1,95.9999970703126,2|0,0:0|0:0,0:0:0:0:
436,118,98026,2,0,L|341:129,1,95.9999970703126,8|0,0:0|0:0,0:0:0:0:
426,213,98360,1,2,0:0:0:0:
350,40,98526,1,2,0:0:0:0:
332,218,98693,1,8,0:0:0:0:
447,32,98860,1,8,0:0:0:0:
306,303,99026,6,0,P|268:281|245:231,1,95.9999970703126,4|0,0:0|0:0,0:0:0:0:
268,48,99359,2,0,L|256:143,1,95.9999970703126,8|0,0:0|0:0,0:0:0:0:
122,135,99692,1,2,0:0:0:0:
138,35,99859,1,2,0:0:0:0:
181,212,100026,2,0,P|138:230|88:226,1,95.9999970703126,8|0,0:0|0:0,0:0:0:0:
18,58,100360,6,0,B|42:100|42:100|45:148,1,95.9999970703126,2|0,0:0|0:0,0:0:0:0:
26,358,100693,2,0,B|2:316|2:316|-1:268,1,95.9999970703126,8|0,0:0|0:0,0:0:0:0:
181,212,101026,1,2,0:0:0:0:
85,289,101193,1,2,0:0:0:0:
238,330,101360,2,0,L|336:320,1,95.9999970703126,8|0,0:0|0:0,0:0:0:0:
412,205,101693,6,0,P|379:263|405:393,1,191.999994140625,6|8,0:3|0:0,0:0:0:0:
499,254,102193,1,0,0:0:0:0:
413,107,102360,1,2,0:0:0:0:
512,157,102526,1,2,0:0:0:0:
320,160,102693,2,0,P|306:114|318:59,1,95.9999970703126,8|0,0:0|0:0,0:0:0:0:
380,246,103026,6,0,B|351:246|326:261|326:261|256:246|256:246|230:262|194:261,1,191.999994140625,6|8,0:3|0:0,0:0:0:0:
268,333,103526,1,0,0:0:0:0:
201,166,103693,1,2,0:0:0:0:
108,317,103860,1,2,0:0:0:0:
195,261,104026,1,8,0:0:0:0:
47,188,104193,1,8,0:0:0:0:
281,212,104360,6,0,P|327:195|354:156,1,95.9999970703126,6|0,0:0|0:0,0:0:0:0:
284,30,104693,2,0,L|271:140,1,95.9999970703126,8|0,0:0|0:0,0:0:0:0:
429,224,105026,1,2,0:0:0:0:
407,77,105193,1,2,0:0:0:0:
281,212,105360,2,0,L|301:318,1,95.9999970703126,8|0,0:0|0:0,0:0:0:0:
121,284,105693,6,0,B|159:251|209:265|209:265|229:363,1,191.999994140625,2|8,0:0|0:0,0:0:0:0:
98,361,106193,1,0,0:0:0:0:
142,192,106360,1,2,0:0:0:0:
20,279,106526,1,2,0:0:0:0:
153,162,106693,1,8,0:0:0:0:
0,180,106860,1,0,0:0:0:0:
169,131,107026,6,0,B|217:137|217:137|256:168,1,95.9999970703126,4|0,0:0|0:3,0:0:0:0:
260,265,107360,1,8,0:0:0:0:
342,128,107526,1,2,0:3:0:0:
433,262,107693,2,0,B|385:256|385:256|346:225,1,95.9999970703126,8|2,0:0|0:3,0:0:0:0:
342,128,108027,1,8,0:0:0:0:
260,265,108193,1,2,0:3:0:0:
369,313,108360,5,8,0:0:0:0:
342,128,108526,1,2,0:3:0:0:
297,272,108693,1,8,0:0:0:0:
339,100,108860,1,2,0:3:0:0:
221,281,109026,1,8,0:0:0:0:
336,69,109193,1,2,0:3:0:0:
161,337,109360,2,0,P|141:303|150:241,1,95.9999970703126,8|2,0:0|0:3,0:0:0:0:
326,204,109693,6,0,L|226:180,1,95.9999970703126,8|2,0:0|0:3,0:0:0:0:
407,148,110026,1,8,0:0:0:0:
338,298,110193,1,2,0:3:0:0:
315,112,110360,1,8,0:0:0:0:
421,247,110526,1,2,0:3:0:0:
421,247,110610,1,2,0:3:0:0:
421,247,110693,1,8,0:0:0:0:
394,49,110860,1,2,0:3:0:0:
244,270,111026,5,12,0:0:0:0:
407,148,111193,1,2,0:0:0:0:
338,298,111360,5,8,0:0:0:0:
270,119,111526,1,2,0:0:0:0:
116,181,111693,5,8,0:0:0:0:
350,204,111860,1,2,0:0:0:0:
127,326,112026,5,8,0:0:0:0:
238,39,112193,1,0,0:0:0:0:
431,277,112359,6,0,P|394:256|348:257,1,88.000002685547,6|0,0:0|0:0,0:0:0:0:
260,323,112692,1,10,0:3:0:0:
242,183,112859,1,2,0:3:0:0:
69,215,113026,6,0,P|106:236|152:235,1,88.000002685547,2|2,0:0|0:0,0:0:0:0:
242,183,113358,1,10,0:3:0:0:
260,323,113525,1,2,0:3:0:0:
242,183,113692,6,0,L|252:95,1,88.000002685547,2|2,0:0|0:3,0:0:0:0:
323,17,114025,1,8,0:0:0:0:
167,33,114192,2,0,P|249:59|323:17,1,176.000005371094,2|2,0:3|0:0,0:0:0:0:
356,145,114692,1,8,0:0:0:0:
252,96,114859,1,0,0:0:0:0:
285,224,115026,6,0,P|291:269|277:310,1,88.000002685547,2|0,0:0|0:0,0:0:0:0:
185,257,115359,1,10,0:3:0:0:
227,382,115525,1,2,0:3:0:0:
85,290,115692,6,0,P|79:245|93:204,1,88.000002685547,2|2,0:0|0:0,0:0:0:0:
185,257,116026,1,10,0:3:0:0:
143,132,116192,1,2,0:3:0:0:
185,257,116359,6,0,L|275:244,1,88.000002685547,2|2,0:0|0:3,0:0:0:0:
363,173,116692,1,8,0:0:0:0:
327,314,116859,2,0,P|361:369|467:348,1,176.000005371094,2|2,0:3|0:0,0:0:0:0:
492,183,117359,1,8,0:0:0:0:
403,306,117525,1,0,0:0:0:0:
309,140,117693,6,0,P|276:138|218:169,1,88.000002685547,2|0,0:0|0:0,0:0:0:0:
176,248,118026,1,10,0:3:0:0:
147,93,118193,1,2,0:3:0:0:
309,140,118359,6,0,P|342:142|400:111,1,88.000002685547,2|2,0:0|0:0,0:0:0:0:
442,32,118692,1,10,0:3:0:0:
471,187,118859,1,2,0:3:0:0:
309,140,119026,6,0,L|299:228,1,88.000002685547,10|2,0:0|0:3,0:0:0:0:
349,346,119359,1,2,0:0:0:0:
224,273,119526,2,0,B|170:262|170:262|115:286|115:286|53:275,1,176.000005371094,2|2,0:0|0:0,0:0:0:0:
106,197,120026,1,8,0:0:0:0:
180,352,120193,1,0,0:0:0:0:
261,199,120359,6,0,P|267:154|253:113,1,88.000002685547,2|0,0:0|0:0,0:0:0:0:
175,60,120693,1,8,0:0:0:0:
336,102,120859,1,2,0:0:0:0:
179,167,121026,6,0,P|173:212|187:253,1,88.000002685547,2|2,0:0|0:0,0:0:0:0:
265,306,121360,1,8,0:0:0:0:
104,264,121526,1,2,0:0:0:0:
261,199,121693,6,0,L|351:186,1,88.000002685547,8|2,0:0|0:3,0:0:0:0:
195,268,122026,1,8,0:0:0:0:
264,106,122193,2,0,P|230:51|124:72,1,176.000005371094,2|2,0:3|0:3,0:0:0:0:
91,188,122693,1,8,0:0:0:0:
57,16,122859,1,2,0:3:0:0:
190,121,123026,5,2,2:0:0:0:
71,212,123193,2,0,L|28:206,2,44.0000013427735,8|8|8,2:0|0:0|0:0,0:0:0:0:
202,277,123526,2,0,L|245:271,2,44.0000013427735,10|10|10,0:3|0:3|0:3,0:0:0:0:
81,349,123859,1,2,0:3:0:0:
190,121,124026,1,2,2:0:0:0:
331,328,124193,5,6,0:0:0:0:
256,192,124276,12,0,125693,0:0:0:0:
