osu file format v14

[General]
AudioFilename: audio.mp3
AudioLeadIn: 0
PreviewTime: 51905
Countdown: 0
SampleSet: Soft
StackLeniency: 0.7
Mode: 0
LetterboxInBreaks: 0
WidescreenStoryboard: 1

[Editor]
DistanceSpacing: 1
BeatDivisor: 6
GridSize: 32
TimelineZoom: 2.199999

[Metadata]
Title:Yugure ni Utsushite
TitleUnicode:夕暮れに映して
Artist:Akiyama Kiro
ArtistUnicode:秋山黄色
Creator:Kagetsu
Version:Hard
Source:
Tags:1/3 N_a_s_y_a nasya Tari FromDropout From DROPOUT jrock japanese rock j-rock male vocal vocalist
BeatmapID:2665615
BeatmapSetID:1203114

[Difficulty]
HPDrainRate:5
CircleSize:3.5
OverallDifficulty:6
ApproachRate:8
SliderMultiplier:1.2
SliderTickRate:1

[Events]
//Background and Video events
0,0,"sunset1.jpg",0,0
//Break Periods
2,87832,95882
2,100923,102155
2,157650,165427
2,175105,176337
//Storyboard Layer 0 (Background)
//Storyboard Layer 1 (Fail)
//Storyboard Layer 2 (Pass)
//Storyboard Layer 3 (Foreground)
//Storyboard Layer 4 (Overlay)
//Storyboard Sound Samples

[TimingPoints]
9087,272.727272727273,4,2,1,60,1,0
13450,-100,4,2,1,60,0,0
15632,-100,4,2,1,60,0,0
15905,-100,4,2,1,60,0,0
16087,-100,4,2,1,60,0,0
16450,-100,4,2,1,60,0,0
16723,-100,4,2,1,60,0,0
17814,-100,4,2,1,60,0,0
30905,-100,4,2,1,60,0,0
33087,-100,4,2,1,60,0,0
33359,-100,4,2,1,60,0,0
33541,-100,4,2,1,60,0,0
33814,-100,4,2,1,60,0,0
34723,-100,4,2,1,60,0,0
34859,-100,4,2,1,5,0,0
35268,-100,4,2,1,60,0,0
50541,-100,4,2,1,80,0,0
50723,-100,4,2,1,5,0,0
50814,-100,4,2,1,80,0,0
50996,-100,4,2,1,5,0,0
51087,-100,4,2,1,80,0,0
51268,-100,4,2,1,5,0,0
51359,-100,4,2,1,80,0,0
51541,-100,4,2,1,5,0,0
51632,-100,4,2,1,80,0,0
51905,-100,4,2,1,80,0,0
52087,-100,4,2,1,60,0,0
52723,-100,4,2,1,80,0,1
54905,-100,4,2,1,80,0,1
55087,-100,4,2,1,5,0,1
55177,-100,4,2,1,80,0,1
55359,-100,4,2,1,5,0,1
55450,-100,4,2,1,80,0,1
55632,-100,4,2,1,5,0,1
55723,-100,4,2,1,80,0,1
55905,-100,4,2,1,5,0,1
55996,-100,4,2,1,80,0,1
56541,-100,4,2,1,80,0,1
57087,-100,4,2,1,80,0,1
63632,-100,4,2,1,80,0,1
63814,-100,4,2,1,5,0,1
63905,-100,4,2,1,80,0,1
64087,-100,4,2,1,5,0,1
64177,-100,4,2,1,80,0,1
64359,-100,4,2,1,5,0,1
64450,-100,4,2,1,80,0,1
64632,-100,4,2,1,5,0,1
64723,-100,4,2,1,80,0,1
64996,-100,4,2,1,80,0,1
65268,-100,4,2,1,80,0,1
68268,-100,4,2,1,80,0,1
68541,-100,4,2,1,80,0,1
69087,-100,4,2,1,80,0,1
69950,-100,4,2,1,60,0,0
83268,-100,4,2,1,60,0,0
85450,-100,4,2,1,60,0,0
85723,-100,4,2,1,60,0,0
85905,-100,4,2,1,60,0,0
86268,-100,4,2,1,60,0,0
86541,-100,4,2,1,60,0,0
95268,-100,4,2,1,50,0,0
96632,-100,4,2,1,80,0,0
100723,-100,4,2,1,80,0,0
102905,-100,4,2,1,80,0,0
104677,-100,4,2,1,5,0,0
105087,-100,4,2,1,60,0,0
120359,-100,4,2,1,60,0,0
121723,-100,4,2,1,60,0,0
122541,-100,4,2,1,80,0,1
124723,-100,4,2,1,80,0,1
124905,-100,4,2,1,5,0,1
124996,-100,4,2,1,80,0,1
125177,-100,4,2,1,5,0,1
125268,-100,4,2,1,80,0,1
125450,-100,4,2,1,5,0,1
125541,-100,4,2,1,80,0,1
125723,-100,4,2,1,5,0,1
125814,-100,4,2,1,80,0,1
126359,-100,4,2,1,80,0,1
126905,-100,4,2,1,80,0,1
131268,-100,4,2,1,80,0,1
132359,-100,4,2,1,80,0,1
133450,-100,4,2,1,80,0,1
133632,-100,4,2,1,5,0,1
133723,-100,4,2,1,80,0,1
133905,-100,4,2,1,5,0,1
133996,-100,4,2,1,80,0,1
134177,-100,4,2,1,5,0,1
134268,-100,4,2,1,80,0,1
134450,-100,4,2,1,5,0,1
134541,-100,4,2,1,80,0,1
138087,-100,4,2,1,80,0,1
138359,-100,4,2,1,80,0,1
138905,-100,4,2,1,80,0,1
139996,-100,4,2,1,60,0,0
153087,-100,4,2,1,60,0,0
166177,-100,4,2,1,60,0,0
172632,-100,4,2,1,5,0,0
172723,-100,4,2,1,60,0,0
172905,-100,4,2,1,5,0,0
172996,-100,4,2,1,60,0,0
173177,-100,4,2,1,5,0,0
173268,-100,4,2,1,60,0,0
173450,-100,4,2,1,5,0,0
173541,-100,4,2,1,60,0,0
173723,-100,4,2,1,5,0,0
173814,-100,4,2,1,60,0,0
175996,-100,4,2,1,60,0,0
177087,-100,4,2,1,80,0,0
177268,-100,4,2,1,5,0,0
177359,-100,4,2,1,80,0,0
177541,-100,4,2,1,5,0,0
177632,-100,4,2,1,80,0,0
177814,-100,4,2,1,5,0,0
177905,-100,4,2,1,80,0,0
178087,-100,4,2,1,5,0,0
178177,-100,4,2,1,80,0,0
179268,-100,4,2,1,80,0,1
185814,-100,4,2,1,80,0,1
185996,-100,4,2,1,5,0,1
186087,-100,4,2,1,80,0,1
186268,-100,4,2,1,5,0,1
186359,-100,4,2,1,80,0,1
186541,-100,4,2,1,5,0,1
186632,-100,4,2,1,80,0,1
186814,-100,4,2,1,5,0,1
186905,-100,4,2,1,80,0,1
190450,-100,4,2,1,80,0,1
190723,-100,4,2,1,80,0,1
191268,-100,4,2,1,80,0,1
192087,-100,4,2,1,80,0,1
192359,-100,4,2,1,60,0,0

[Colours]
Combo1 : 255,168,211
Combo2 : 255,191,128
Combo3 : 255,255,198
Combo4 : 128,255,255

[HitObjects]
510,336,9087,5,12,0:1:0:0:
483,218,9360,2,0,P|415:206|360:240,1,120,8|0,0:0|0:0,0:0:0:0:
352,305,9814,1,0,0:0:0:0:
312,296,9905,2,0,P|236:282|200:276,1,80,8|0,0:0|0:0,0:0:0:0:
218,243,10178,2,0,P|140:257|63:272,1,120,8|8,0:1|0:0,0:0:0:0:
29,227,10632,2,0,P|26:168|67:126,1,120,8|8,0:1|0:1,0:0:0:0:
106,131,10996,1,8,0:0:0:0:
224,111,11269,5,8,0:1:0:0:
189,9,11541,2,0,P|248:17|304:39,1,120,8|0,0:0|0:0,0:0:0:0:
334,113,11996,1,8,0:1:0:0:
373,109,12087,2,0,P|403:105|454:93,1,80,8|0,0:0|0:0,0:0:0:0:
491,91,12360,2,0,P|485:142|464:230,1,120,8|8,0:1|0:0,0:0:0:0:
390,218,12814,2,0,P|353:263|356:323,1,120,0|0,0:1|0:0,0:0:0:0:
378,356,13178,1,8,0:0:0:0:
268,307,13450,6,8,P|227:313|165:324,1,80,12|8,0:0|0:0,0:0:0:0:
161,348,13723,2,0,P|118:343|76:339,1,80,8|8,0:1|0:0,0:0:0:0:
52,311,13995,2,0,P|44:252|76:203,1,120,8|8,0:1|0:0,0:0:0:0:
194,182,14541,6,0,P|189:141|177:79,1,80,8|0,0:1|0:0,0:0:0:0:
176,63,14813,1,8,0:1:0:0:
294,45,15086,2,0,L|297:-4,2,40,8|0|8,0:1|0:0|0:0,0:0:0:0:
326,70,15359,2,0,P|366:78|406:83,1,80,8|8,0:0|0:0,0:0:0:0:
443,71,15632,6,0,P|456:139|466:210,1,120,12|8,0:1|0:0,0:0:0:0:
385,205,16086,2,0,P|356:249|357:318,1,120,12|8,0:1|0:0,0:0:0:0:
365,353,16450,1,8,0:1:0:0:
245,342,16723,6,0,L|241:302,1,40,12|0,0:0|0:0,0:0:0:0:
263,224,16996,2,0,L|259:184,1,40,12|0,0:0|0:0,0:0:0:0:
276,106,17268,2,0,L|272:66,1,40,12|0,0:0|0:0,0:0:0:0:
77,115,17814,5,12,0:1:0:0:
126,14,18087,2,0,P|184:91|164:187,1,200,8|8,0:0|0:1,0:0:0:0:
129,205,18632,1,8,0:0:0:0:
33,277,18905,1,8,0:1:0:0:
98,382,19177,2,0,P|191:365|312:350,1,200,8|8,0:0|0:1,0:0:0:0:
335,360,19723,1,8,0:0:0:0:
386,251,19996,5,8,0:1:0:0:
283,189,20268,2,0,P|256:113|324:13,1,200,8|8,0:0|0:1,0:0:0:0:
352,32,20814,1,8,0:0:0:0:
470,11,21087,2,0,P|498:63|494:122,1,120,8|8,0:1|0:0,0:0:0:0:
413,125,21542,2,0,P|386:178|392:236,1,120,8|8,0:1|0:1,0:0:0:0:
423,263,21905,1,8,0:0:0:0:
512,345,22177,5,8,0:1:0:0:
392,357,22450,2,0,B|319:344|319:344|275:372|275:372|199:358,1,200,8|8,0:0|0:1,0:0:0:0:
162,353,22996,1,8,0:0:0:0:
113,243,23268,1,8,0:1:0:0:
239,262,23541,2,0,P|263:183|197:78,1,200,8|0,0:0|0:0,0:0:0:0:
176,111,24087,1,8,0:0:0:0:
228,3,24359,5,8,0:1:0:0:
108,9,24632,2,0,P|89:68|57:201,1,200,8|8,0:0|0:1,0:0:0:0:
61,242,25177,1,8,0:0:0:0:
53,353,25450,2,0,P|112:357|164:329,1,120,8|8,0:1|0:0,0:0:0:0:
191,253,25905,2,0,P|251:247|305:275,1,120,8|8,0:1|0:1,0:0:0:0:
313,312,26268,1,8,0:0:0:0:
408,384,26541,5,8,0:1:0:0:
500,307,26814,2,0,P|530:248|502:123,1,200,8|8,0:0|0:1,0:0:0:0:
463,111,27359,1,8,0:0:0:0:
493,0,27632,1,8,0:1:0:0:
370,29,27905,2,0,B|342:60|316:91|316:91|344:148|359:214,1,200,8|8,0:0|0:1,0:0:0:0:
375,236,28450,1,8,0:0:0:0:
256,252,28723,5,8,0:1:0:0:
326,348,28996,2,0,P|244:381|137:345,1,200,8|8,0:0|0:1,0:0:0:0:
114,318,29541,1,8,0:0:0:0:
145,202,29814,1,8,0:1:0:0:
29,233,30086,2,0,P|42:130|60:29,1,200,8|8,0:0|0:1,0:0:0:0:
81,1,30631,1,8,0:0:0:0:
133,109,30905,6,8,P|174:103|236:92,1,80,12|8,0:1|0:0,0:0:0:0:
234,129,31177,2,0,P|277:134|319:138,1,80,8|8,0:1|0:0,0:0:0:0:
352,124,31450,2,0,P|383:79|363:-1,1,120,8|8,0:1|0:0,0:0:0:0:
487,0,31996,6,0,P|492:41|504:103,1,80,12|0,0:1|0:0,0:0:0:0:
512,113,32268,1,8,0:1:0:0:
472,226,32541,2,0,L|521:229,2,40,8|0|8,0:1|0:0|0:0,0:0:0:0:
447,258,32814,2,0,P|439:298|434:338,1,80,8|8,0:1|0:0,0:0:0:0:
435,377,33087,6,0,P|367:364|296:354,1,120,12|8,0:1|0:0,0:0:0:0:
236,349,33541,2,0,P|226:296|254:233,1,120,12|8,0:1|0:0,0:0:0:0:
291,232,33905,1,12,0:1:0:0:
384,163,34177,6,0,L|436:159,2,40,8|8|8,0:0|0:0|0:0,0:0:0:0:
293,129,34450,2,0,L|241:133,2,40,8|8|8,0:0|0:0|0:0,0:0:0:0:
367,63,34723,1,12,0:0:0:0:
367,62,35268,6,0,P|424:53|502:47,1,120,12|8,0:1|0:0,0:0:0:0:
512,166,35814,2,0,P|489:231|488:267,1,80,0|8,0:0|0:1,0:0:0:0:
495,281,36087,1,8,0:0:0:0:
399,353,36359,2,0,P|391:292|364:229,1,120,8|8,0:1|0:0,0:0:0:0:
319,128,36905,2,0,P|282:143|243:151,1,80,0|8,0:0|0:1,0:0:0:0:
202,146,37178,1,8,0:0:0:0:
175,29,37450,6,0,P|129:20|68:59,1,120,8|8,0:1|0:0,0:0:0:0:
0,150,37996,2,0,B|13:201|27:282,1,120,0|8,0:0|0:0,0:0:0:0:
102,358,38541,2,0,B|111:298|126:241,1,120,0|8,0:0|0:0,0:0:0:0:
203,334,39087,2,0,P|264:337|308:346,1,80,0|0,0:0|0:0,0:0:0:0:
314,363,39359,1,8,0:0:0:0:
384,259,39632,6,0,P|388:318|396:378,1,120,12|8,0:1|0:0,0:0:0:0:
504,322,40178,2,0,P|509:280|516:219,1,80,0|8,0:0|0:1,0:0:0:0:
498,205,40451,1,8,0:0:0:0:
436,108,40723,2,0,P|379:127|318:135,1,120,8|8,0:1|0:0,0:0:0:0:
262,241,41269,2,0,P|225:226|186:217,1,80,0|8,0:0|0:1,0:0:0:0:
147,230,41542,1,8,0:0:0:0:
75,127,41814,5,8,0:1:0:0:
195,131,42087,1,8,0:0:0:0:
147,24,42360,2,0,B|200:10|283:-4,1,120,0|8,0:0|0:0,0:0:0:0:
301,113,42905,2,0,B|345:124|391:132,1,80,8|8,0:1|0:1,0:0:0:0:
479,69,43359,1,0,0:0:0:0:
483,109,43451,2,0,P|486:170|495:214,1,80,8|0,0:0|0:0,0:0:0:0:
498,227,43723,1,8,0:0:0:0:
468,343,43996,6,0,P|433:307|360:303,1,120,12|8,0:1|0:0,0:0:0:0:
260,244,44541,2,0,P|243:280|235:319,1,80,0|8,0:0|0:1,0:0:0:0:
237,359,44814,1,8,0:0:0:0:
130,304,45086,2,0,P|122:243|95:180,1,120,8|8,0:1|0:0,0:0:0:0:
208,136,45632,2,0,P|246:123|282:106,1,80,0|8,0:0|0:1,0:0:0:0:
305,73,45905,1,8,0:0:0:0:
424,61,46177,6,0,P|458:109|450:169,1,120,12|8,0:1|0:0,0:0:0:0:
379,212,46632,2,0,P|443:200|521:260,1,160,8|8,0:3|0:3,0:0:0:0:
493,369,47268,1,12,0:1:0:0:
370,356,47541,2,0,P|332:344|293:335,1,80,8|8,0:0|0:1,0:0:0:0:
266,305,47814,2,0,P|183:328|159:332,1,80,0|8,0:0|0:1,0:0:0:0:
157,302,48086,1,8,0:0:0:0:
63,226,48359,6,0,P|45:167|74:104,2,120,12|8|8,0:1|0:0|0:1,0:0:0:0:
142,212,49087,2,0,P|161:204|222:194,1,80,8|0,0:0|0:0,0:0:0:0:
219,114,49450,2,0,P|279:125|333:151,1,120,8|8,0:0|0:1,0:0:0:0:
339,70,49905,2,0,P|391:82|433:72,1,80,8|0,0:0|0:0,0:0:0:0:
480,29,50268,5,8,0:0:0:0:
499,147,50541,2,0,P|464:167|427:182,1,80,12|0,0:0|0:0,0:0:0:0:
444,216,50814,2,0,P|405:226|365:231,1,80,12|0,0:0|0:0,0:0:0:0:
380,269,51087,2,0,P|340:269|300:263,1,80,12|0,0:0|0:0,0:0:0:0:
304,304,51359,2,0,P|265:294|228:278,1,80,12|0,0:0|0:0,0:0:0:0:
221,318,51632,1,12,0:0:0:0:
39,33,52723,6,0,P|13:78|1:166,1,120,12|8,1:1|0:0,0:0:0:0:
77,164,53177,1,8,0:1:0:0:
93,200,53268,2,0,P|109:250|111:295,1,80,0|8,0:0|0:1,0:0:0:0:
100,315,53541,1,8,0:0:0:0:
205,372,53814,2,0,P|269:364|344:358,1,120,8|8,0:1|0:0,0:0:0:0:
335,280,54268,1,8,0:1:0:0:
374,284,54359,2,0,P|418:287|463:293,1,80,0|0,0:0|0:0,0:0:0:0:
492,301,54632,1,8,0:0:0:0:
464,184,54905,6,0,P|477:73|494:44,1,120,14|2,0:1|0:1,0:0:0:0:
371,15,55450,2,0,B|381:32|398:52|398:52|381:99|370:157,1,120,14|2,0:1|0:1,0:0:0:0:
275,187,55996,2,0,P|339:187|381:247,1,120,8|8,0:0|0:0,0:0:0:0:
317,330,56541,2,0,L|370:320,2,40,8|8|4,0:3|0:3|0:3,0:0:0:0:
284,305,56814,2,0,P|206:286|180:284,1,80,4|8,0:3|0:1,0:0:0:0:
178,314,57087,6,0,P|124:325|58:292,1,120,12|8,0:1|0:0,0:0:0:0:
110,188,57632,2,0,P|105:144|80:78,1,80,0|8,0:1|0:1,0:0:0:0:
76,73,57905,1,8,0:0:0:0:
194,88,58177,2,0,P|261:77|299:59,1,80,8|0,0:1|0:0,0:0:0:0:
312,54,58450,1,8,0:0:0:0:
443,78,58723,2,0,P|391:88|356:163,1,120,0|8,0:0|0:0,0:0:0:0:
243,179,59268,6,0,P|269:224|286:297,1,120,8|8,0:1|0:0,0:0:0:0:
224,341,59723,1,0,0:0:0:0:
186,326,59814,2,0,P|148:311|109:305,1,80,0|8,0:1|0:1,0:0:0:0:
68,304,60087,1,8,0:0:0:0:
15,196,60359,2,0,P|74:191|123:158,1,120,8|8,0:1|0:0,0:0:0:0:
132,78,60814,1,0,0:0:0:0:
171,86,60905,2,0,P|215:96|261:107,1,80,8|8,0:1|0:0,0:0:0:0:
285,119,61177,1,8,0:0:0:0:
363,27,61450,6,0,L|375:105,1,80,12|0,0:1|0:0,0:0:0:0:
412,122,61723,2,0,P|405:183|395:239,1,80,8|8,0:0|0:1,0:0:0:0:
425,234,61996,2,0,L|437:312,1,80,0|8,0:0|0:1,0:0:0:0:
448,351,62268,1,8,0:0:0:0:
350,295,62541,2,0,P|297:268|240:282,1,120,8|8,0:1|0:0,0:0:0:0:
189,343,62996,1,8,0:1:0:0:
149,337,63087,2,0,P|105:334|60:328,1,80,0|0,0:0|0:0,0:0:0:0:
29,321,63360,1,8,0:0:0:0:
81,213,63632,6,0,B|109:198|130:180|130:180|155:190|206:196,1,120,14|2,0:1|0:1,0:0:0:0:
283,119,64177,2,0,P|234:86|178:101,1,120,14|2,0:1|0:1,0:0:0:0:
94,15,64723,2,0,P|77:72|65:131,1,120,14|8,0:1|0:0,0:0:0:0:
43,249,65268,2,0,L|-10:239,2,40,8|0|8,0:0|0:0|0:0,0:0:0:0:
76,226,65541,2,0,P|154:207|180:205,1,80,8|4,0:3|0:3,0:0:0:0:
190,222,65814,6,0,P|228:266|234:325,1,120,12|8,0:1|0:0,0:0:0:0:
350,354,66359,2,0,P|355:310|380:244,1,80,0|8,0:1|0:1,0:0:0:0:
384,239,66632,1,8,0:0:0:0:
501,219,66905,2,0,P|490:152|472:114,1,80,8|0,0:1|0:0,0:0:0:0:
467,101,67177,1,8,0:0:0:0:
354,59,67450,2,0,P|307:94|250:86,1,120,0|8,0:0|0:0,0:0:0:0:
155,12,67995,6,0,P|129:57|112:130,1,120,12|8,0:1|0:0,0:0:0:0:
160,233,68541,2,0,P|122:218|42:208,1,120,4|0,0:0|0:0,0:0:0:0:
6,322,69087,6,0,P|48:309|99:306,1,80,12|0,0:0|0:0,0:0:0:0:
115,329,69359,2,0,P|157:342|208:345,1,80,12|0,0:0|0:0,0:0:0:0:
215,312,69632,2,0,P|257:299|308:296,1,80,12|0,0:0|0:0,0:0:0:0:
329,312,69905,1,8,0:3:0:0:
436,363,70177,5,12,0:1:0:0:
491,256,70450,2,0,P|503:188|469:133,1,120,8|8,0:1|0:0,0:0:0:0:
431,81,70904,1,0,0:0:0:0:
391,90,70995,2,0,P|315:104|279:110,1,80,0|0,0:0|0:1,0:0:0:0:
283,132,71268,2,0,P|205:118|128:103,1,120,8|0,0:1|0:1,0:0:0:0:
100,62,71723,2,0,P|51:101|50:164,1,120,0|0,0:0|0:0,0:0:0:0:
58,193,72086,1,0,0:0:0:0:
0,289,72359,5,8,0:1:0:0:
91,366,72632,2,0,P|101:302|126:242,1,120,0|8,0:0|0:0,0:0:0:0:
185,299,73086,1,0,0:0:0:0:
225,292,73177,2,0,P|255:288|306:276,1,80,0|0,0:0|0:0,0:0:0:0:
311,237,73450,2,0,P|362:243|450:264,1,120,8|0,0:1|0:0,0:0:0:0:
501,223,73904,2,0,P|525:178|493:94,1,120,8|0,0:1|0:0,0:0:0:0:
472,99,74268,1,0,0:0:0:0:
376,26,74541,6,0,P|430:14|524:-2,2,120,12|8|8,0:1|0:1|0:0,0:0:0:0:
344,99,75268,2,0,P|302:118|230:91,1,120,0|0,0:0|0:1,0:0:0:0:
221,57,75632,2,0,P|166:34|111:53,1,120,8|0,0:1|0:0,0:0:0:0:
42,94,76087,2,0,P|61:152|77:231,1,120,0|0,0:0|0:0,0:0:0:0:
87,247,76450,1,8,0:1:0:0:
161,341,76723,6,0,P|101:351|43:364,2,120,8|0|8,0:1|0:0|0:0,0:0:0:0:
240,349,77450,2,0,P|259:307|232:235,1,120,0|0,0:0|0:0,0:0:0:0:
199,223,77814,2,0,P|176:168|195:113,1,120,8|0,0:1|0:0,0:0:0:0:
274,104,78269,2,0,P|333:91|413:83,1,120,8|8,0:1|0:1,0:0:0:0:
432,84,78632,1,8,0:0:0:0:
472,196,78905,6,0,L|521:189,2,40,8|8|8,0:0|0:0|0:3,0:0:0:0:
462,278,79177,2,8,L|511:271,2,40,8|4|0,0:3|0:3|0:0,0:0:0:0:
388,255,79450,2,0,P|342:305|331:365,1,120,12|0,0:0|0:0,0:0:0:0:
250,353,79905,1,8,0:1:0:0:
241,313,79996,2,0,P|227:252|203:202,1,80,0|0,0:1|0:0,0:0:0:0:
202,200,80268,1,8,0:1:0:0:
93,147,80541,2,0,P|71:190|75:263,1,120,8|0,0:0|0:0,0:0:0:0:
164,339,81087,6,0,P|104:347|47:364,2,120,8|0|8,0:1|0:0|0:0,0:0:0:0:
241,313,81814,2,0,P|266:252|254:187,1,120,0|0,0:0|0:0,0:0:0:0:
228,174,82177,2,0,P|210:116|232:53,1,120,8|8,0:1|0:1,0:0:0:0:
305,74,82632,2,0,P|364:61|444:53,1,120,0|0,0:0|0:0,0:0:0:0:
463,53,82995,1,0,0:0:0:0:
509,163,83268,6,8,P|503:204|492:266,1,80,12|8,0:0|0:0,0:0:0:0:
460,258,83541,2,0,P|465:301|469:343,1,80,8|8,0:1|0:0,0:0:0:0:
433,358,83814,2,0,P|374:366|325:334,1,120,8|8,0:1|0:0,0:0:0:0:
205,348,84359,6,0,P|200:307|188:245,1,80,8|0,0:1|0:0,0:0:0:0:
187,229,84631,1,8,0:1:0:0:
71,194,84905,2,0,L|22:191,2,40,8|0|8,0:1|0:0|0:0,0:0:0:0:
96,162,85177,2,0,P|104:122|109:82,1,80,8|8,0:0|0:0,0:0:0:0:
115,43,85450,6,0,P|183:30|254:20,1,120,12|8,0:1|0:0,0:0:0:0:
312,10,85904,2,0,P|341:54|340:123,1,120,12|8,0:1|0:0,0:0:0:0:
335,159,86268,1,8,0:1:0:0:
217,183,86541,6,0,L|212:238,1,40,12|0,0:0|0:0,0:0:0:0:
276,275,86814,2,0,L|272:327,1,40,12|0,0:0|0:0,0:0:0:0:
336,365,87087,2,0,P|393:349|479:336,1,120,12|0,0:0|0:0,0:0:0:0:
479,221,87632,5,2,0:0:0:0:
10,263,96632,6,0,B|55:252|137:240,1,120,12|0,0:0|0:0,0:0:0:0:
173,201,97041,2,0,P|207:244|215:307,1,120,12|0,0:0|0:0,0:0:0:0:
171,348,97450,1,12,0:0:0:0:
335,275,97859,2,0,B|392:256|392:256|449:271,1,120,12|0,0:0|0:0,0:0:0:0:
487,318,98268,1,12,0:0:0:0:
491,77,98814,6,0,P|431:82|387:46,1,120,12|0,0:0|0:0,0:0:0:0:
339,8,99223,2,0,P|328:76|321:172,1,120,12|0,0:0|0:0,0:0:0:0:
328,186,99632,2,0,P|260:197|164:204,1,120,12|0,0:0|0:0,0:0:0:0:
180,148,100041,2,0,P|123:127|62:144,1,120,12|0,0:0|0:0,0:0:0:0:
51,178,100405,1,12,0:0:0:0:
97,289,100723,5,2,0:0:0:0:
43,67,102905,6,0,P|111:54|182:44,1,120,12|0,0:0|0:1,0:0:0:0:
240,35,103359,2,0,P|264:89|254:147,1,120,12|8,0:0|0:1,0:0:0:0:
230,180,103723,1,12,0:0:0:0:
110,175,103996,6,0,L|85:128,2,40,8|8|8,0:0|0:0|0:0,0:0:0:0:
73,255,104268,2,0,L|21:251,2,40,8|8|8,0:0|0:0|0:0,0:0:0:0:
109,335,104541,1,12,0:0:0:0:
109,335,105087,6,0,P|166:326|244:320,1,120,12|8,0:1|0:0,0:0:0:0:
337,269,105633,2,0,P|314:334|313:370,1,80,0|8,0:0|0:1,0:0:0:0:
335,378,105906,1,8,0:0:0:0:
436,313,106178,2,0,P|428:252|401:189,1,120,8|8,0:1|0:0,0:0:0:0:
459,89,106724,2,0,P|422:104|383:112,1,80,0|8,0:0|0:1,0:0:0:0:
342,107,106997,1,8,0:0:0:0:
245,35,107269,6,0,P|210:82|217:140,1,120,8|8,0:1|0:0,0:0:0:0:
223,261,107815,2,0,B|172:248|91:234,1,120,0|8,0:0|0:0,0:0:0:0:
17,154,108360,2,0,B|77:145|134:130,1,120,0|8,0:0|0:0,0:0:0:0:
174,15,108906,2,0,P|235:18|279:27,1,80,0|0,0:0|0:0,0:0:0:0:
285,44,109178,1,8,0:0:0:0:
404,37,109450,6,0,P|391:95|383:155,1,120,12|8,0:1|0:0,0:0:0:0:
264,174,109996,2,0,P|269:216|276:277,1,80,0|8,0:0|0:1,0:0:0:0:
279,293,110269,1,8,0:0:0:0:
386,344,110541,2,0,P|439:309|505:319,1,120,8|8,0:1|0:0,0:0:0:0:
501,193,111087,2,0,P|464:178|425:169,1,80,0|8,0:0|0:1,0:0:0:0:
386,182,111360,1,8,0:0:0:0:
264,174,111632,6,0,P|254:125|294:65,1,120,8|8,0:1|0:0,0:0:0:0:
180,16,112178,2,0,B|166:69|152:152,1,120,0|8,0:0|0:0,0:0:0:0:
128,250,112723,2,0,P|190:241|241:278,1,120,8|8,0:1|0:0,0:0:0:0:
274,341,113177,1,0,0:0:0:0:
314,335,113269,2,0,P|356:328|422:320,1,80,8|0,0:0|0:0,0:0:0:0:
433,321,113541,1,8,0:0:0:0:
512,233,113814,6,0,P|477:197|403:195,1,120,12|8,0:1|0:0,0:0:0:0:
290,205,114359,2,0,P|282:165|264:129,1,80,0|8,0:0|0:1,0:0:0:0:
245,93,114632,1,8,0:0:0:0:
145,26,114904,2,0,P|122:81|115:140,1,120,8|8,0:1|0:0,0:0:0:0:
39,234,115450,2,0,P|77:247|113:264,1,80,0|8,0:0|0:1,0:0:0:0:
146,286,115723,1,8,0:0:0:0:
263,311,115996,6,0,P|297:263|289:203,1,120,12|8,0:1|0:0,0:0:0:0:
218,168,116450,2,0,B|282:153|386:144,1,160,4|4,0:3|0:3,0:0:0:0:
394,25,117087,1,12,0:1:0:0:
493,94,117360,2,0,P|481:132|472:171,1,80,8|0,0:0|0:0,0:0:0:0:
490,208,117633,2,0,P|513:291|517:315,1,80,0|8,0:0|0:1,0:0:0:0:
506,324,117905,1,8,0:0:0:0:
375,319,118177,6,0,P|386:264|395:196,2,120,12|8|8,0:1|0:0|0:1,0:0:0:0:
294,314,118905,2,0,P|275:306|214:296,1,80,8|0,0:0|0:0,0:0:0:0:
221,216,119268,2,0,P|161:227|107:253,1,120,8|8,0:0|0:1,0:0:0:0:
27,252,119723,2,0,P|39:200|29:158,1,80,8|0,0:0|0:0,0:0:0:0:
27,94,120086,5,8,0:0:0:0:
135,41,120359,2,0,P|175:44|214:53,1,80,12|0,0:0|0:0,0:0:0:0:
219,16,120632,2,0,P|256:30|292:49,1,80,12|0,0:0|0:0,0:0:0:0:
302,9,120905,2,0,P|334:31|364:59,1,80,12|0,0:0|0:0,0:0:0:0:
384,24,121177,2,0,P|410:54|431:88,1,80,12|0,0:0|0:0,0:0:0:0:
460,60,121450,1,12,0:0:0:0:
62,329,122541,6,0,P|107:303|184:316,1,120,12|8,0:1|0:0,0:0:0:0:
243,346,122995,1,8,0:1:0:0:
259,310,123086,2,0,P|275:260|277:215,1,80,0|8,0:0|0:1,0:0:0:0:
281,192,123359,1,8,0:0:0:0:
234,81,123632,2,0,P|298:89|354:40,1,120,8|8,0:1|0:0,0:0:0:0:
417,33,124086,1,8,0:1:0:0:
419,74,124177,2,0,P|422:118|428:163,1,80,0|0,0:0|0:0,0:0:0:0:
432,193,124450,1,8,0:0:0:0:
478,303,124723,6,0,B|449:291|423:277|423:277|403:282|345:286,1,120,14|2,0:1|0:1,0:0:0:0:
274,364,125268,2,0,P|261:253|244:224,1,120,14|2,0:1|0:1,0:0:0:0:
151,190,125814,2,0,P|162:253|179:345,1,120,8|8,0:0|0:0,0:0:0:0:
52,292,126359,2,0,L|42:345,2,40,8|8|8,0:3|0:3|0:3,0:0:0:0:
72,257,126632,2,0,P|64:217|53:179,1,80,8|8,0:3|0:3,0:0:0:0:
16,162,126905,6,0,P|5:108|38:42,1,120,12|8,0:1|0:0,0:0:0:0:
134,109,127450,2,0,P|178:104|244:79,1,80,0|8,0:1|0:1,0:0:0:0:
249,75,127723,1,8,0:0:0:0:
347,6,127995,2,0,P|414:17|452:35,1,80,8|0,0:1|0:0,0:0:0:0:
465,40,128268,1,8,0:0:0:0:
506,152,128541,2,0,P|454:162|419:237,1,120,0|8,0:0|0:0,0:0:0:0:
364,322,129086,6,0,P|338:277|321:204,1,120,8|8,0:1|0:0,0:0:0:0:
249,175,129541,1,8,0:1:0:0:
239,213,129632,2,0,P|229:251|218:290,1,80,0|8,0:0|0:1,0:0:0:0:
207,329,129905,1,8,0:0:0:0:
89,301,130177,2,0,P|115:256|132:183,1,120,8|8,0:1|0:0,0:0:0:0:
53,172,130632,1,0,0:0:0:0:
45,133,130723,2,0,P|35:89|24:43,1,80,8|8,0:1|0:0,0:0:0:0:
19,15,130995,1,8,0:0:0:0:
118,82,131268,6,0,L|196:70,1,80,12|0,0:1|0:0,0:0:0:0:
210,31,131541,2,0,P|271:38|327:48,1,80,8|8,2:0|0:1,0:0:0:0:
299,80,131814,2,0,L|377:68,1,80,0|8,2:0|0:1,0:0:0:0:
399,33,132086,1,8,0:0:0:0:
509,79,132359,2,0,P|522:136|495:188,1,120,8|8,0:1|0:0,0:0:0:0:
416,202,132814,1,8,0:1:0:0:
376,197,132905,2,0,P|336:192|296:189,1,80,0|0,0:0|0:0,0:0:0:0:
253,185,133178,1,8,0:0:0:0:
193,82,133450,6,0,P|140:110|82:120,1,120,14|2,0:1|0:1,0:0:0:0:
22,225,133996,2,0,P|72:255|110:301,1,120,14|2,0:1|0:1,0:0:0:0:
232,301,134541,2,0,P|233:241|253:186,1,120,14|8,0:1|0:0,0:0:0:0:
311,79,135087,2,0,L|258:69,2,40,8|0|8,0:0|0:0|0:0,0:0:0:0:
344,56,135360,2,0,P|422:37|448:35,1,80,8|4,0:3|0:3,0:0:0:0:
461,32,135633,6,0,P|499:76|505:135,1,120,12|8,0:1|0:0,0:0:0:0:
387,161,136178,2,0,P|376:199|371:239,1,80,0|8,0:0|0:1,0:0:0:0:
367,279,136451,1,8,0:0:0:0:
281,362,136723,2,0,P|270:295|252:257,1,80,8|0,0:1|0:0,0:0:0:0:
247,244,136996,1,8,0:0:0:0:
162,329,137269,2,0,P|115:364|58:356,1,120,0|8,0:0|0:0,0:0:0:0:
27,239,137814,6,0,P|40:180|69:128,1,120,12|8,0:1|0:0,0:0:0:0:
151,40,138359,2,0,P|164:98|193:150,1,120,4|0,0:0|0:0,0:0:0:0:
224,267,138905,6,0,L|276:271,1,40,12|0,0:0|0:0,0:0:0:0:
316,208,139177,2,0,L|368:212,1,40,12|0,0:0|0:0,0:0:0:0:
408,149,139450,2,0,L|460:153,1,40,12|0,0:0|0:0,0:0:0:0:
508,342,139995,5,12,0:1:0:0:
388,353,140268,2,0,B|358:335|318:332|318:332|304:347|281:362|281:362|238:368|194:340,1,200,8|8,0:0|0:1,0:0:0:0:
171,325,140813,1,8,0:0:0:0:
60,370,141086,1,8,0:1:0:0:
31,253,141359,2,0,B|65:228|80:204|80:204|135:185|222:240,1,200,8|8,0:0|0:1,0:0:0:0:
229,260,141904,1,8,0:0:0:0:
348,247,142177,5,8,0:1:0:0:
267,158,142450,2,0,P|246:75|348:29,1,200,8|8,0:0|0:1,0:0:0:0:
369,46,142995,1,8,0:0:0:0:
483,10,143268,1,8,0:1:0:0:
485,129,143541,2,0,P|467:228|453:328,1,200,8|0,0:0|0:1,0:0:0:0:
448,366,144087,1,8,0:0:0:0:
353,290,144359,6,0,P|313:293|277:311,1,80,12|0,0:0|0:0,0:0:0:0:
258,346,144632,2,0,P|152:356|69:283,1,200,8|8,0:0|0:1,0:0:0:0:
76,264,145177,1,8,0:0:0:0:
167,185,145450,5,8,0:1:0:0:
175,65,145723,2,0,B|95:4|22:73|22:73|41:103,1,200,8|8,0:0|0:1,0:0:0:0:
60,131,146269,1,8,0:0:0:0:
167,185,146541,1,8,0:1:0:0:
276,136,146814,6,0,P|280:76|290:3,2,120,8|8|0,0:0|0:1|0:0,0:0:0:0:
290,255,147632,2,0,P|340:246|402:239,1,80,8|8,0:0|0:1,0:0:0:0:
391,208,147905,2,0,P|430:213|469:220,1,80,2|8,0:0|0:1,0:0:0:0:
490,255,148177,1,10,0:0:0:0:
410,345,148450,2,0,L|360:338,3,30,10|8|8|12,0:0|0:0|0:3|0:3,0:0:0:0:
351,350,148723,5,12,0:1:0:0:
231,347,148996,2,0,P|194:313|236:185,1,200,8|8,0:0|0:1,0:0:0:0:
271,191,149541,1,8,0:0:0:0:
358,107,149814,2,0,P|298:100|240:84,1,120,8|8,0:1|0:0,0:0:0:0:
211,9,150268,2,0,P|151:15|93:31,1,120,0|8,0:0|0:1,0:0:0:0:
69,64,150632,1,8,0:0:0:0:
32,178,150905,5,8,0:1:0:0:
146,142,151177,2,0,P|202:157|238:288,1,200,8|8,0:0|0:1,0:0:0:0:
214,310,151723,1,8,0:0:0:0:
326,351,151996,2,0,P|334:288|351:223,1,120,8|8,0:1|0:0,0:0:0:0:
428,229,152450,2,0,P|410:169|383:107,1,120,8|0,0:1|0:1,0:0:0:0:
368,80,152814,1,8,0:0:0:0:
277,0,153087,5,8,0:0:0:0:
211,44,153268,1,8,0:0:0:0:
201,82,153359,2,0,P|193:125|187:171,1,80,8|8,0:1|0:0,0:0:0:0:
197,200,153632,2,0,P|205:243|211:289,1,80,8|8,0:1|0:0,0:0:0:0:
204,319,153905,1,8,0:1:0:0:
314,375,154177,6,0,P|370:359|457:350,1,120,8|8,0:1|0:0,0:0:0:0:
500,252,154723,2,0,P|455:264|387:271,1,80,0|8,0:1|0:0,0:0:0:0:
387,248,154996,2,0,P|347:254|309:265,1,80,8|8,0:0|0:0,0:0:0:0:
278,290,155268,5,8,0:1:0:0:
197,200,155541,2,0,P|203:160|220:124,1,80,8|8,0:0|0:1,0:0:0:0:
259,114,155814,2,0,P|252:74|235:38,1,80,8|8,0:0|0:0,0:0:0:0:
202,14,156087,1,8,0:1:0:0:
107,87,156359,1,12,0:0:0:0:
256,192,156450,12,4,157450,0:0:0:0:
374,209,166177,6,0,P|433:200|492:189,2,120,8|0|0,0:1|0:0|0:0,0:0:0:0:
257,239,166996,1,0,0:0:0:0:
352,310,167268,1,8,0:0:0:0:
352,310,167814,1,0,0:0:0:0:
243,361,168087,1,0,0:0:0:0:
165,269,168359,6,0,P|169:208|198:154,1,120,8|0,0:1|0:0,0:0:0:0:
242,45,168905,2,0,P|192:57|117:60,1,120,0|0,0:0|0:0,0:0:0:0:
3,58,169450,1,8,0:0:0:0:
3,58,169996,1,0,0:0:0:0:
62,161,170268,1,0,0:0:0:0:
195,156,170541,6,0,P|257:143|351:131,1,120,8|0,0:1|0:0,0:0:0:0:
368,27,171087,2,0,P|426:39|486:48,1,120,0|0,0:0|0:0,0:0:0:0:
480,168,171632,2,0,P|455:210|446:296,1,120,8|0,0:0|0:0,0:0:0:0:
350,354,172177,2,0,P|342:294|314:242,1,120,0|0,0:0|0:0,0:0:0:0:
226,159,172723,5,12,0:0:0:0:
111,369,173268,1,12,0:0:0:0:
33,141,173814,6,0,P|95:132|143:118,1,80,8|8,0:0|0:0,0:0:0:0:
117,87,174087,2,0,P|178:94|229:93,1,80,8|10,0:0|0:0,0:0:0:0:
212,57,174359,2,0,P|269:80|319:92,1,80,8|8,0:0|0:0,0:0:0:0:
310,51,174632,1,10,0:0:0:0:
344,165,174905,5,12,0:1:0:0:
272,368,177087,6,0,P|321:341|400:370,1,120,14|2,0:1|0:1,0:0:0:0:
426,242,177632,2,0,B|409:252|389:269|389:269|342:252|284:241,1,120,14|2,0:1|0:1,0:0:0:0:
404,163,178178,2,0,P|462:160|504:201,1,120,12|8,0:1|0:0,0:0:0:0:
469,73,178723,2,0,L|522:63,2,40,2|2|10,0:0|0:0|0:0,0:0:0:0:
438,45,178996,2,0,P|360:26|334:24,1,80,8|0,0:3|0:0,0:0:0:0:
340,61,179269,6,0,P|286:72|220:39,1,120,12|8,0:1|0:0,0:0:0:0:
130,56,179814,2,0,P|141:95|146:135,1,80,0|0,0:0|0:0,0:0:0:0:
151,175,180087,1,8,0:0:0:0:
31,169,180359,2,0,P|19:207|15:246,1,80,8|0,0:1|0:0,0:0:0:0:
22,287,180632,1,8,0:0:0:0:
140,267,180905,2,0,P|192:277|227:352,1,120,0|8,0:0|0:0,0:0:0:0:
340,369,181450,6,0,P|353:310|382:258,1,120,8|8,0:1|0:0,0:0:0:0:
425,190,181905,1,8,0:1:0:0:
387,180,181996,2,0,P|348:171|310:159,1,80,0|8,0:0|0:1,0:0:0:0:
271,145,182269,1,8,0:0:0:0:
193,53,182541,2,0,P|159:102|154:161,1,120,8|8,0:1|0:0,0:0:0:0:
199,227,182996,1,8,0:1:0:0:
191,266,183087,2,0,P|181:310|170:356,1,80,8|8,0:0|0:0,0:0:0:0:
167,383,183359,1,8,0:0:0:0:
285,364,183632,6,0,P|326:352|381:337,1,80,12|0,0:1|0:0,0:0:0:0:
401,335,183905,2,0,P|401:280|385:231,1,80,8|8,0:0|0:1,0:0:0:0:
362,233,184177,2,0,P|362:178|378:129,1,80,0|0,0:0|0:0,0:0:0:0:
388,119,184450,1,8,0:0:0:0:
327,15,184723,2,0,P|274:42|217:28,1,120,8|8,0:1|0:0,0:0:0:0:
137,35,185178,1,8,0:1:0:0:
139,74,185269,2,0,P|142:118|148:163,1,80,0|8,0:0|0:1,0:0:0:0:
152,193,185542,1,8,0:0:0:0:
127,310,185814,6,0,B|155:295|176:277|176:277|201:287|252:293,1,120,14|2,0:1|0:1,0:0:0:0:
348,250,186359,2,0,P|315:299|330:355,1,120,14|2,0:1|0:1,0:0:0:0:
438,302,186905,2,0,P|455:245|467:186,1,120,14|8,0:1|0:0,0:0:0:0:
380,102,187450,2,0,L|370:49,2,40,8|0|8,0:0|0:0|0:0,0:0:0:0:
355,134,187723,2,0,P|277:115|251:113,1,80,8|4,0:3|0:3,0:0:0:0:
250,145,187996,6,0,P|192:154|139:129,1,120,12|8,0:1|0:0,0:0:0:0:
18,139,188541,2,0,P|28:177|33:217,1,80,0|0,0:0|0:0,0:0:0:0:
36,257,188814,1,8,0:0:0:0:
110,350,189086,2,0,P|121:283|139:245,1,80,8|0,0:1|0:0,0:0:0:0:
139,234,189359,1,8,0:0:0:0:
230,311,189632,2,0,P|284:301|362:295,1,120,0|8,0:0|0:0,0:0:0:0:
465,265,190177,6,0,P|434:214|381:187,1,120,12|8,0:1|0:0,0:0:0:0:
262,166,190723,2,0,P|267:106|287:49,1,120,8|0,0:1|0:0,0:0:0:0:
405,0,191269,6,0,P|418:42|421:93,1,80,12|0,0:0|0:0,0:0:0:0:
398,109,191541,2,0,P|385:151|382:202,1,80,12|0,0:0|0:0,0:0:0:0:
402,221,191814,2,0,P|415:263|418:314,1,80,12|0,0:0|0:0,0:0:0:0:
413,338,192087,1,8,0:3:0:0:
294,322,192359,5,12,0:1:0:0:
