osu file format v14

[General]
AudioFilename: audio.mp3
AudioLeadIn: 0
PreviewTime: 47161
Countdown: 0
SampleSet: Soft
StackLeniency: 0.4
Mode: 0
LetterboxInBreaks: 0
WidescreenStoryboard: 0

[Editor]
DistanceSpacing: 1.6
BeatDivisor: 8
GridSize: 32
TimelineZoom: 2.400005

[Metadata]
Title:SKETCH (TV Size)
TitleUnicode:SKETCH (TV Size)
Artist:Akiyama Kiro
ArtistUnicode:秋山黄色
Creator:Aurorance
Version:Struggle
Source:僕のヒーローアカデミア
Tags:mocaotic iredi -Aqua Aqua Laplus- La+ anime japanese pop jpop j-pop mha boku no my hero academia season six s6 ending ed theme song male vocal bnha 6 6th vocalist
BeatmapID:3916642
BeatmapSetID:1900097

[Difficulty]
HPDrainRate:5
CircleSize:4.3
OverallDifficulty:8
ApproachRate:8.8
SliderMultiplier:3.4
SliderTickRate:1

[Events]
//Background and Video events
0,0,"rsz_1chrome_hrpdbn5i6k.jpg",0,0
Video,-54,"mhaed.mp4"
//Break Periods
//Storyboard Layer 0 (Background)
//Storyboard Layer 1 (Fail)
//Storyboard Layer 2 (Pass)
//Storyboard Layer 3 (Foreground)
//Storyboard Layer 4 (Overlay)
//Storyboard Sound Samples

[TimingPoints]
2161,638.297872340426,4,2,2,50,1,0
2320,-133.333333333333,4,2,2,50,0,0
4714,-200,4,2,2,50,0,0
5352,-133.333333333333,4,2,2,50,0,0
5990,-125,4,2,2,50,0,0
7426,-153.846153846154,4,2,2,50,0,0
8065,-166.666666666667,4,2,2,50,0,0
8703,-200,4,2,2,50,0,0
9341,-222.222222222222,4,2,2,50,0,0
9820,-166.666666666667,4,2,2,50,0,0
10299,-125,4,2,2,50,0,0
10778,-100,4,2,2,50,0,0
12054,-133.333333333333,4,2,2,50,0,0
12373,-111.111111111111,4,2,2,60,0,0
13490,-166.666666666667,4,2,2,60,0,0
14288,-133.333333333333,4,2,2,60,0,0
14926,-111.111111111111,4,2,2,60,0,0
17001,-166.666666666667,4,2,2,60,0,0
18916,-125,4,2,2,60,0,0
25139,-200,4,2,2,60,0,0
25618,-153.846153846154,4,2,2,60,0,0
26097,-192.307692307692,4,2,2,60,0,0
27692,-192.307692307692,4,2,2,65,0,0
27852,-111.111111111111,4,2,2,65,0,0
28331,-111.111111111111,4,2,1,65,0,0
31043,-133.333333333333,4,2,1,65,0,0
31363,-111.111111111111,4,2,1,65,0,0
32639,-125,4,2,1,65,0,0
33916,-111.111111111111,4,2,1,65,0,0
36948,-133.333333333333,4,2,1,65,0,0
37267,-100,4,2,1,65,0,0
37905,-250,4,2,1,65,0,0
38463,-250,4,2,1,5,0,0
38543,-100,4,2,1,70,0,0
40778,-125,4,2,1,70,0,0
41097,-100,4,2,1,70,0,0
44767,-125,4,2,1,70,0,0
45246,-100,4,2,1,70,0,0
46203,-90.9090909090909,4,2,1,70,0,0
48118,-400,4,2,1,50,0,0
48676,-400,4,2,1,5,0,0
48756,-76.9230769230769,4,2,1,80,0,1
49395,-90.9090909090909,4,2,1,80,0,1
50990,-111.111111111111,4,2,1,80,0,1
51629,-90.9090909090909,4,2,1,80,0,1
54820,-111.111111111111,4,2,1,80,0,1
55139,-90.9090909090909,4,2,1,80,0,1
56097,-111.111111111111,4,2,1,80,0,1
56735,-90.9090909090909,4,2,1,80,0,1
57692,-100,4,2,1,80,0,1
63437,-90.9090909090909,4,2,1,80,0,1
63756,-111.111111111111,4,2,1,80,0,1
64075,-200,4,2,1,80,0,1
64314,-200,4,2,1,5,0,1
64395,-90.9090909090909,4,2,1,80,0,1
66948,-111.111111111111,4,2,1,80,0,1
67267,-90.9090909090909,4,2,1,80,0,1
68543,-400,4,2,1,50,0,0
69101,-400,4,2,1,5,0,0
69182,-76.9230769230769,4,2,1,80,0,1
69661,-74.0740740740741,4,2,1,80,0,1
69820,-90.9090909090909,4,2,1,80,0,1
71416,-111.111111111111,4,2,1,80,0,1
72054,-90.9090909090909,4,2,1,80,0,1
75246,-111.111111111111,4,2,1,80,0,1
75565,-90.9090909090909,4,2,1,80,0,1
76203,-100,4,2,1,80,0,1
78437,-200,4,2,1,80,0,1
78676,-200,4,2,1,5,0,1
78756,-90.9090909090909,4,2,1,80,0,1
80990,-111.111111111111,4,2,1,80,0,1
82586,-90.9090909090909,4,2,1,80,0,1
83863,-117.647058823529,4,2,1,50,0,0

[Colours]
Combo1 : 0,215,0
Combo2 : 255,128,64
Combo3 : 0,128,0
Combo4 : 238,238,0

[HitObjects]
204,120,2001,5,2,2:0:0:0:
184,47,2161,1,2,2:0:0:0:
131,102,2320,2,0,P|195:87|257:74,1,127.5,2|2,2:0|2:0,2:0:0:0:
401,116,2799,2,0,P|408:77|415:44,1,63.7500000000002,2|2,2:0|2:0,2:0:0:0:
341,35,3118,2,0,P|334:66|328:98,1,63.7500000000002,2|2,2:0|2:0,2:0:0:0:
248,151,3437,5,2,2:0:0:0:
255,163,3597,2,0,P|321:175|390:192,1,127.5,2|2,2:0|2:0,2:0:0:0:
441,300,4075,1,2,2:0:0:0:
441,300,4395,1,2,2:0:0:0:
445,313,4554,1,2,2:0:0:0:
387,363,4714,6,0,P|329:348|240:329,1,127.5,2|2,2:0|2:0,2:0:0:0:
187,384,5352,2,0,P|159:292|122:204,1,191.25,2|2,2:0|2:0,2:0:0:0:
17,103,5990,6,0,P|76:114|153:131,1,136,2|0,2:0|2:0,2:0:0:0:
30,26,6629,2,0,P|89:37|166:54,1,136,2|0,2:0|2:0,2:0:0:0:
231,126,7107,5,2,2:0:0:0:
299,78,7267,1,2,2:0:0:0:
361,134,7426,2,0,L|352:188,1,55.25,2|0,2:0|2:0,2:0:0:0:
351,188,7746,1,2,2:0:0:0:
276,191,7905,5,2,2:0:0:0:
220,241,8065,2,0,L|234:350,1,102,2|2,2:0|2:0,2:0:0:0:
163,183,8543,1,2,2:0:0:0:
137,226,8703,2,0,L|149:320,1,85,2|2,2:0|2:0,2:0:0:0:
73,177,9182,1,2,2:0:0:0:
51,208,9341,2,0,L|61:285,1,76.5000000000001,2|2,2:0|2:0,2:0:0:0:
148,355,9820,6,0,P|197:342|247:332,1,102,2|0,2:0|2:0,2:0:0:0:
320,384,10299,2,0,P|348:326|399:247,1,136,2|0,2:0|2:0,2:0:0:0:
501,258,10778,2,0,B|461:301|340:307|318:214|325:117|437:123|441:192,1,340,2|0,2:0|2:0,2:0:0:0:
331,90,11735,5,0,2:0:0:0:
331,90,12054,2,0,L|324:59,3,31.8750000000001,0|0|0|0,2:0|2:0|2:0|2:0,2:0:0:0:
266,139,12373,6,0,L|251:213,1,76.5000000000001,2|2,2:0|2:0,2:0:0:0:
174,196,12692,2,0,L|189:122,1,76.5000000000001,2|2,2:0|2:0,2:0:0:0:
99,15,13012,5,2,2:0:0:0:
99,15,13171,1,2,2:0:0:0:
30,72,13331,1,2,2:0:0:0:
30,72,13490,2,0,P|42:147|53:223,1,153,2|0,2:0|2:0,2:0:0:0:
0,335,14288,6,0,P|68:348|131:366,1,127.5,2|2,2:0|2:0,2:0:0:0:
341,227,14926,6,0,L|266:239,1,76.5000000000001,2|2,2:0|2:0,2:0:0:0:
434,353,15246,2,0,L|513:365,1,76.5000000000001,2|2,2:0|2:0,2:0:0:0:
413,176,15565,5,2,2:0:0:0:
413,176,15724,1,2,2:0:0:0:
355,317,15884,1,2,2:0:0:0:
355,317,16043,1,2,2:0:0:0:
449,39,17001,6,0,P|478:34|508:30,2,50.9999999999999,2|2|2,2:0|2:0|2:0,2:0:0:0:
335,0,17480,5,10,2:0:0:0:
286,132,17639,1,2,2:0:0:0:
286,132,17958,5,2,2:0:0:0:
211,97,18118,1,2,2:0:0:0:
179,21,18278,1,2,2:0:0:0:
179,21,18597,5,2,2:0:0:0:
127,85,18756,1,2,2:0:0:0:
45,98,18916,2,0,P|30:186|18:249,1,136,2|2,2:0|2:0,2:0:0:0:
0,353,19395,5,2,2:0:0:0:
70,305,19554,1,2,2:0:0:0:
155,314,19714,1,2,2:0:0:0:
215,377,19873,1,2,2:0:0:0:
215,377,19953,1,2,2:0:0:0:
215,377,20033,6,0,P|311:344|411:315,1,204,10|2,2:0|2:0,2:0:0:0:
510,362,20671,2,0,P|433:295|358:223,1,204,2|2,2:0|2:0,2:0:0:0:
304,277,21309,2,0,P|328:213|350:149,1,136,2|0,2:0|2:0,2:0:0:0:
508,47,21948,1,2,2:0:0:0:
349,149,22267,5,0,2:0:0:0:
302,14,22426,1,2,2:0:0:0:
302,14,22506,1,2,2:0:0:0:
302,14,22586,1,10,2:0:0:0:
223,45,22746,1,2,2:0:0:0:
223,45,23065,5,2,2:0:0:0:
263,115,23224,1,2,2:0:0:0:
233,191,23384,1,2,2:0:0:0:
233,191,23703,5,2,2:0:0:0:
162,212,23863,1,2,2:0:0:0:
102,171,24022,1,2,2:0:0:0:
102,171,24341,5,2,2:0:0:0:
96,102,24501,1,2,2:0:0:0:
147,55,24661,1,2,2:0:0:0:
147,55,24980,5,2,2:0:0:0:
271,131,25139,2,0,P|311:117|351:102,1,85,2|0,2:0|2:0,2:0:0:0:
225,204,25618,2,0,P|181:164|136:127,1,110.5,2|0,2:0|2:0,2:0:0:0:
312,208,26097,2,0,P|292:296|277:387,1,176.8,2|0,2:0|2:0,2:0:0:0:
225,204,27054,5,2,2:0:0:0:
403,137,27373,5,2,2:0:0:0:
403,137,27533,1,2,2:0:0:0:
258,72,27692,1,2,3:2:0:0:
345,37,27852,2,0,P|328:106|311:203,1,153,2|2,2:0|2:0,2:0:0:0:
403,137,28331,5,8,2:0:0:0:
269,259,28490,1,2,3:2:0:0:
269,259,28809,6,0,P|342:273|417:295,1,153,2|0,3:2|2:0,2:0:0:0:
473,365,29288,1,0,3:2:0:0:
360,141,29607,5,8,2:0:0:0:
269,259,29767,2,0,P|276:219|283:172,2,76.5000000000001,2|2|2,2:0|2:0|2:0,2:0:0:0:
196,360,30246,2,0,P|183:275|168:197,1,153,2|2,3:2|2:0,2:0:0:0:
214,135,30724,5,2,2:0:0:0:
84,206,30884,1,8,2:0:0:0:
118,69,31043,2,0,P|124:100|129:132,1,63.7500000000002,2|0,3:2|2:0,2:0:0:0:
269,259,31363,6,0,P|147:279|35:306,1,229.5,2|0,3:2|3:2,2:0:0:0:
268,348,32161,5,8,2:0:0:0:
359,190,32320,1,2,3:2:0:0:
359,190,32480,1,2,2:0:0:0:
399,296,32639,2,0,P|333:276|268:258,1,136,2|2,2:0|2:0,2:0:0:0:
145,157,33118,1,2,2:0:0:0:
246,113,33278,2,0,P|235:145|228:179,1,68,2|8,2:0|2:0,2:0:0:0:
140,316,33597,5,2,3:2:0:0:
140,316,33756,1,2,2:0:0:0:
76,247,33916,2,0,P|64:165|49:85,1,153,2|2,3:2|2:0,2:0:0:0:
160,29,34395,5,2,3:2:0:0:
51,96,34554,1,2,2:0:0:0:
72,8,34714,1,10,2:0:0:0:
139,117,34873,2,0,P|186:106|231:98,1,76.5000000000001,2|0,2:0|2:0,2:0:0:0:
347,14,35192,1,2,2:0:0:0:
347,14,35512,5,2,2:0:0:0:
407,80,35671,2,0,P|399:127|391:172,1,76.5000000000001,2|2,2:0|2:0,2:0:0:0:
312,212,35990,2,0,P|305:174|298:136,1,76.5000000000001,10|2,2:0|3:2,2:0:0:0:
231,80,36309,1,2,2:0:0:0:
141,252,36469,1,2,3:2:0:0:
141,252,36788,5,2,2:0:0:0:
214,303,36948,2,0,P|245:296|276:292,1,63.7500000000002,2|2,3:2|2:0,2:0:0:0:
346,383,37267,2,0,P|359:327|386:245,2,127.5,10|2|2,2:0|2:0|2:0,2:0:0:0:
315,201,37905,6,0,P|274:210|312:210,1,119,2|0,2:0|2:0,2:0:0:0:
315,201,38543,6,0,P|256:142|174:154,1,170,6|0,3:2|2:0,2:0:0:0:
148,233,39022,1,0,3:2:0:0:
289,278,39182,2,0,P|205:289|147:231,1,170,10|0,2:0|2:0,2:0:0:0:
80,163,39661,5,2,2:0:0:0:
24,307,39820,2,0,P|6:267|8:222,1,85,10|0,2:0|2:0,2:0:0:0:
80,163,40139,2,0,P|116:243|112:331,1,170,2|0,2:0|3:2,2:0:0:0:
286,113,40778,6,0,P|281:86|278:109,1,68,2|0,2:0|2:0,2:0:0:0:
127,44,41097,2,0,P|164:63|206:62,1,85,10|0,2:0|3:2,2:0:0:0:
347,30,41416,2,0,P|309:11|267:12,1,85,2|0,2:0|3:2,2:0:0:0:
188,143,41735,6,0,P|141:137|101:127,1,85,10|0,2:0|2:0,2:0:0:0:
99,119,41974,2,0,P|70:156|41:186,1,85,2|0,2:0|2:0,2:0:0:0:
33,184,42214,2,0,P|50:227|62:267,1,85,2|8,3:2|2:0,2:0:0:0:
219,359,42533,5,2,2:0:0:0:
203,265,42692,1,2,2:0:0:0:
131,325,42852,1,10,2:0:0:0:
290,298,43012,1,2,3:2:0:0:
290,298,43650,6,0,P|359:338|425:293,1,170,10|0,2:0|2:0,2:0:0:0:
355,237,44129,1,2,3:2:0:0:
511,318,44288,2,0,P|510:237|438:203,1,170,10|2,2:0|2:0,2:0:0:0:
290,298,44767,6,0,P|226:322|159:327,1,136,2|2,2:0|2:0,2:0:0:0:
284,188,45246,2,0,P|199:194|120:224,1,170,2|8,3:2|2:0,2:0:0:0:
6,20,45884,5,2,2:0:0:0:
80,151,46043,1,2,2:0:0:0:
206,46,46203,2,0,P|136:56|68:70,2,140.25,10|2|2,2:0|2:0|3:2,2:0:0:0:
312,100,46841,5,8,3:2:0:0:
120,223,47001,1,8,3:2:0:0:
120,223,48118,6,0,P|131:199|130:221,1,74.375,2|0,2:0|2:0,2:0:0:0:
1,188,48756,6,0,B|78:146|131:209|121:220|168:275|251:234,1,276.25,12|0,3:2|2:0,2:0:0:0:
242,120,49235,2,0,P|215:111|188:113,1,55.25,2|0,2:0|2:0,2:0:0:0:
316,172,49395,6,0,P|366:158|404:144,1,93.5,2|0,2:0|2:0,2:0:0:0:
413,135,49634,2,0,P|449:170|480:197,1,93.5,2|0,2:0|2:0,2:0:0:0:
483,209,49873,1,2,2:0:0:0:
383,322,50033,2,0,P|390:275|400:230,1,93.5,8|0,2:0|2:0,2:0:0:0:
500,112,50352,1,2,2:0:0:0:
316,172,50512,5,2,2:0:0:0:
316,172,50591,1,2,2:0:0:0:
316,172,50671,2,0,P|246:184|182:200,1,124.666670471192,2|0,3:2|2:0,2:0:0:0:
186,194,50990,2,0,P|176:136|160:84,1,101.999996887207,2|0,2:0|2:0,2:0:0:0:
256,102,51309,1,10,2:0:0:0:
256,102,51469,1,0,2:0:0:0:
90,184,51629,6,0,B|71:240|119:268|125:260|167:285|149:345,2,187,2|0|0,3:2|2:0|2:0,2:0:0:0:
275,47,52586,6,0,P|317:65|330:108,1,93.5,10|0,2:0|2:0,2:0:0:0:
256,255,52905,2,0,P|250:210|281:177,1,93.5,2|0,2:0|2:0,2:0:0:0:
502,138,53224,2,0,P|450:208|365:185,1,187,2|0,3:2|2:0,2:0:0:0:
364,184,53863,6,0,P|449:208|502:138,1,187,10|0,2:0|3:2,2:0:0:0:
389,23,54341,1,2,2:0:0:0:
413,111,54501,6,0,P|333:95|270:85,1,124.666670471192,2|2,2:0|2:0,2:0:0:0:
281,92,54820,2,0,P|286:154|267:196,1,101.999996887207,0|0,3:2|2:0,2:0:0:0:
172,190,55139,2,0,P|166:128|189:69,1,124.666670471192,8|0,2:0|2:0,2:0:0:0:
197,61,55458,1,2,2:0:0:0:
53,0,55618,5,2,2:0:0:0:
53,0,55698,1,2,2:0:0:0:
53,0,55778,2,0,P|69:76|79:137,1,124.666670471192,2|0,3:2|2:0,2:0:0:0:
84,129,56097,2,0,P|70:191|63:240,1,101.999996887207,2|0,2:0|2:0,2:0:0:0:
23,302,56416,1,10,2:0:0:0:
23,302,56575,1,0,2:0:0:0:
146,238,56735,6,0,B|228:203|275:272|264:282|306:343|394:309,1,280.5,2|0,3:2|2:0,2:0:0:0:
413,127,57373,5,0,2:0:0:0:
498,151,57533,1,0,2:0:0:0:
435,214,57692,2,0,P|383:221|341:229,1,85,10|0,2:0|2:0,2:0:0:0:
178,75,58012,5,2,2:0:0:0:
96,108,58171,1,0,2:0:0:0:
159,171,58331,2,0,P|242:153|325:139,1,170,2|0,3:2|2:0,2:0:0:0:
326,139,58969,6,0,P|243:153|159:171,1,170,10|0,2:0|3:2,2:0:0:0:
247,63,59448,1,2,2:0:0:0:
409,123,59607,6,0,P|418:167|426:212,1,85,2|2,2:0|2:0,2:0:0:0:
417,215,59847,2,0,P|374:225|329:233,1,85,2|0,2:0|2:0,2:0:0:0:
323,226,60086,1,2,2:0:0:0:
452,290,60246,6,0,P|389:301|327:315,1,127.5,8|0,2:0|2:0,2:0:0:0:
319,325,60565,2,0,P|256:310|194:299,1,127.5,2|0,2:0|2:0,2:0:0:0:
129,338,60884,6,0,P|161:294|140:243,1,113.333333333333,2|0,3:2|2:0,2:0:0:0:
132,237,61203,2,0,P|78:231|45:274,1,113.333333333333,2|0,2:0|2:0,2:0:0:0:
58,351,61522,1,10,2:0:0:0:
58,351,61682,1,0,2:0:0:0:
208,269,61841,6,0,B|258:251|284:295|277:300|299:339|354:322,2,170,2|0|0,3:2|2:0|2:0,2:0:0:0:
0,81,62799,6,0,P|63:89|131:103,1,127.5,10|0,2:0|2:0,2:0:0:0:
134,108,63118,1,2,2:0:0:0:
82,14,63278,1,2,2:0:0:0:
199,148,63437,6,0,P|256:139|278:62,1,140.25,6|0,3:2|2:0,2:0:0:0:
276,58,63756,2,0,P|320:94|378:85,1,114.75,2|0,2:0|2:0,2:0:0:0:
335,171,64075,2,0,P|345:191|331:171,1,63.75,10|0,2:0|2:0,2:0:0:0:
340,23,64395,6,0,B|293:99|355:155|367:145|421:196|375:278,1,280.5,6|0,3:2|2:0,2:0:0:0:
241,356,65033,6,0,P|198:336|177:295,1,93.5,2|0,3:2|2:0,2:0:0:0:
10,285,65352,2,0,P|28:242|69:221,1,93.5,10|0,2:0|2:0,2:0:0:0:
159,213,65671,1,2,2:0:0:0:
159,213,65831,1,0,2:0:0:0:
29,92,65990,6,0,P|120:111|212:131,1,187,6|0,3:2|2:0,2:0:0:0:
292,90,66469,1,2,3:2:0:0:
127,21,66629,2,0,P|173:31|219:41,1,93.5,8|0,2:0|2:0,2:0:0:0:
405,186,66948,2,0,P|430:136|422:80,1,114.75,2|0,3:2|2:0,2:0:0:0:
327,203,67267,6,0,P|315:111|358:30,1,187,14|0,3:2|2:0,2:0:0:0:
464,243,67905,5,10,2:0:0:0:
448,318,68065,1,2,2:0:0:0:
311,278,68224,1,10,2:0:0:0:
327,353,68384,1,2,2:0:0:0:
239,255,68543,6,0,P|216:240|238:244,1,74.375,2|0,3:2|2:0,2:0:0:0:
187,367,69182,6,0,B|156:284|225:241|235:252|296:213|267:125,1,276.25,14|0,3:2|2:0,2:0:0:0:
166,120,69661,2,0,P|153:145|156:174,1,57.375,2|0,2:0|2:0,2:0:0:0:
280,27,69820,6,0,P|328:44|366:56,1,93.5,2|0,2:0|2:0,2:0:0:0:
378,54,70059,2,0,P|369:102|363:142,1,93.5,2|0,2:0|2:0,2:0:0:0:
358,153,70299,1,2,2:0:0:0:
454,70,70458,2,0,P|445:118|439:158,1,93.5,8|0,2:0|2:0,2:0:0:0:
404,317,70778,5,2,2:0:0:0:
512,258,70937,1,2,2:0:0:0:
512,258,71017,1,2,2:0:0:0:
512,258,71097,2,0,P|451:243|390:233,1,124.666670471192,2|0,3:2|2:0,2:0:0:0:
379,233,71416,2,0,P|336:264|296:299,1,101.999996887207,2|0,2:0|2:0,2:0:0:0:
404,317,71735,1,10,2:0:0:0:
404,317,71895,5,0,2:0:0:0:
237,239,72054,6,0,B|181:220|153:268|161:274|136:316|76:298,2,187,2|0|0,3:2|2:0|2:0,2:0:0:0:
8,40,73012,6,0,P|22:93|32:153,1,93.5,10|0,2:0|2:0,2:0:0:0:
195,158,73331,1,2,2:0:0:0:
195,158,73490,1,2,2:0:0:0:
79,3,73650,2,0,P|101:89|118:187,1,187,2|0,3:2|2:0,2:0:0:0:
118,185,74288,6,0,P|102:93|80:3,1,187,10|0,2:0|3:2,2:0:0:0:
29,131,74767,1,2,2:0:0:0:
169,32,74926,6,0,P|249:42|305:53,1,124.666670471192,2|2,2:0|2:0,2:0:0:0:
299,57,75246,2,0,P|277:105|279:153,1,101.999996887207,0|0,3:2|2:0,2:0:0:0:
374,185,75565,2,0,P|399:127|396:65,1,124.666670471192,8|0,2:0|2:0,2:0:0:0:
393,58,75884,1,2,2:0:0:0:
278,159,76043,5,2,2:0:0:0:
278,159,76123,1,2,2:0:0:0:
278,159,76203,2,0,P|257:209|252:270,1,113.333333333333,2|0,3:2|2:0,2:0:0:0:
253,278,76522,2,0,P|228:226|189:184,1,113.333333333333,2|0,2:0|2:0,2:0:0:0:
210,111,76841,1,10,2:0:0:0:
210,111,77001,1,0,2:0:0:0:
122,252,77161,6,0,B|63:195|105:130|117:136|153:79|93:17,1,255,2|0,3:2|2:0,2:0:0:0:
266,159,77799,5,2,2:0:0:0:
181,181,77958,1,2,2:0:0:0:
242,245,78118,2,0,P|291:252|334:260,1,85,10|0,2:0|2:0,2:0:0:0:
483,151,78437,6,0,P|465:166|487:159,1,63.75,2|0,2:0|2:0,2:0:0:0:
398,20,78756,6,0,P|351:27|306:36,1,93.5,6|0,3:2|2:0,2:0:0:0:
410,94,78996,2,0,P|364:103|318:110,1,93.5,2|0,2:0|2:0,2:0:0:0:
246,85,79235,1,2,2:0:0:0:
139,109,79395,6,0,P|153:152|190:179,1,93.5,10|0,2:0|2:0,2:0:0:0:
202,176,79634,2,0,P|221:92|187:49,1,140.25000428009,2|2,2:0|2:0,2:0:0:0:
72,162,80033,6,0,P|58:233|48:312,2,140.25,2|2|2,2:0|2:0|2:0,2:0:0:0:
209,250,80671,5,12,2:0:0:0:
49,300,80831,1,2,2:0:0:0:
123,357,80990,2,0,P|126:306|132:255,1,101.999996887207,2|0,2:0|2:0,2:0:0:0:
168,184,81309,5,10,2:0:0:0:
346,271,81522,1,2,2:0:0:0:
493,137,81735,1,2,2:0:0:0:
460,230,81948,5,2,2:0:0:0:
331,167,82161,1,2,2:0:0:0:
226,263,82373,1,2,2:0:0:0:
179,88,82586,6,0,B|121:55|86:93|100:96|57:139|7:111,2,187,2|0|8,3:2|3:2|2:0,2:0:0:0:
440,47,83543,5,10,2:0:0:0:
452,43,83650,5,8,2:0:0:0:
464,39,83756,5,8,2:0:0:0:
476,36,83863,6,0,P|457:104|442:198,1,144.500000000001,2|0,3:2|2:0,2:0:0:0:
451,179,84501,2,0,P|463:108|482:39,1,144.500000000001,10|0,2:0|2:0,2:0:0:0:
305,234,85139,6,0,P|324:302|339:396,1,144.500000000001,2|0,3:2|2:0,2:0:0:0:
330,377,85778,2,0,P|318:306|299:237,1,144.500000000001,10|0,2:0|2:0,2:0:0:0:
36,36,86416,6,0,P|55:104|70:198,1,144.500000000001,2|0,3:2|2:0,2:0:0:0:
175,374,87054,2,0,P|187:303|207:234,1,144.500000000001,10|0,2:0|2:0,2:0:0:0:
